  0
SECTION
  2
HEADER
  9
$EXTMAX
 10
420.0
 20
297.0
 30
0.0
  9
$EXTMIN
 10
0.0
 20
0.0
 30
0.0
  9
$LIMMIN
 10
0.0
 20
0.0
  9
$LIMMAX
 10
420.0
 20
297.0
  9
$VIEWCTR
 10
210.0
 20
148.5
  9
$VIEWSIZE
 40
297.0
  9
$CLAYER
  8
0
  9
$LTSCALE
 40
23.1
  9
$CELTYPE
  6
BYLAYER
  9
$DIMSCALE
 40
1.0
  9
$DIMASZ
 40
3.5
  9
$DIMEXO
 40
0.0
  9
$DIMDLI
 40
15.96
  9
$DIMEXE
 40
2.0
  9
$DIMCEN
 40
3.78
  9
$DIMLFAC
 40
1.0
  9
$DIMBLK
  1
_FILLED
  9
$DIMALT
 70
0
  9
$DIMALTF
 40
0.0393700787
  9
$DIMTXT
 40
3.5
  9
$AUNITS
 70
0
  9
$PDMODE
 70
3
  9
$PDSIZE
 40
0.3125
  9
$TILEMODE
 70
1
  0
ENDSEC
  0
SECTION
  2
TABLES
  0
TABLE
  2
LTYPE
 70
6
  0
LTYPE
  2
BYBLOCK
 70
0
  3

 72
65
 73
0
 40
0.0
  0
LTYPE
  2
BYLAYER
 70
0
  3

 72
65
 73
0
 40
0.0
  0
LTYPE
  2
CONTINUOUS
 70
64
  3
Solid line
 72
65
 73
0
 40
0.0
  0
LTYPE
  2
CENTER
 70
64
  3
____ _ ____ _ ____ _ ____ _ ____ _ ____ _ ____
 72
65
 73
4
 40
0.6
 49
0.375
 49
-0.075
 49
0.075
 49
-0.075
  0
LTYPE
  2
HIDDEN
 70
64
  3
- - - - - - - - - - - - - - - - - - - -
 72
65
 73
2
 40
0.2
 49
0.1
 49
-0.1
  0
LTYPE
  2
PHANTOM
 70
64
  3
_____ _ _ _____ _ _ _____ _ _ _____
 72
65
 73
6
 40
0.8
 49
0.45
 49
-0.05
 49
0.1
 49
-0.05
 49
0.1
 49
-0.05
  0
LTYPE
  2
DOT
 70
64
  3
. . . . . . . . . . . . . . . . . . . .
 72
65
 73
2
 40
0.2
 49
0.1
 49
-0.1
  0
LTYPE
  2
DASHED
 70
64
  3
- - - - - - - - - - - - - - - - - - - -
 72
65
 73
2
 40
0.2
 49
0.1
 49
-0.1
  0
ENDTAB
  0
TABLE
  2
LAYER
 70
36
  0
LAYER
  2
0
 70
0
 62
7
  6
CONTINUOUS
  0
LAYER
  2
DEFAULT_1
 70
0
 62
7
  6
CENTER
  0
LAYER
  2
DEFAULT_2
 70
0
 62
8
  6
HIDDEN
  0
LAYER
  2
DEFAULT_3
 70
0
 62
7
  6
PHANTOM
  0
LAYER
  2
CURVE
 70
0
 62
7
  6
CONTINUOUS
  0
LAYER
  2
SURFACE
 70
0
 62
7
  6
CONTINUOUS
  0
ENDTAB
  0
TABLE
  2
STYLE
 70
1
  0
STYLE
  2
STANDARD
 70
0
 40
0.0
 41
0.8
 50
0.0
 71
0
 42
0.2
  3
txt
  4

  0
STYLE
  2
TEXTSTYLE_1
 70
0
 40
0.0
 41
0.8
 50
0.0
 71
0
 42
0.2
  3
gdt
  4

  0
STYLE
  2
TEXTSTYLE_2
 70
0
 40
0.0
 41
0.44
 50
0.0
 71
0
 42
0.2
  3
txt
  4

  0
STYLE
  2
TEXTSTYLE_3
 70
0
 40
0.0
 41
1.0
 50
0.0
 71
0
 42
0.2
  3
shannob.ttf
  4

  0
STYLE
  2
TEXTSTYLE_4
 70
0
 40
0.0
 41
0.7
 50
0.0
 71
0
 42
0.2
  3
txt
  4

  0
STYLE
  2
TEXTSTYLE_5
 70
0
 40
0.0
 41
0.59
 50
0.0
 71
0
 42
0.2
  3
txt
  4

  0
STYLE
  2
TEXTSTYLE_6
 70
0
 40
0.0
 41
0.6
 50
0.0
 71
0
 42
0.2
  3
txt
  4

  0
STYLE
  2
TEXTSTYLE_7
 70
0
 40
0.0
 41
0.65
 50
0.0
 71
0
 42
0.2
  3
txt
  4

  0
STYLE
  2
TEXTSTYLE_8
 70
0
 40
0.0
 41
0.8
 50
0.0
 71
0
 42
0.2
  3
txt
  4

  0
STYLE
  2
TEXTSTYLE_9
 70
0
 40
0.0
 41
0.35
 50
0.0
 71
0
 42
0.2
  3
txt
  4

  0
ENDTAB
  0
ENDSEC
  0
SECTION
  2
BLOCKS
  0
BLOCK
  8
0
 62
2
  6
CONTINUOUS
  2
AMMERAAL_LOGO_BL0
 70
64
 10
259.1032480509
 20
37.8237533355
  0
LINE
  8
0
 62
7
  6
CONTINUOUS
 10
225.5990418354
 20
44.2927490004
 11
224.1106689494
 21
38.5331151393
  0
LINE
  8
0
 62
7
  6
CONTINUOUS
 10
224.3397876162
 20
35.542468745
 11
234.9943019628
 21
25.893499462
  0
LINE
  8
0
 62
7
  6
CONTINUOUS
 10
235.5598615369
 20
37.7925891932
 11
236.9766660531
 21
40.6108901629
  0
LINE
  8
0
 62
7
  6
CONTINUOUS
 10
234.754342594
 20
36.1224850285
 11
235.3840334897
 21
37.3750631886
  0
LINE
  8
0
 62
7
  6
CONTINUOUS
 10
236.6414596554
 20
41.0284161675
 11
234.1411012016
 21
36.1224850285
  0
LINE
  8
0
 62
7
  6
CONTINUOUS
 10
238.2293770534
 20
36.1224850285
 11
237.4591147965
 21
41.0284161675
  0
LINE
  8
0
 62
7
  6
CONTINUOUS
 10
237.4281714886
 20
37.3750631886
 11
237.616135661
 21
36.1224850285
  0
LINE
  8
0
 62
7
  6
CONTINUOUS
 10
236.9766660531
 20
40.6108901629
 11
237.3995857871
 21
37.7925891932
  0
LINE
  8
0
 62
7
  6
CONTINUOUS
 10
239.6360011904
 20
39.4626933578
 11
239.0470323407
 21
36.1224850285
  0
LINE
  8
0
 62
7
  6
CONTINUOUS
 10
239.5580666395
 20
36.1224850285
 11
240.0181985645
 21
38.7320228498
  0
LINE
  8
0
 62
7
  6
CONTINUOUS
 10
240.0918196642
 20
39.1495488544
 11
240.1470354891
 21
39.4626933578
  0
LINE
  8
0
 62
7
  6
CONTINUOUS
 10
241.1240695655
 20
38.6276413486
 11
240.6823429154
 21
36.1224850285
  0
LINE
  8
0
 62
7
  6
CONTINUOUS
 10
242.0811478928
 20
44.5627452258
 11
242.8415119451
 21
48.1432825214
  0
LINE
  8
0
 62
7
  6
CONTINUOUS
 10
243.1958913427
 20
48.0680225156
 11
241.6597278966
 21
40.8342632467
  0
LINE
  8
0
 62
7
  6
CONTINUOUS
 10
240.4095404164
 20
34.9471529844
 11
239.3971193991
 21
30.1796850849
  0
LINE
  8
0
 62
7
  6
CONTINUOUS
 10
240.5095226042
 20
50.2422224355
 11
227.0911981149
 21
45.8795588751
  0
LINE
  8
0
 62
7
  6
CONTINUOUS
 10
241.8389410594
 20
27.4558976853
 11
228.424379725
 21
39.7225584545
  0
LINE
  8
0
 62
7
  6
CONTINUOUS
 10
239.3971193991
 20
30.1796850849
 11
242.0834199232
 21
27.7232546111
  0
LINE
  8
0
 62
7
  6
CONTINUOUS
 10
241.1933772141
 20
36.1224850285
 11
241.6351038642
 21
38.6276413486
  0
LINE
  8
0
 62
7
  6
CONTINUOUS
 10
242.7593795553
 20
38.6276413486
 11
242.3176529052
 21
36.1224850285
  0
LINE
  8
0
 62
7
  6
CONTINUOUS
 10
242.8286877887
 20
36.1224850285
 11
243.2704144389
 21
38.6276413486
  0
LINE
  8
0
 62
7
  6
CONTINUOUS
 10
241.6351038642
 20
38.6276413486
 11
241.7741215078
 21
38.8364043509
  0
LINE
  8
0
 62
7
  6
CONTINUOUS
 10
241.0586730217
 20
38.8364043509
 11
241.1240695655
 21
38.6276413486
  0
LINE
  8
0
 62
7
  6
CONTINUOUS
 10
242.6939835963
 20
38.8364043509
 11
242.7593795553
 21
38.6276413486
  0
LINE
  8
0
 62
7
  6
CONTINUOUS
 10
243.2704144389
 20
38.6276413486
 11
243.1580266262
 21
39.1495488544
  0
LINE
  8
0
 62
7
  6
CONTINUOUS
 10
244.2353116332
 20
39.4626933578
 11
243.6463427836
 21
36.1224850285
  0
LINE
  8
0
 62
7
  6
CONTINUOUS
 10
244.1573776672
 20
36.1224850285
 11
244.6175095922
 21
38.7320228498
  0
LINE
  8
0
 62
7
  6
CONTINUOUS
 10
244.691130692
 20
39.1495488544
 11
244.7463465168
 21
39.4626933578
  0
LINE
  8
0
 62
7
  6
CONTINUOUS
 10
245.7233794235
 20
38.6276413486
 11
245.2816527734
 21
36.1224850285
  0
LINE
  8
0
 62
7
  6
CONTINUOUS
 10
245.7926876569
 20
36.1224850285
 11
246.2344143071
 21
38.6276413486
  0
LINE
  8
0
 62
7
  6
CONTINUOUS
 10
240.3330444015
 20
39.3583118566
 11
240.0918196642
 21
39.1495488544
  0
LINE
  8
0
 62
7
  6
CONTINUOUS
 10
240.0181985645
 20
38.7320228498
 11
240.2594233018
 21
38.940785852
  0
LINE
  8
0
 62
7
  6
CONTINUOUS
 10
240.974871203
 20
38.940785852
 11
241.0586730217
 21
38.8364043509
  0
LINE
  8
0
 62
7
  6
CONTINUOUS
 10
241.6065178703
 20
39.0451673532
 11
241.3551129989
 21
39.3583118566
  0
LINE
  8
0
 62
7
  6
CONTINUOUS
 10
245.6579834646
 20
38.8364043509
 11
245.7233794235
 21
38.6276413486
  0
LINE
  8
0
 62
7
  6
CONTINUOUS
 10
248.5401376513
 20
37.7925891932
 11
248.5319125105
 21
37.1663001862
  0
LINE
  8
0
 62
7
  6
CONTINUOUS
 10
247.358690583
 20
38.6276413486
 11
246.9169639329
 21
36.1224850285
  0
LINE
  8
0
 62
7
  6
CONTINUOUS
 10
247.4279976468
 20
36.1224850285
 11
247.8697242968
 21
38.6276413486
  0
LINE
  8
0
 62
7
  6
CONTINUOUS
 10
245.0757441757
 20
28.6745667416
 11
246.4418488145
 21
34.9471529844
  0
LINE
  8
0
 62
7
  6
CONTINUOUS
 10
247.7239996268
 20
40.8342632467
 11
248.1361183823
 21
42.7265417459
  0
LINE
  8
0
 62
7
  6
CONTINUOUS
 10
248.7527758356
 20
38.4188783463
 11
248.5401376513
 21
37.7925891932
  0
LINE
  8
0
 62
7
  6
CONTINUOUS
 10
246.2344143071
 20
38.6276413486
 11
246.3734313658
 21
38.8364043509
  0
LINE
  8
0
 62
7
  6
CONTINUOUS
 10
241.9683543913
 20
39.3583118566
 11
241.6065178703
 21
39.0451673532
  0
LINE
  8
0
 62
7
  6
CONTINUOUS
 10
241.7741215078
 20
38.8364043509
 11
241.8947332915
 21
38.940785852
  0
LINE
  8
0
 62
7
  6
CONTINUOUS
 10
244.9323542595
 20
39.3583118566
 11
244.691130692
 21
39.1495488544
  0
LINE
  8
0
 62
7
  6
CONTINUOUS
 10
244.6175095922
 20
38.7320228498
 11
244.8587331598
 21
38.940785852
  0
LINE
  8
0
 62
7
  6
CONTINUOUS
 10
224.8780281822
 20
38.9695414285
 11
242.0811478928
 21
44.5627452258
  0
LINE
  8
0
 62
7
  6
CONTINUOUS
 10
228.424379725
 20
39.7225584545
 11
224.9956455929
 21
38.6077833968
  0
LINE
  8
0
 62
7
  6
CONTINUOUS
 10
242.6101817776
 20
38.940785852
 11
242.6939835963
 21
38.8364043509
  0
LINE
  8
0
 62
7
  6
CONTINUOUS
 10
243.1580266262
 20
39.1495488544
 11
242.9904235736
 21
39.3583118566
  0
LINE
  8
0
 62
7
  6
CONTINUOUS
 10
247.2932934544
 20
38.8364043509
 11
247.358690583
 21
38.6276413486
  0
LINE
  8
0
 62
7
  6
CONTINUOUS
 10
248.5319125105
 20
37.1663001862
 11
248.6627055852
 21
36.7487741085
  0
LINE
  8
0
 62
7
  6
CONTINUOUS
 10
247.8697242968
 20
38.6276413486
 11
247.7573376539
 21
39.1495488544
  0
LINE
  8
0
 62
7
  6
CONTINUOUS
 10
249.061352669
 20
37.2706816874
 11
249.014361985
 21
37.5838261908
  0
LINE
  8
0
 62
7
  6
CONTINUOUS
 10
249.014361985
 20
37.5838261908
 11
249.0511725348
 21
37.7925891932
  0
LINE
  8
0
 62
7
  6
CONTINUOUS
 10
249.2270001692
 20
38.210115344
 11
249.2454054442
 21
38.3144968451
  0
LINE
  8
0
 62
7
  6
CONTINUOUS
 10
251.4101555925
 20
38.4188783463
 11
251.3733450425
 21
38.210115344
  0
LINE
  8
0
 62
7
  6
CONTINUOUS
 10
249.0308111227
 20
38.8364043509
 11
248.7527758356
 21
38.4188783463
  0
LINE
  8
0
 62
7
  6
CONTINUOUS
 10
249.2454054442
 20
38.3144968451
 11
249.3844225029
 21
38.5232598474
  0
LINE
  8
0
 62
7
  6
CONTINUOUS
 10
246.567665419
 20
39.3583118566
 11
246.205828898
 21
39.0451673532
  0
LINE
  8
0
 62
7
  6
CONTINUOUS
 10
246.3734313658
 20
38.8364043509
 11
246.4940443193
 21
38.940785852
  0
LINE
  8
0
 62
7
  6
CONTINUOUS
 10
241.8947332915
 20
38.940785852
 11
242.1175527538
 21
39.0451673532
  0
LINE
  8
0
 62
7
  6
CONTINUOUS
 10
240.7888628754
 20
39.0451673532
 11
240.974871203
 21
38.940785852
  0
LINE
  8
0
 62
7
  6
CONTINUOUS
 10
245.5741822307
 20
38.940785852
 11
245.6579834646
 21
38.8364043509
  0
LINE
  8
0
 62
7
  6
CONTINUOUS
 10
246.205828898
 20
39.0451673532
 11
245.9544240266
 21
39.3583118566
  0
LINE
  8
0
 62
7
  6
CONTINUOUS
 10
248.6627055852
 20
36.7487741085
 11
248.8303092162
 21
36.5400110697
  0
LINE
  8
0
 62
7
  6
CONTINUOUS
 10
247.2094922205
 20
38.940785852
 11
247.2932934544
 21
38.8364043509
  0
LINE
  8
0
 62
7
  6
CONTINUOUS
 10
249.3781534865
 20
36.7487741085
 11
249.126748628
 21
37.0619186851
  0
LINE
  8
0
 62
7
  6
CONTINUOUS
 10
247.7573376539
 20
39.1495488544
 11
247.5897340165
 21
39.3583118566
  0
LINE
  8
0
 62
7
  6
CONTINUOUS
 10
249.126748628
 20
37.0619186851
 11
249.061352669
 21
37.2706816874
  0
LINE
  8
0
 62
7
  6
CONTINUOUS
 10
251.8843799261
 20
38.210115344
 11
251.8557933473
 21
38.6276413486
  0
LINE
  8
0
 62
7
  6
CONTINUOUS
 10
251.8107588006
 20
37.7925891932
 11
251.8843799261
 21
38.210115344
  0
LINE
  8
0
 62
7
  6
CONTINUOUS
 10
252.9228976355
 20
39.4626933578
 11
252.3339287858
 21
36.1224850285
  0
LINE
  8
0
 62
7
  6
CONTINUOUS
 10
252.8449636693
 20
36.1224850285
 11
253.2130692197
 21
38.210115344
  0
LINE
  8
0
 62
7
  6
CONTINUOUS
 10
253.3235008693
 20
38.8364043509
 11
253.433932519
 21
39.4626933578
  0
LINE
  8
0
 62
7
  6
CONTINUOUS
 10
251.5244983598
 20
36.7487741085
 11
251.7003271509
 21
37.1663001862
  0
LINE
  8
0
 62
7
  6
CONTINUOUS
 10
251.1892922674
 20
37.1663001862
 11
251.0318699208
 21
36.8531556097
  0
LINE
  8
0
 62
7
  6
CONTINUOUS
 10
249.2720358599
 20
39.0451673532
 11
249.0308111227
 21
38.8364043509
  0
LINE
  8
0
 62
7
  6
CONTINUOUS
 10
249.3844225029
 20
38.5232598474
 11
249.7462590239
 21
38.8364043509
  0
LINE
  8
0
 62
7
  6
CONTINUOUS
 10
249.615467106
 20
39.2539303555
 11
249.2720358599
 21
39.0451673532
  0
LINE
  8
0
 62
7
  6
CONTINUOUS
 10
246.4940443193
 20
38.940785852
 11
246.7168626119
 21
39.0451673532
  0
LINE
  8
0
 62
7
  6
CONTINUOUS
 10
249.7462590239
 20
38.8364043509
 11
249.9690784862
 21
38.940785852
  0
LINE
  8
0
 62
7
  6
CONTINUOUS
 10
240.6580703726
 20
39.4626933578
 11
240.3330444015
 21
39.3583118566
  0
LINE
  8
0
 62
7
  6
CONTINUOUS
 10
240.2594233018
 20
38.940785852
 11
240.5844492728
 21
39.0451673532
  0
LINE
  8
0
 62
7
  6
CONTINUOUS
 10
242.2933803624
 20
39.4626933578
 11
241.9683543913
 21
39.3583118566
  0
LINE
  8
0
 62
7
  6
CONTINUOUS
 10
245.2573802307
 20
39.4626933578
 11
244.9323542595
 21
39.3583118566
  0
LINE
  8
0
 62
7
  6
CONTINUOUS
 10
244.8587331598
 20
38.940785852
 11
245.1837591309
 21
39.0451673532
  0
LINE
  8
0
 62
7
  6
CONTINUOUS
 10
246.8926913902
 20
39.4626933578
 11
246.567665419
 21
39.3583118566
  0
LINE
  8
0
 62
7
  6
CONTINUOUS
 10
237.0168932447
 20
25.4052842354
 11
242.7777575237
 21
26.951451285
  0
LINE
  8
0
 62
7
  6
CONTINUOUS
 10
292.3849398998
 20
38.940785852
 11
292.8121758888
 21
39.0451673532
  0
LINE
  8
0
 62
7
  6
CONTINUOUS
 10
292.8857969885
 20
39.4626933578
 11
292.4585609996
 21
39.3583118566
  0
LINE
  8
0
 62
7
  6
CONTINUOUS
 10
288.5010808672
 20
38.940785852
 11
288.9283121775
 21
39.0451673532
  0
LINE
  8
0
 62
7
  6
CONTINUOUS
 10
284.4128017989
 20
38.940785852
 11
284.8400377878
 21
39.0451673532
  0
LINE
  8
0
 62
7
  6
CONTINUOUS
 10
288.5151697668
 20
36.1224850285
 11
289.2490264535
 21
36.2268665388
  0
LINE
  8
0
 62
7
  6
CONTINUOUS
 10
289.2204375467
 20
36.6443926073
 11
288.4865855338
 21
36.5400110697
  0
LINE
  8
0
 62
7
  6
CONTINUOUS
 10
284.4268953771
 20
36.1224850285
 11
285.1607473852
 21
36.2268665388
  0
LINE
  8
0
 62
7
  6
CONTINUOUS
 10
285.1321631571
 20
36.6443926073
 11
284.3983111442
 21
36.5400110697
  0
LINE
  8
0
 62
7
  6
CONTINUOUS
 10
249.1001193593
 20
36.3312480491
 11
249.388334779
 21
36.2268665388
  0
LINE
  8
0
 62
7
  6
CONTINUOUS
 10
242.42417345
 20
39.0451673532
 11
242.6101817776
 21
38.940785852
  0
LINE
  8
0
 62
7
  6
CONTINUOUS
 10
249.5641623989
 20
36.6443926073
 11
249.3781534865
 21
36.7487741085
  0
LINE
  8
0
 62
7
  6
CONTINUOUS
 10
245.3881733183
 20
39.0451673532
 11
245.5741822307
 21
38.940785852
  0
LINE
  8
0
 62
7
  6
CONTINUOUS
 10
247.0234833081
 20
39.0451673532
 11
247.2094922205
 21
38.940785852
  0
LINE
  8
0
 62
7
  6
CONTINUOUS
 10
248.8303092162
 20
36.5400110697
 11
249.1001193593
 21
36.3312480491
  0
LINE
  8
0
 62
7
  6
CONTINUOUS
 10
251.8557933473
 20
38.6276413486
 11
251.6227937509
 21
39.0451673532
  0
LINE
  8
0
 62
7
  6
CONTINUOUS
 10
251.2609572299
 20
38.7320228498
 11
251.4101555925
 21
38.4188783463
  0
LINE
  8
0
 62
7
  6
CONTINUOUS
 10
255.1569560429
 20
37.0619186851
 11
255.1855426088
 21
36.6443926073
  0
LINE
  8
0
 62
7
  6
CONTINUOUS
 10
254.6705966076
 20
38.940785852
 11
254.7626229823
 21
39.4626933578
  0
LINE
  8
0
 62
7
  6
CONTINUOUS
 10
255.4698457427
 20
38.8364043509
 11
255.4330351928
 21
38.6276413486
  0
LINE
  8
0
 62
7
  6
CONTINUOUS
 10
255.2121718678
 20
37.3750631886
 11
255.1569560429
 21
37.0619186851
  0
LINE
  8
0
 62
7
  6
CONTINUOUS
 10
255.649584469
 20
36.9575371108
 11
255.6863950318
 21
37.1663001862
  0
LINE
  8
0
 62
7
  6
CONTINUOUS
 10
255.6863950318
 20
37.1663001862
 11
255.8438185351
 21
37.4794446897
  0
LINE
  8
0
 62
7
  6
CONTINUOUS
 10
255.6088639711
 20
39.0451673532
 11
255.4698457427
 21
38.8364043509
  0
LINE
  8
0
 62
7
  6
CONTINUOUS
 10
255.9440689067
 20
38.6276413486
 11
256.0830871351
 21
38.8364043509
  0
LINE
  8
0
 62
7
  6
CONTINUOUS
 10
255.4902059852
 20
37.7925891932
 11
255.2121718678
 21
37.3750631886
  0
LINE
  8
0
 62
7
  6
CONTINUOUS
 10
253.2130692197
 20
38.210115344
 11
253.5933110157
 21
38.6276413486
  0
LINE
  8
0
 62
7
  6
CONTINUOUS
 10
253.5647256066
 20
39.0451673532
 11
253.3235008693
 21
38.8364043509
  0
LINE
  8
0
 62
7
  6
CONTINUOUS
 10
251.1626618323
 20
36.4356295685
 11
251.5244983598
 21
36.7487741085
  0
LINE
  8
0
 62
7
  6
CONTINUOUS
 10
255.8500875387
 20
39.2539303555
 11
255.6088639711
 21
39.0451673532
  0
LINE
  8
0
 62
7
  6
CONTINUOUS
 10
253.9081568526
 20
39.2539303555
 11
253.5647256066
 21
39.0451673532
  0
LINE
  8
0
 62
7
  6
CONTINUOUS
 10
251.0318699208
 20
36.8531556097
 11
250.6884386748
 21
36.6443926073
  0
LINE
  8
0
 62
7
  6
CONTINUOUS
 10
253.5933110157
 20
38.6276413486
 11
254.0389487706
 21
38.8364043509
  0
LINE
  8
0
 62
7
  6
CONTINUOUS
 10
256.0729058313
 20
39.3583118566
 11
255.8500875387
 21
39.2539303555
  0
LINE
  8
0
 62
7
  6
CONTINUOUS
 10
249.9404930771
 20
39.3583118566
 11
249.615467106
 21
39.2539303555
  0
LINE
  8
0
 62
7
  6
CONTINUOUS
 10
254.2331828238
 20
39.3583118566
 11
253.9081568526
 21
39.2539303555
  0
LINE
  8
0
 62
7
  6
CONTINUOUS
 10
275.7252169663
 20
38.940785852
 11
276.1524482766
 21
39.0451673532
  0
LINE
  8
0
 62
7
  6
CONTINUOUS
 10
271.8554468332
 20
36.1224850285
 11
272.3848858237
 21
36.2268665388
  0
LINE
  8
0
 62
7
  6
CONTINUOUS
 10
289.1041386164
 20
39.4626933578
 11
288.4724919491
 21
39.3583118566
  0
LINE
  8
0
 62
7
  6
CONTINUOUS
 10
285.0158642267
 20
39.4626933578
 11
284.3842175595
 21
39.3583118566
  0
LINE
  8
0
 62
7
  6
CONTINUOUS
 10
275.7393105446
 20
36.1224850285
 11
276.4731625527
 21
36.2268665388
  0
LINE
  8
0
 62
7
  6
CONTINUOUS
 10
276.4445783245
 20
36.6443926073
 11
275.7107216329
 21
36.5400110697
  0
LINE
  8
0
 62
7
  6
CONTINUOUS
 10
246.4418488145
 20
34.9471529844
 11
240.4095404164
 21
34.9471529844
  0
LINE
  8
0
 62
7
  6
CONTINUOUS
 10
249.388334779
 20
36.2268665388
 11
249.9831708948
 21
36.1224850285
  0
LINE
  8
0
 62
7
  6
CONTINUOUS
 10
249.9545843225
 20
36.5400110697
 11
249.5641623989
 21
36.6443926073
  0
LINE
  8
0
 62
7
  6
CONTINUOUS
 10
255.6229552116
 20
36.2268665388
 11
256.0133783098
 21
36.1224850285
  0
LINE
  8
0
 62
7
  6
CONTINUOUS
 10
241.3551129989
 20
39.3583118566
 11
241.0668975776
 21
39.4626933578
  0
LINE
  8
0
 62
7
  6
CONTINUOUS
 10
242.9904235736
 20
39.3583118566
 11
242.7022081523
 21
39.4626933578
  0
LINE
  8
0
 62
7
  6
CONTINUOUS
 10
245.9544240266
 20
39.3583118566
 11
245.6662086054
 21
39.4626933578
  0
LINE
  8
0
 62
7
  6
CONTINUOUS
 10
247.5897340165
 20
39.3583118566
 11
247.3015185952
 21
39.4626933578
  0
LINE
  8
0
 62
7
  6
CONTINUOUS
 10
255.4369474705
 20
36.3312480491
 11
255.6229552116
 21
36.2268665388
  0
LINE
  8
0
 62
7
  6
CONTINUOUS
 10
256.086999416
 20
36.5400110697
 11
255.7149815976
 21
36.7487741085
  0
LINE
  8
0
 62
7
  6
CONTINUOUS
 10
251.6227937509
 20
39.0451673532
 11
251.1669758619
 21
39.3583118566
  0
LINE
  8
0
 62
7
  6
CONTINUOUS
 10
250.9911470836
 20
38.940785852
 11
251.2609572299
 21
38.7320228498
  0
LINE
  8
0
 62
7
  6
CONTINUOUS
 10
247.4790756451
 20
44.7932502995
 11
243.2379964849
 21
48.671415083
  0
LINE
  8
0
 62
7
  6
CONTINUOUS
 10
255.1855426088
 20
36.6443926073
 11
255.4369474705
 21
36.3312480491
  0
LINE
  8
0
 62
7
  6
CONTINUOUS
 10
255.7149815976
 20
36.7487741085
 11
255.649584469
 21
36.9575371108
  0
LINE
  8
0
 62
7
  6
CONTINUOUS
 10
258.2149390144
 20
36.4356295685
 11
258.2047577171
 21
36.9575371108
  0
LINE
  8
0
 62
7
  6
CONTINUOUS
 10
257.9882084409
 20
38.6276413486
 11
257.932992616
 21
38.3144968451
  0
LINE
  8
0
 62
7
  6
CONTINUOUS
 10
257.8593714905
 20
37.8969706943
 11
257.7489398409
 21
37.2706816874
  0
LINE
  8
0
 62
7
  6
CONTINUOUS
 10
258.2047577171
 20
36.9575371108
 11
258.4992421547
 21
38.6276413486
  0
LINE
  8
0
 62
7
  6
CONTINUOUS
 10
257.7489398409
 20
37.2706816874
 11
257.6099216125
 21
37.0619186851
  0
LINE
  8
0
 62
7
  6
CONTINUOUS
 10
257.4994899435
 20
36.4356295685
 11
257.6385081784
 21
36.6443926073
  0
LINE
  8
0
 62
7
  6
CONTINUOUS
 10
259.6971383608
 20
39.0451673532
 11
259.5581224717
 21
38.8364043509
  0
LINE
  8
0
 62
7
  6
CONTINUOUS
 10
255.7314319179
 20
38.0013523417
 11
255.4902059852
 21
37.7925891932
  0
LINE
  8
0
 62
7
  6
CONTINUOUS
 10
255.8438185351
 20
37.4794446897
 11
256.0850421027
 21
37.688207692
  0
LINE
  8
0
 62
7
  6
CONTINUOUS
 10
259.9383642677
 20
39.2539303555
 11
259.6971383608
 21
39.0451673532
  0
LINE
  8
0
 62
7
  6
CONTINUOUS
 10
257.6099216125
 20
37.0619186851
 11
257.2480850786
 21
36.7487741085
  0
LINE
  8
0
 62
7
  6
CONTINUOUS
 10
256.0830871351
 20
38.8364043509
 11
256.3059054277
 21
38.940785852
  0
LINE
  8
0
 62
7
  6
CONTINUOUS
 10
250.7170240726
 20
36.2268665388
 11
251.1626618323
 21
36.4356295685
  0
LINE
  8
0
 62
7
  6
CONTINUOUS
 10
256.1770685031
 20
38.210115344
 11
255.7314319179
 21
38.0013523417
  0
LINE
  8
0
 62
7
  6
CONTINUOUS
 10
256.0850421027
 20
37.688207692
 11
256.3078627346
 21
37.7925891932
  0
LINE
  8
0
 62
7
  6
CONTINUOUS
 10
260.1611825603
 20
39.3583118566
 11
259.9383642677
 21
39.2539303555
  0
LINE
  8
0
 62
7
  6
CONTINUOUS
 10
260.1713638641
 20
38.8364043509
 11
260.3941821567
 21
38.940785852
  0
LINE
  8
0
 62
7
  6
CONTINUOUS
 10
260.2653452321
 20
38.210115344
 11
259.8197063076
 21
38.0013523417
  0
LINE
  8
0
 62
7
  6
CONTINUOUS
 10
260.3961371243
 20
37.7925891932
 11
260.8233707739
 21
37.8969706943
  0
LINE
  8
0
 62
7
  6
CONTINUOUS
 10
260.7148940918
 20
36.1224850285
 11
261.2443354216
 21
36.2268665388
  0
LINE
  8
0
 62
7
  6
CONTINUOUS
 10
256.6266197021
 20
36.1224850285
 11
257.1560586926
 21
36.2268665388
  0
LINE
  8
0
 62
7
  6
CONTINUOUS
 10
276.3282793942
 20
39.4626933578
 11
275.6966327269
 21
39.3583118566
  0
LINE
  8
0
 62
7
  6
CONTINUOUS
 10
260.8969918995
 20
38.3144968451
 11
260.2653452321
 21
38.210115344
  0
LINE
  8
0
 62
7
  6
CONTINUOUS
 10
249.9831708948
 20
36.1224850285
 11
250.7170240726
 21
36.2268665388
  0
LINE
  8
0
 62
7
  6
CONTINUOUS
 10
250.6884386748
 20
36.6443926073
 11
249.9545843225
 21
36.5400110697
  0
LINE
  8
0
 62
7
  6
CONTINUOUS
 10
234.1411012016
 20
36.1224850285
 11
234.754342594
 21
36.1224850285
  0
LINE
  8
0
 62
7
  6
CONTINUOUS
 10
237.616135661
 20
36.1224850285
 11
238.2293770534
 21
36.1224850285
  0
LINE
  8
0
 62
7
  6
CONTINUOUS
 10
239.0470323407
 20
36.1224850285
 11
239.5580666395
 21
36.1224850285
  0
LINE
  8
0
 62
7
  6
CONTINUOUS
 10
240.6823429154
 20
36.1224850285
 11
241.1933772141
 21
36.1224850285
  0
LINE
  8
0
 62
7
  6
CONTINUOUS
 10
242.3176529052
 20
36.1224850285
 11
242.8286877887
 21
36.1224850285
  0
LINE
  8
0
 62
7
  6
CONTINUOUS
 10
243.6463427836
 20
36.1224850285
 11
244.1573776672
 21
36.1224850285
  0
LINE
  8
0
 62
7
  6
CONTINUOUS
 10
245.2816527734
 20
36.1224850285
 11
245.7926876569
 21
36.1224850285
  0
LINE
  8
0
 62
7
  6
CONTINUOUS
 10
246.9169639329
 20
36.1224850285
 11
247.4279976468
 21
36.1224850285
  0
LINE
  8
0
 62
7
  6
CONTINUOUS
 10
252.3339287858
 20
36.1224850285
 11
252.8449636693
 21
36.1224850285
  0
LINE
  8
0
 62
7
  6
CONTINUOUS
 10
256.0133783098
 20
36.1224850285
 11
256.6266197021
 21
36.1224850285
  0
LINE
  8
0
 62
7
  6
CONTINUOUS
 10
257.7508948084
 20
36.1224850285
 11
258.2619285223
 21
36.1224850285
  0
LINE
  8
0
 62
7
  6
CONTINUOUS
 10
260.1016526994
 20
36.1224850285
 11
260.7148940918
 21
36.1224850285
  0
LINE
  8
0
 62
7
  6
CONTINUOUS
 10
261.8391715374
 20
36.1224850285
 11
262.3502052513
 21
36.1224850285
  0
LINE
  8
0
 62
7
  6
CONTINUOUS
 10
263.1678596614
 20
36.1224850285
 11
263.6788957145
 21
36.1224850285
  0
LINE
  8
0
 62
7
  6
CONTINUOUS
 10
269.4024812637
 20
36.1224850285
 11
271.8554468332
 21
36.1224850285
  0
LINE
  8
0
 62
7
  6
CONTINUOUS
 10
278.0900660962
 20
36.1224850285
 11
278.6011021494
 21
36.1224850285
  0
LINE
  8
0
 62
7
  6
CONTINUOUS
 10
290.8659299971
 20
36.1224850285
 11
291.3769660504
 21
36.1224850285
  0
LINE
  8
0
 62
7
  6
CONTINUOUS
 10
293.2166902275
 20
36.1224850285
 11
293.727721602
 21
36.1224850285
  0
LINE
  8
0
 62
7
  6
CONTINUOUS
 10
260.788515198
 20
36.5400110697
 11
260.1752738056
 21
36.5400110697
  0
LINE
  8
0
 62
7
  6
CONTINUOUS
 10
256.7002408084
 20
36.5400110697
 11
256.086999416
 21
36.5400110697
  0
LINE
  8
0
 62
7
  6
CONTINUOUS
 10
272.0680861743
 20
36.7487741085
 11
270.1261543186
 21
36.7487741085
  0
LINE
  8
0
 62
7
  6
CONTINUOUS
 10
290.2323260229
 20
37.1663001862
 11
289.7212946484
 21
37.1663001862
  0
LINE
  8
0
 62
7
  6
CONTINUOUS
 10
286.1440516332
 20
37.1663001862
 11
285.6330155801
 21
37.1663001862
  0
LINE
  8
0
 62
7
  6
CONTINUOUS
 10
277.4564668007
 20
37.1663001862
 11
276.9454307475
 21
37.1663001862
  0
LINE
  8
0
 62
7
  6
CONTINUOUS
 10
251.7003271509
 20
37.1663001862
 11
251.1892922674
 21
37.1663001862
  0
LINE
  8
0
 62
7
  6
CONTINUOUS
 10
235.3840334897
 20
37.3750631886
 11
237.4281714886
 21
37.3750631886
  0
LINE
  8
0
 62
7
  6
CONTINUOUS
 10
237.3995857871
 20
37.7925891932
 11
235.5598615369
 21
37.7925891932
  0
LINE
  8
0
 62
7
  6
CONTINUOUS
 10
249.0511725348
 20
37.7925891932
 11
251.8107588006
 21
37.7925891932
  0
LINE
  8
0
 62
7
  6
CONTINUOUS
 10
274.8073121846
 20
37.7925891932
 11
277.5668984503
 21
37.7925891932
  0
LINE
  8
0
 62
7
  6
CONTINUOUS
 10
283.4948970172
 20
37.7925891932
 11
286.2544832829
 21
37.7925891932
  0
LINE
  8
0
 62
7
  6
CONTINUOUS
 10
256.7350940449
 20
37.8969706943
 11
257.8593714905
 21
37.8969706943
  0
LINE
  8
0
 62
7
  6
CONTINUOUS
 10
260.8233707739
 20
37.8969706943
 11
261.9476458802
 21
37.8969706943
  0
LINE
  8
0
 62
7
  6
CONTINUOUS
 10
250.3963109662
 20
39.0451673532
 11
250.9911470836
 21
38.940785852
  0
LINE
  8
0
 62
7
  6
CONTINUOUS
 10
251.1669758619
 20
39.3583118566
 11
250.5721397445
 21
39.4626933578
  0
LINE
  8
0
 62
7
  6
CONTINUOUS
 10
259.7112319406
 20
36.2268665388
 11
260.1016526994
 21
36.1224850285
  0
LINE
  8
0
 62
7
  6
CONTINUOUS
 10
259.5252218602
 20
36.3312480491
 11
259.7112319406
 21
36.2268665388
  0
LINE
  8
0
 62
7
  6
CONTINUOUS
 10
260.1752738056
 20
36.5400110697
 11
259.8032583266
 21
36.7487741085
  0
LINE
  8
0
 62
7
  6
CONTINUOUS
 10
259.2738169984
 20
36.6443926073
 11
259.5252218602
 21
36.3312480491
  0
LINE
  8
0
 62
7
  6
CONTINUOUS
 10
257.685497683
 20
36.3312480491
 11
257.7508948084
 21
36.1224850285
  0
LINE
  8
0
 62
7
  6
CONTINUOUS
 10
257.9228113122
 20
38.8364043509
 11
257.9882084409
 21
38.6276413486
  0
LINE
  8
0
 62
7
  6
CONTINUOUS
 10
257.6385081784
 20
36.6443926073
 11
257.685497683
 21
36.3312480491
  0
LINE
  8
0
 62
7
  6
CONTINUOUS
 10
258.2619285223
 20
36.1224850285
 11
258.2149390144
 21
36.4356295685
  0
LINE
  8
0
 62
7
  6
CONTINUOUS
 10
258.4992421547
 20
38.6276413486
 11
258.4522503011
 21
38.940785852
  0
LINE
  8
0
 62
7
  6
CONTINUOUS
 10
259.2452327719
 20
37.0619186851
 11
259.2738169984
 21
36.6443926073
  0
LINE
  8
0
 62
7
  6
CONTINUOUS
 10
259.5581224717
 20
38.8364043509
 11
259.5213119218
 21
38.6276413486
  0
LINE
  8
0
 62
7
  6
CONTINUOUS
 10
259.3004485967
 20
37.3750631886
 11
259.2452327719
 21
37.0619186851
  0
LINE
  8
0
 62
7
  6
CONTINUOUS
 10
259.737861198
 20
36.9575371108
 11
259.7746717608
 21
37.1663001862
  0
LINE
  8
0
 62
7
  6
CONTINUOUS
 10
259.7746717608
 20
37.1663001862
 11
259.9320952641
 21
37.4794446897
  0
LINE
  8
0
 62
7
  6
CONTINUOUS
 10
260.0323456357
 20
38.6276413486
 11
260.1713638641
 21
38.8364043509
  0
LINE
  8
0
 62
7
  6
CONTINUOUS
 10
259.5784827142
 20
37.7925891932
 11
259.3004485967
 21
37.3750631886
  0
LINE
  8
0
 62
7
  6
CONTINUOUS
 10
259.8197063076
 20
38.0013523417
 11
259.5784827142
 21
37.7925891932
  0
LINE
  8
0
 62
7
  6
CONTINUOUS
 10
259.9320952641
 20
37.4794446897
 11
260.1733188316
 21
37.688207692
  0
LINE
  8
0
 62
7
  6
CONTINUOUS
 10
261.6981983415
 20
37.0619186851
 11
261.3363618075
 21
36.7487741085
  0
LINE
  8
0
 62
7
  6
CONTINUOUS
 10
257.1560586926
 20
36.2268665388
 11
257.4994899435
 21
36.4356295685
  0
LINE
  8
0
 62
7
  6
CONTINUOUS
 10
261.2443354216
 20
36.2268665388
 11
261.5877666725
 21
36.4356295685
  0
LINE
  8
0
 62
7
  6
CONTINUOUS
 10
260.1733188316
 20
37.688207692
 11
260.3961371243
 21
37.7925891932
  0
LINE
  8
0
 62
7
  6
CONTINUOUS
 10
257.2480850786
 20
36.7487741085
 11
256.7002408084
 21
36.5400110697
  0
LINE
  8
0
 62
7
  6
CONTINUOUS
 10
261.3363618075
 20
36.7487741085
 11
260.788515198
 21
36.5400110697
  0
LINE
  8
0
 62
7
  6
CONTINUOUS
 10
256.3078627346
 20
37.7925891932
 11
256.7350940449
 21
37.8969706943
  0
LINE
  8
0
 62
7
  6
CONTINUOUS
 10
260.3941821567
 20
38.940785852
 11
260.8214158064
 21
39.0451673532
  0
LINE
  8
0
 62
7
  6
CONTINUOUS
 10
256.3059054277
 20
38.940785852
 11
256.7331390774
 21
39.0451673532
  0
LINE
  8
0
 62
7
  6
CONTINUOUS
 10
254.7626229823
 20
39.4626933578
 11
254.2331828238
 21
39.3583118566
  0
LINE
  8
0
 62
7
  6
CONTINUOUS
 10
256.8087151705
 20
38.3144968451
 11
256.1770685031
 21
38.210115344
  0
LINE
  8
0
 62
7
  6
CONTINUOUS
 10
254.0389487706
 20
38.8364043509
 11
254.6705966076
 21
38.940785852
  0
LINE
  8
0
 62
7
  6
CONTINUOUS
 10
260.8950369061
 20
39.4626933578
 11
260.1611825603
 21
39.3583118566
  0
LINE
  8
0
 62
7
  6
CONTINUOUS
 10
256.8067601771
 20
39.4626933578
 11
256.0729058313
 21
39.3583118566
  0
LINE
  8
0
 62
7
  6
CONTINUOUS
 10
285.8170683552
 20
38.210115344
 11
283.6707234819
 21
38.210115344
  0
LINE
  8
0
 62
7
  6
CONTINUOUS
 10
277.1294835226
 20
38.210115344
 11
274.9831386493
 21
38.210115344
  0
LINE
  8
0
 62
7
  6
CONTINUOUS
 10
251.3733450425
 20
38.210115344
 11
249.2270001692
 21
38.210115344
  0
LINE
  8
0
 62
7
  6
CONTINUOUS
 10
262.0212670057
 20
38.3144968451
 11
260.8969918995
 21
38.3144968451
  0
LINE
  8
0
 62
7
  6
CONTINUOUS
 10
257.932992616
 20
38.3144968451
 11
256.8087151705
 21
38.3144968451
  0
LINE
  8
0
 62
7
  6
CONTINUOUS
 10
270.4022334814
 20
38.3144968451
 11
272.344165337
 21
38.3144968451
  0
LINE
  8
0
 62
7
  6
CONTINUOUS
 10
289.9421579734
 20
38.4188783463
 11
290.453189348
 21
38.4188783463
  0
LINE
  8
0
 62
7
  6
CONTINUOUS
 10
255.4330351928
 20
38.6276413486
 11
255.9440689067
 21
38.6276413486
  0
LINE
  8
0
 62
7
  6
CONTINUOUS
 10
259.5213119218
 20
38.6276413486
 11
260.0323456357
 21
38.6276413486
  0
LINE
  8
0
 62
7
  6
CONTINUOUS
 10
272.4545969867
 20
38.940785852
 11
270.512665131
 21
38.940785852
  0
LINE
  8
0
 62
7
  6
CONTINUOUS
 10
240.5844492728
 20
39.0451673532
 11
240.7888628754
 21
39.0451673532
  0
LINE
  8
0
 62
7
  6
CONTINUOUS
 10
242.1175527538
 20
39.0451673532
 11
242.42417345
 21
39.0451673532
  0
LINE
  8
0
 62
7
  6
CONTINUOUS
 10
245.1837591309
 20
39.0451673532
 11
245.3881733183
 21
39.0451673532
  0
LINE
  8
0
 62
7
  6
CONTINUOUS
 10
246.7168626119
 20
39.0451673532
 11
247.0234833081
 21
39.0451673532
  0
LINE
  8
0
 62
7
  6
CONTINUOUS
 10
256.7331390774
 20
39.0451673532
 11
257.3463804698
 21
39.0451673532
  0
LINE
  8
0
 62
7
  6
CONTINUOUS
 10
260.8214158064
 20
39.0451673532
 11
261.4346571988
 21
39.0451673532
  0
LINE
  8
0
 62
7
  6
CONTINUOUS
 10
279.9341066488
 20
39.0451673532
 11
280.7517587195
 21
39.0451673532
  0
LINE
  8
0
 62
7
  6
CONTINUOUS
 10
281.2627947727
 20
39.0451673532
 11
282.3870722183
 21
39.0451673532
  0
LINE
  8
0
 62
7
  6
CONTINUOUS
 10
293.2946230239
 20
39.4626933578
 11
292.8857969885
 21
39.4626933578
  0
LINE
  8
0
 62
7
  6
CONTINUOUS
 10
282.460693318
 20
39.4626933578
 11
281.3364158724
 21
39.4626933578
  0
LINE
  8
0
 62
7
  6
CONTINUOUS
 10
280.8253798192
 20
39.4626933578
 11
280.0077277485
 21
39.4626933578
  0
LINE
  8
0
 62
7
  6
CONTINUOUS
 10
261.5082782985
 20
39.4626933578
 11
260.8950369061
 21
39.4626933578
  0
LINE
  8
0
 62
7
  6
CONTINUOUS
 10
257.4200015695
 20
39.4626933578
 11
256.8067601771
 21
39.4626933578
  0
LINE
  8
0
 62
7
  6
CONTINUOUS
 10
253.433932519
 20
39.4626933578
 11
252.9228976355
 21
39.4626933578
  0
LINE
  8
0
 62
7
  6
CONTINUOUS
 10
247.3015185952
 20
39.4626933578
 11
246.8926913902
 21
39.4626933578
  0
LINE
  8
0
 62
7
  6
CONTINUOUS
 10
245.6662086054
 20
39.4626933578
 11
245.2573802307
 21
39.4626933578
  0
LINE
  8
0
 62
7
  6
CONTINUOUS
 10
244.7463465168
 20
39.4626933578
 11
244.2353116332
 21
39.4626933578
  0
LINE
  8
0
 62
7
  6
CONTINUOUS
 10
242.7022081523
 20
39.4626933578
 11
242.2933803624
 21
39.4626933578
  0
LINE
  8
0
 62
7
  6
CONTINUOUS
 10
241.0668975776
 20
39.4626933578
 11
240.6580703726
 21
39.4626933578
  0
LINE
  8
0
 62
7
  6
CONTINUOUS
 10
240.1470354891
 20
39.4626933578
 11
239.6360011904
 21
39.4626933578
  0
LINE
  8
0
 62
7
  6
CONTINUOUS
 10
281.4836581235
 20
40.2977456595
 11
280.9726220703
 21
40.2977456595
  0
LINE
  8
0
 62
7
  6
CONTINUOUS
 10
270.7703390318
 20
40.4021271606
 11
272.7122708874
 21
40.4021271606
  0
LINE
  8
0
 62
7
  6
CONTINUOUS
 10
275.1444744287
 20
36.2268665388
 11
275.7393105446
 21
36.1224850285
  0
LINE
  8
0
 62
7
  6
CONTINUOUS
 10
258.014837687
 20
39.3583118566
 11
257.4200015695
 21
39.4626933578
  0
LINE
  8
0
 62
7
  6
CONTINUOUS
 10
262.103114416
 20
39.3583118566
 11
261.5082782985
 21
39.4626933578
  0
LINE
  8
0
 62
7
  6
CONTINUOUS
 10
281.0724729955
 20
36.2268665388
 11
281.6673091114
 21
36.1224850285
  0
LINE
  8
0
 62
7
  6
CONTINUOUS
 10
283.8320592613
 20
36.2268665388
 11
284.4268953771
 21
36.1224850285
  0
LINE
  8
0
 62
7
  6
CONTINUOUS
 10
257.3463804698
 20
39.0451673532
 11
257.7368035695
 21
38.940785852
  0
LINE
  8
0
 62
7
  6
CONTINUOUS
 10
261.4346571988
 20
39.0451673532
 11
261.8250779592
 21
38.940785852
  0
LINE
  8
0
 62
7
  6
CONTINUOUS
 10
257.7368035695
 20
38.940785852
 11
257.9228113122
 21
38.8364043509
  0
LINE
  8
0
 62
7
  6
CONTINUOUS
 10
261.8250779592
 20
38.940785852
 11
262.0110880412
 21
38.8364043509
  0
LINE
  8
0
 62
7
  6
CONTINUOUS
 10
258.2846478332
 20
39.1495488544
 11
258.014837687
 21
39.3583118566
  0
LINE
  8
0
 62
7
  6
CONTINUOUS
 10
258.4522503011
 20
38.940785852
 11
258.2846478332
 21
39.1495488544
  0
LINE
  8
0
 62
7
  6
CONTINUOUS
 10
259.8032583266
 20
36.7487741085
 11
259.737861198
 21
36.9575371108
  0
LINE
  8
0
 62
7
  6
CONTINUOUS
 10
261.773774412
 20
36.3312480491
 11
261.8391715374
 21
36.1224850285
  0
LINE
  8
0
 62
7
  6
CONTINUOUS
 10
261.726782568
 20
36.6443926073
 11
261.773774412
 21
36.3312480491
  0
LINE
  8
0
 62
7
  6
CONTINUOUS
 10
262.3032134041
 20
36.4356295685
 11
262.2930344461
 21
36.9575371108
  0
LINE
  8
0
 62
7
  6
CONTINUOUS
 10
262.0764828305
 20
38.6276413486
 11
262.0212670057
 21
38.3144968451
  0
LINE
  8
0
 62
7
  6
CONTINUOUS
 10
261.9476458802
 20
37.8969706943
 11
261.8372142305
 21
37.2706816874
  0
LINE
  8
0
 62
7
  6
CONTINUOUS
 10
262.2930344461
 20
36.9575371108
 11
262.5875188837
 21
38.6276413486
  0
LINE
  8
0
 62
7
  6
CONTINUOUS
 10
264.0329076867
 20
41.0284161675
 11
263.1678596614
 21
36.1224850285
  0
LINE
  8
0
 62
7
  6
CONTINUOUS
 10
263.6788957145
 20
36.1224850285
 11
264.5439437399
 21
41.0284161675
  0
LINE
  8
0
 62
7
  6
CONTINUOUS
 10
261.8372142305
 20
37.2706816874
 11
261.6981983415
 21
37.0619186851
  0
LINE
  8
0
 62
7
  6
CONTINUOUS
 10
261.5877666725
 20
36.4356295685
 11
261.726782568
 21
36.6443926073
  0
LINE
  8
0
 62
7
  6
CONTINUOUS
 10
273.0126225543
 20
38.6276413486
 11
273.2354408469
 21
38.7320228498
  0
LINE
  8
0
 62
7
  6
CONTINUOUS
 10
272.7796229578
 20
39.0451673532
 11
272.4545969867
 21
38.940785852
  0
LINE
  8
0
 62
7
  6
CONTINUOUS
 10
275.6966327269
 20
39.3583118566
 11
275.3716067557
 21
39.2539303555
  0
LINE
  8
0
 62
7
  6
CONTINUOUS
 10
272.3931121454
 20
36.8531556097
 11
272.0680861743
 21
36.7487741085
  0
LINE
  8
0
 62
7
  6
CONTINUOUS
 10
249.9690784862
 20
38.940785852
 11
250.3963109662
 21
39.0451673532
  0
LINE
  8
0
 62
7
  6
CONTINUOUS
 10
250.5721397445
 20
39.4626933578
 11
249.9404930771
 21
39.3583118566
  0
LINE
  8
0
 62
7
  6
CONTINUOUS
 10
241.6597278966
 20
40.8342632467
 11
247.7239996268
 21
40.8342632467
  0
LINE
  8
0
 62
7
  6
CONTINUOUS
 10
292.2420140756
 20
41.0284161675
 11
291.7309780224
 21
41.0284161675
  0
LINE
  8
0
 62
7
  6
CONTINUOUS
 10
279.4661501748
 20
41.0284161675
 11
278.9551141216
 21
41.0284161675
  0
LINE
  8
0
 62
7
  6
CONTINUOUS
 10
272.7204948586
 20
41.0284161675
 11
270.267529289
 21
41.0284161675
  0
LINE
  8
0
 62
7
  6
CONTINUOUS
 10
264.5439437399
 20
41.0284161675
 11
264.0329076867
 21
41.0284161675
  0
LINE
  8
0
 62
7
  6
CONTINUOUS
 10
237.4591147965
 20
41.0284161675
 11
236.6414596554
 21
41.0284161675
  0
LINE
  8
0
 62
7
  6
CONTINUOUS
 10
287.9203336509
 20
36.2268665388
 11
288.5151697668
 21
36.1224850285
  0
LINE
  8
0
 62
7
  6
CONTINUOUS
 10
276.1524482766
 20
39.0451673532
 11
276.7472843941
 21
38.940785852
  0
LINE
  8
0
 62
7
  6
CONTINUOUS
 10
276.9231155117
 20
39.3583118566
 11
276.3282793942
 21
39.4626933578
  0
LINE
  8
0
 62
7
  6
CONTINUOUS
 10
281.7409302175
 20
36.5400110697
 11
281.2482994457
 21
36.6443926073
  0
LINE
  8
0
 62
7
  6
CONTINUOUS
 10
275.7107216329
 20
36.5400110697
 11
275.320300879
 21
36.6443926073
  0
LINE
  8
0
 62
7
  6
CONTINUOUS
 10
274.8562590091
 20
36.3312480491
 11
275.1444744287
 21
36.2268665388
  0
LINE
  8
0
 62
7
  6
CONTINUOUS
 10
272.344165337
 20
38.3144968451
 11
272.6323807583
 21
38.210115344
  0
LINE
  8
0
 62
7
  6
CONTINUOUS
 10
262.3729245622
 20
39.1495488544
 11
262.103114416
 21
39.3583118566
  0
LINE
  8
0
 62
7
  6
CONTINUOUS
 10
262.5405270301
 20
38.940785852
 11
262.3729245622
 21
39.1495488544
  0
LINE
  8
0
 62
7
  6
CONTINUOUS
 10
262.0110880412
 20
38.8364043509
 11
262.0764828305
 21
38.6276413486
  0
LINE
  8
0
 62
7
  6
CONTINUOUS
 10
262.3502052513
 20
36.1224850285
 11
262.3032134041
 21
36.4356295685
  0
LINE
  8
0
 62
7
  6
CONTINUOUS
 10
262.5875188837
 20
38.6276413486
 11
262.5405270301
 21
38.940785852
  0
LINE
  8
0
 62
7
  6
CONTINUOUS
 10
275.3716067557
 20
39.2539303555
 11
275.0281755097
 21
39.0451673532
  0
LINE
  8
0
 62
7
  6
CONTINUOUS
 10
275.5023963343
 20
38.8364043509
 11
275.7252169663
 21
38.940785852
  0
LINE
  8
0
 62
7
  6
CONTINUOUS
 10
284.3842175595
 20
39.3583118566
 11
284.0591915883
 21
39.2539303555
  0
LINE
  8
0
 62
7
  6
CONTINUOUS
 10
288.4724919491
 20
39.3583118566
 11
288.147465978
 21
39.2539303555
  0
LINE
  8
0
 62
7
  6
CONTINUOUS
 10
288.9283121775
 20
39.0451673532
 11
289.6253536341
 21
38.940785852
  0
LINE
  8
0
 62
7
  6
CONTINUOUS
 10
289.8011847517
 20
39.3583118566
 11
289.1041386164
 21
39.4626933578
  0
LINE
  8
0
 62
7
  6
CONTINUOUS
 10
284.8400377878
 20
39.0451673532
 11
285.4348739052
 21
38.940785852
  0
LINE
  8
0
 62
7
  6
CONTINUOUS
 10
285.6107003442
 20
39.3583118566
 11
285.0158642267
 21
39.4626933578
  0
LINE
  8
0
 62
7
  6
CONTINUOUS
 10
273.2131232975
 20
40.9240346664
 11
272.7204948586
 21
41.0284161675
  0
LINE
  8
0
 62
7
  6
CONTINUOUS
 10
284.3983111442
 20
36.5400110697
 11
284.0078857115
 21
36.6443926073
  0
LINE
  8
0
 62
7
  6
CONTINUOUS
 10
280.7842575759
 20
36.3312480491
 11
281.0724729955
 21
36.2268665388
  0
LINE
  8
0
 62
7
  6
CONTINUOUS
 10
283.5438438416
 20
36.3312480491
 11
283.8320592613
 21
36.2268665388
  0
LINE
  8
0
 62
7
  6
CONTINUOUS
 10
272.7122708874
 20
40.4021271606
 11
273.0004863087
 21
40.2977456595
  0
LINE
  8
0
 62
7
  6
CONTINUOUS
 10
275.320300879
 20
36.6443926073
 11
275.1342907969
 21
36.7487741085
  0
LINE
  8
0
 62
7
  6
CONTINUOUS
 10
273.198630297
 20
38.5232598474
 11
273.0126225543
 21
38.6276413486
  0
LINE
  8
0
 62
7
  6
CONTINUOUS
 10
273.2354408469
 20
38.7320228498
 11
273.6156826428
 21
39.1495488544
  0
LINE
  8
0
 62
7
  6
CONTINUOUS
 10
273.0208465254
 20
39.2539303555
 11
272.7796229578
 21
39.0451673532
  0
LINE
  8
0
 62
7
  6
CONTINUOUS
 10
272.6343357259
 20
37.0619186851
 11
272.3931121454
 21
36.8531556097
  0
LINE
  8
0
 62
7
  6
CONTINUOUS
 10
275.0281755097
 20
39.0451673532
 11
274.7869496028
 21
38.8364043509
  0
LINE
  8
0
 62
7
  6
CONTINUOUS
 10
275.1405598133
 20
38.5232598474
 11
275.5023963343
 21
38.8364043509
  0
LINE
  8
0
 62
7
  6
CONTINUOUS
 10
272.3848858237
 20
36.2268665388
 11
272.848930028
 21
36.5400110697
  0
LINE
  8
0
 62
7
  6
CONTINUOUS
 10
276.7880095706
 20
36.8531556097
 11
276.4445783245
 21
36.6443926073
  0
LINE
  8
0
 62
7
  6
CONTINUOUS
 10
276.4731625527
 20
36.2268665388
 11
276.9187991428
 21
36.4356295685
  0
LINE
  8
0
 62
7
  6
CONTINUOUS
 10
284.1899858456
 20
38.8364043509
 11
284.4128017989
 21
38.940785852
  0
LINE
  8
0
 62
7
  6
CONTINUOUS
 10
292.8121758888
 20
39.0451673532
 11
293.2025966492
 21
38.940785852
  0
LINE
  8
0
 62
7
  6
CONTINUOUS
 10
287.6321182313
 20
36.3312480491
 11
287.9203336509
 21
36.2268665388
  0
LINE
  8
0
 62
7
  6
CONTINUOUS
 10
288.4865855338
 20
36.5400110697
 11
287.9101546977
 21
36.7487741085
  0
LINE
  8
0
 62
7
  6
CONTINUOUS
 10
274.586448866
 20
36.5400110697
 11
274.8562590091
 21
36.3312480491
  0
LINE
  8
0
 62
7
  6
CONTINUOUS
 10
270.267529289
 20
41.0284161675
 11
269.4024812637
 21
36.1224850285
  0
LINE
  8
0
 62
7
  6
CONTINUOUS
 10
270.1261543186
 20
36.7487741085
 11
270.4022334814
 21
38.3144968451
  0
LINE
  8
0
 62
7
  6
CONTINUOUS
 10
270.512665131
 20
38.940785852
 11
270.7703390318
 21
40.4021271606
  0
LINE
  8
0
 62
7
  6
CONTINUOUS
 10
273.1782700287
 20
39.567074859
 11
273.0208465254
 21
39.2539303555
  0
LINE
  8
0
 62
7
  6
CONTINUOUS
 10
273.6156826428
 20
39.1495488544
 11
273.7731061461
 21
39.4626933578
  0
LINE
  8
0
 62
7
  6
CONTINUOUS
 10
272.7917592292
 20
37.3750631886
 11
272.6343357259
 21
37.0619186851
  0
LINE
  8
0
 62
7
  6
CONTINUOUS
 10
274.7869496028
 20
38.8364043509
 11
274.508913146
 21
38.4188783463
  0
LINE
  8
0
 62
7
  6
CONTINUOUS
 10
272.848930028
 20
36.5400110697
 11
273.2291718305
 21
36.9575371108
  0
LINE
  8
0
 62
7
  6
CONTINUOUS
 10
284.0591915883
 20
39.2539303555
 11
283.7157603422
 21
39.0451673532
  0
LINE
  8
0
 62
7
  6
CONTINUOUS
 10
288.2782602352
 20
38.8364043509
 11
288.5010808672
 21
38.940785852
  0
LINE
  8
0
 62
7
  6
CONTINUOUS
 10
285.1607473852
 20
36.2268665388
 11
285.606388654
 21
36.4356295685
  0
LINE
  8
0
 62
7
  6
CONTINUOUS
 10
284.0078857115
 20
36.6443926073
 11
283.821880308
 21
36.7487741085
  0
LINE
  8
0
 62
7
  6
CONTINUOUS
 10
277.3789310613
 20
39.0451673532
 11
276.9231155117
 21
39.3583118566
  0
LINE
  8
0
 62
7
  6
CONTINUOUS
 10
276.7472843941
 20
38.940785852
 11
277.0170945403
 21
38.7320228498
  0
LINE
  8
0
 62
7
  6
CONTINUOUS
 10
280.5144474328
 20
36.5400110697
 11
280.7842575759
 21
36.3312480491
  0
LINE
  8
0
 62
7
  6
CONTINUOUS
 10
281.2482994457
 20
36.6443926073
 11
280.9784892995
 21
36.8531556097
  0
LINE
  8
0
 62
7
  6
CONTINUOUS
 10
273.5667358473
 20
40.6108901629
 11
273.2131232975
 21
40.9240346664
  0
LINE
  8
0
 62
7
  6
CONTINUOUS
 10
272.6323807583
 20
38.210115344
 11
272.7999832261
 21
38.0013523417
  0
LINE
  8
0
 62
7
  6
CONTINUOUS
 10
274.4188440653
 20
36.7487741085
 11
274.586448866
 21
36.5400110697
  0
LINE
  8
0
 62
7
  6
CONTINUOUS
 10
275.1342907969
 20
36.7487741085
 11
274.8828859384
 21
37.0619186851
  0
LINE
  8
0
 62
7
  6
CONTINUOUS
 10
273.0004863087
 20
40.2977456595
 11
273.1680887765
 21
40.0889826572
  0
LINE
  8
0
 62
7
  6
CONTINUOUS
 10
273.2150805786
 20
39.7758378613
 11
273.1782700287
 21
39.567074859
  0
LINE
  8
0
 62
7
  6
CONTINUOUS
 10
272.846975054
 20
37.688207692
 11
272.7917592292
 21
37.3750631886
  0
LINE
  8
0
 62
7
  6
CONTINUOUS
 10
273.3865953467
 20
37.2706816874
 11
273.4786217213
 21
37.7925891932
  0
LINE
  8
0
 62
7
  6
CONTINUOUS
 10
273.7731061461
 20
39.4626933578
 11
273.8467272975
 21
39.8802196548
  0
LINE
  8
0
 62
7
  6
CONTINUOUS
 10
274.508913146
 20
38.4188783463
 11
274.2962761314
 21
37.7925891932
  0
LINE
  8
0
 62
7
  6
CONTINUOUS
 10
273.2291718305
 20
36.9575371108
 11
273.3865953467
 21
37.2706816874
  0
LINE
  8
0
 62
7
  6
CONTINUOUS
 10
275.0015439243
 20
38.3144968451
 11
275.1405598133
 21
38.5232598474
  0
LINE
  8
0
 62
7
  6
CONTINUOUS
 10
276.9187991428
 20
36.4356295685
 11
277.2806356702
 21
36.7487741085
  0
LINE
  8
0
 62
7
  6
CONTINUOUS
 10
288.147465978
 20
39.2539303555
 11
287.8040347319
 21
39.0451673532
  0
LINE
  8
0
 62
7
  6
CONTINUOUS
 10
285.4755944032
 20
36.8531556097
 11
285.1321631571
 21
36.6443926073
  0
LINE
  8
0
 62
7
  6
CONTINUOUS
 10
289.2490264535
 20
36.2268665388
 11
289.6946630436
 21
36.4356295685
  0
LINE
  8
0
 62
7
  6
CONTINUOUS
 10
293.5828384452
 20
39.3583118566
 11
293.2946230239
 21
39.4626933578
  0
LINE
  8
0
 62
7
  6
CONTINUOUS
 10
283.2740336985
 20
36.5400110697
 11
283.5438438416
 21
36.3312480491
  0
LINE
  8
0
 62
7
  6
CONTINUOUS
 10
273.4316298935
 20
38.1057338428
 11
273.198630297
 21
38.5232598474
  0
LINE
  8
0
 62
7
  6
CONTINUOUS
 10
273.7997354438
 20
40.1933641583
 11
273.5667358473
 21
40.6108901629
  0
LINE
  8
0
 62
7
  6
CONTINUOUS
 10
274.288049821
 20
37.1663001862
 11
274.4188440653
 21
36.7487741085
  0
LINE
  8
0
 62
7
  6
CONTINUOUS
 10
274.8828859384
 20
37.0619186851
 11
274.8174911491
 21
37.2706816874
  0
LINE
  8
0
 62
7
  6
CONTINUOUS
 10
272.7999832261
 20
38.0013523417
 11
272.846975054
 21
37.688207692
  0
LINE
  8
0
 62
7
  6
CONTINUOUS
 10
273.4786217213
 20
37.7925891932
 11
273.4316298935
 21
38.1057338428
  0
LINE
  8
0
 62
7
  6
CONTINUOUS
 10
273.1680887765
 20
40.0889826572
 11
273.2150805786
 21
39.7758378613
  0
LINE
  8
0
 62
7
  6
CONTINUOUS
 10
273.8467272975
 20
39.8802196548
 11
273.7997354438
 21
40.1933641583
  0
LINE
  8
0
 62
7
  6
CONTINUOUS
 10
274.2962761314
 20
37.7925891932
 11
274.288049821
 21
37.1663001862
  0
LINE
  8
0
 62
7
  6
CONTINUOUS
 10
274.7705016348
 20
37.5838261908
 11
274.8073121846
 21
37.7925891932
  0
LINE
  8
0
 62
7
  6
CONTINUOUS
 10
274.9831386493
 20
38.210115344
 11
275.0015439243
 21
38.3144968451
  0
LINE
  8
0
 62
7
  6
CONTINUOUS
 10
277.2806356702
 20
36.7487741085
 11
277.4564668007
 21
37.1663001862
  0
LINE
  8
0
 62
7
  6
CONTINUOUS
 10
276.9454307475
 20
37.1663001862
 11
276.7880095706
 21
36.8531556097
  0
LINE
  8
0
 62
7
  6
CONTINUOUS
 10
283.7157603422
 20
39.0451673532
 11
283.4745344353
 21
38.8364043509
  0
LINE
  8
0
 62
7
  6
CONTINUOUS
 10
283.8281493246
 20
38.5232598474
 11
284.1899858456
 21
38.8364043509
  0
LINE
  8
0
 62
7
  6
CONTINUOUS
 10
292.4585609996
 20
39.3583118566
 11
292.1151297535
 21
39.1495488544
  0
LINE
  8
0
 62
7
  6
CONTINUOUS
 10
292.0415086537
 20
38.7320228498
 11
292.3849398998
 21
38.940785852
  0
LINE
  8
0
 62
7
  6
CONTINUOUS
 10
289.5638687928
 20
36.8531556097
 11
289.2204375467
 21
36.6443926073
  0
LINE
  8
0
 62
7
  6
CONTINUOUS
 10
290.1732002372
 20
39.1495488544
 11
289.8011847517
 21
39.3583118566
  0
LINE
  8
0
 62
7
  6
CONTINUOUS
 10
293.2025966492
 20
38.940785852
 11
293.3886067313
 21
38.8364043509
  0
LINE
  8
0
 62
7
  6
CONTINUOUS
 10
286.0665205726
 20
39.0451673532
 11
285.6107003442
 21
39.3583118566
  0
LINE
  8
0
 62
7
  6
CONTINUOUS
 10
287.3623080882
 20
36.5400110697
 11
287.6321182313
 21
36.3312480491
  0
LINE
  8
0
 62
7
  6
CONTINUOUS
 10
285.4348739052
 20
38.940785852
 11
285.7046840516
 21
38.7320228498
  0
LINE
  8
0
 62
7
  6
CONTINUOUS
 10
277.6119306578
 20
38.6276413486
 11
277.3789310613
 21
39.0451673532
  0
LINE
  8
0
 62
7
  6
CONTINUOUS
 10
277.0170945403
 20
38.7320228498
 11
277.1662940726
 21
38.4188783463
  0
LINE
  8
0
 62
7
  6
CONTINUOUS
 10
274.8174911491
 20
37.2706816874
 11
274.7705016348
 21
37.5838261908
  0
LINE
  8
0
 62
7
  6
CONTINUOUS
 10
277.6405195759
 20
38.210115344
 11
277.6119306578
 21
38.6276413486
  0
LINE
  8
0
 62
7
  6
CONTINUOUS
 10
277.1662940726
 20
38.4188783463
 11
277.1294835226
 21
38.210115344
  0
LINE
  8
0
 62
7
  6
CONTINUOUS
 10
277.5668984503
 20
37.7925891932
 11
277.6405195759
 21
38.210115344
  0
LINE
  8
0
 62
7
  6
CONTINUOUS
 10
278.9551141216
 20
41.0284161675
 11
278.0900660962
 21
36.1224850285
  0
LINE
  8
0
 62
7
  6
CONTINUOUS
 10
278.6011021494
 20
36.1224850285
 11
279.4661501748
 21
41.0284161675
  0
LINE
  8
0
 62
7
  6
CONTINUOUS
 10
283.4745344353
 20
38.8364043509
 11
283.1965026572
 21
38.4188783463
  0
LINE
  8
0
 62
7
  6
CONTINUOUS
 10
287.8040347319
 20
39.0451673532
 11
287.5628135037
 21
38.8364043509
  0
LINE
  8
0
 62
7
  6
CONTINUOUS
 10
287.9164237142
 20
38.5232598474
 11
288.2782602352
 21
38.8364043509
  0
LINE
  8
0
 62
7
  6
CONTINUOUS
 10
285.606388654
 20
36.4356295685
 11
285.9682251814
 21
36.7487741085
  0
LINE
  8
0
 62
7
  6
CONTINUOUS
 10
289.6253536341
 20
38.940785852
 11
289.8951637804
 21
38.7320228498
  0
LINE
  8
0
 62
7
  6
CONTINUOUS
 10
283.1064288978
 20
36.7487741085
 11
283.2740336985
 21
36.5400110697
  0
LINE
  8
0
 62
7
  6
CONTINUOUS
 10
283.821880308
 20
36.7487741085
 11
283.5704754496
 21
37.0619186851
  0
LINE
  8
0
 62
7
  6
CONTINUOUS
 10
280.383653182
 20
36.9575371108
 11
280.5144474328
 21
36.5400110697
  0
LINE
  8
0
 62
7
  6
CONTINUOUS
 10
280.0077277485
 20
39.4626933578
 11
279.9341066488
 21
39.0451673532
  0
LINE
  8
0
 62
7
  6
CONTINUOUS
 10
280.9726220703
 20
40.2977456595
 11
280.8253798192
 21
39.4626933578
  0
LINE
  8
0
 62
7
  6
CONTINUOUS
 10
280.7517587195
 20
39.0451673532
 11
280.383653182
 21
36.9575371108
  0
LINE
  8
0
 62
7
  6
CONTINUOUS
 10
280.931499798
 20
37.1663001862
 11
281.2627947727
 21
39.0451673532
  0
LINE
  8
0
 62
7
  6
CONTINUOUS
 10
281.3364158724
 20
39.4626933578
 11
281.4836581235
 21
40.2977456595
  0
LINE
  8
0
 62
7
  6
CONTINUOUS
 10
281.6673091114
 20
36.1224850285
 11
281.7409302175
 21
36.5400110697
  0
LINE
  8
0
 62
7
  6
CONTINUOUS
 10
283.6891287568
 20
38.3144968451
 11
283.8281493246
 21
38.5232598474
  0
LINE
  8
0
 62
7
  6
CONTINUOUS
 10
292.1151297535
 20
39.1495488544
 11
291.8739085253
 21
38.940785852
  0
LINE
  8
0
 62
7
  6
CONTINUOUS
 10
291.8002874255
 20
38.5232598474
 11
292.0415086537
 21
38.7320228498
  0
LINE
  8
0
 62
7
  6
CONTINUOUS
 10
289.6946630436
 20
36.4356295685
 11
290.0564995711
 21
36.7487741085
  0
LINE
  8
0
 62
7
  6
CONTINUOUS
 10
293.8526485915
 20
39.1495488544
 11
293.5828384452
 21
39.3583118566
  0
LINE
  8
0
 62
7
  6
CONTINUOUS
 10
287.1947079661
 20
36.7487741085
 11
287.3623080882
 21
36.5400110697
  0
LINE
  8
0
 62
7
  6
CONTINUOUS
 10
287.9101546977
 20
36.7487741085
 11
287.6587498392
 21
37.0619186851
  0
LINE
  8
0
 62
7
  6
CONTINUOUS
 10
280.9784892995
 20
36.8531556097
 11
280.931499798
 21
37.1663001862
  0
LINE
  8
0
 62
7
  6
CONTINUOUS
 10
282.983860964
 20
37.7925891932
 11
282.9756393321
 21
37.1663001862
  0
LINE
  8
0
 62
7
  6
CONTINUOUS
 10
282.3870722183
 20
39.0451673532
 11
282.460693318
 21
39.4626933578
  0
LINE
  8
0
 62
7
  6
CONTINUOUS
 10
283.4580864672
 20
37.5838261908
 11
283.4948970172
 21
37.7925891932
  0
LINE
  8
0
 62
7
  6
CONTINUOUS
 10
283.6707234819
 20
38.210115344
 11
283.6891287568
 21
38.3144968451
  0
LINE
  8
0
 62
7
  6
CONTINUOUS
 10
283.1965026572
 20
38.4188783463
 11
282.983860964
 21
37.7925891932
  0
LINE
  8
0
 62
7
  6
CONTINUOUS
 10
285.6330155801
 20
37.1663001862
 11
285.4755944032
 21
36.8531556097
  0
LINE
  8
0
 62
7
  6
CONTINUOUS
 10
287.5628135037
 20
38.8364043509
 11
287.2847770469
 21
38.4188783463
  0
LINE
  8
0
 62
7
  6
CONTINUOUS
 10
287.7774078251
 20
38.3144968451
 11
287.9164237142
 21
38.5232598474
  0
LINE
  8
0
 62
7
  6
CONTINUOUS
 10
290.4246051085
 20
38.8364043509
 11
290.1732002372
 21
39.1495488544
  0
LINE
  8
0
 62
7
  6
CONTINUOUS
 10
286.299520169
 20
38.6276413486
 11
286.0665205726
 21
39.0451673532
  0
LINE
  8
0
 62
7
  6
CONTINUOUS
 10
285.7046840516
 20
38.7320228498
 11
285.8538789051
 21
38.4188783463
  0
LINE
  8
0
 62
7
  6
CONTINUOUS
 10
282.9756393321
 20
37.1663001862
 11
283.1064288978
 21
36.7487741085
  0
LINE
  8
0
 62
7
  6
CONTINUOUS
 10
283.5704754496
 20
37.0619186851
 11
283.5050759816
 21
37.2706816874
  0
LINE
  8
0
 62
7
  6
CONTINUOUS
 10
283.5050759816
 20
37.2706816874
 11
283.4580864672
 21
37.5838261908
  0
LINE
  8
0
 62
7
  6
CONTINUOUS
 10
286.3281044084
 20
38.210115344
 11
286.299520169
 21
38.6276413486
  0
LINE
  8
0
 62
7
  6
CONTINUOUS
 10
285.8538789051
 20
38.4188783463
 11
285.8170683552
 21
38.210115344
  0
LINE
  8
0
 62
7
  6
CONTINUOUS
 10
286.2544832829
 20
37.7925891932
 11
286.3281044084
 21
38.210115344
  0
LINE
  8
0
 62
7
  6
CONTINUOUS
 10
287.2847770469
 20
38.4188783463
 11
287.0721400323
 21
37.7925891932
  0
LINE
  8
0
 62
7
  6
CONTINUOUS
 10
285.9682251814
 20
36.7487741085
 11
286.1440516332
 21
37.1663001862
  0
LINE
  8
0
 62
7
  6
CONTINUOUS
 10
287.6015766817
 20
37.8969706943
 11
287.7774078251
 21
38.3144968451
  0
LINE
  8
0
 62
7
  6
CONTINUOUS
 10
293.3886067313
 20
38.8364043509
 11
293.5562068598
 21
38.6276413486
  0
LINE
  8
0
 62
7
  6
CONTINUOUS
 10
287.0639137218
 20
37.1663001862
 11
287.1947079661
 21
36.7487741085
  0
LINE
  8
0
 62
7
  6
CONTINUOUS
 10
287.0721400323
 20
37.7925891932
 11
287.0639137218
 21
37.1663001862
  0
LINE
  8
0
 62
7
  6
CONTINUOUS
 10
287.5463608569
 20
37.5838261908
 11
287.6015766817
 21
37.8969706943
  0
LINE
  8
0
 62
7
  6
CONTINUOUS
 10
290.0564995711
 20
36.7487741085
 11
290.2323260229
 21
37.1663001862
  0
LINE
  8
0
 62
7
  6
CONTINUOUS
 10
289.7212946484
 20
37.1663001862
 11
289.5638687928
 21
36.8531556097
  0
LINE
  8
0
 62
7
  6
CONTINUOUS
 10
294.0202533986
 20
38.940785852
 11
293.8526485915
 21
39.1495488544
  0
LINE
  8
0
 62
7
  6
CONTINUOUS
 10
287.6587498392
 20
37.0619186851
 11
287.5463608569
 21
37.5838261908
  0
LINE
  8
0
 62
7
  6
CONTINUOUS
 10
290.453189348
 20
38.4188783463
 11
290.4246051085
 21
38.8364043509
  0
LINE
  8
0
 62
7
  6
CONTINUOUS
 10
291.7309780224
 20
41.0284161675
 11
290.8659299971
 21
36.1224850285
  0
LINE
  8
0
 62
7
  6
CONTINUOUS
 10
291.3769660504
 20
36.1224850285
 11
291.8002874255
 21
38.5232598474
  0
LINE
  8
0
 62
7
  6
CONTINUOUS
 10
291.8739085253
 20
38.940785852
 11
292.2420140756
 21
41.0284161675
  0
LINE
  8
0
 62
7
  6
CONTINUOUS
 10
289.8951637804
 20
38.7320228498
 11
289.9421579734
 21
38.4188783463
  0
LINE
  8
0
 62
7
  6
CONTINUOUS
 10
293.5562068598
 20
38.6276413486
 11
293.5847957779
 21
38.210115344
  0
LINE
  8
0
 62
7
  6
CONTINUOUS
 10
294.0958271524
 20
38.210115344
 11
294.0856481879
 21
38.7320228498
  0
LINE
  8
0
 62
7
  6
CONTINUOUS
 10
293.5847957779
 20
38.210115344
 11
293.2166902275
 21
36.1224850285
  0
LINE
  8
0
 62
7
  6
CONTINUOUS
 10
293.727721602
 20
36.1224850285
 11
294.0958271524
 21
38.210115344
  0
LINE
  8
0
 62
7
  6
CONTINUOUS
 10
294.0856481879
 20
38.7320228498
 11
294.0202533986
 21
38.940785852
  0
ARC
  8
0
 62
7
  6
CONTINUOUS
 10
227.7913017501
 20
43.7262372576
 40
2.2642745169
 50
108.0107581108
 51
165.5109071299
  0
ARC
  8
0
 62
7
  6
CONTINUOUS
 10
225.5557285011
 20
36.8851261028
 40
2.1918177324
 50
108.0107581108
 51
131.2463042362
  0
ARC
  8
0
 62
7
  6
CONTINUOUS
 10
241.0696036235
 20
48.5195616599
 40
2.1737035363
 50
348.0107581108
 51
4.0059063308
  0
ARC
  8
0
 62
7
  6
CONTINUOUS
 10
246.0122024622
 20
43.1891087444
 40
2.1737035363
 50
347.7134320826
 51
47.5593061332
  0
ARC
  8
0
 62
7
  6
CONTINUOUS
 10
236.4534310247
 20
27.5046882914
 40
2.1737035363
 50
227.8352992885
 51
285.0236425378
  0
ARC
  8
0
 62
7
  6
CONTINUOUS
 10
243.3058142424
 20
29.0600392403
 40
2.1737035363
 50
227.5593061332
 51
255.9404932861
  0
ARC
  8
0
 62
7
  6
CONTINUOUS
 10
241.0696055124
 20
48.5195651416
 40
1.8114196136
 50
348.0107581108
 51
108.0107581108
  0
ARC
  8
0
 62
7
  6
CONTINUOUS
 10
243.3058142424
 20
29.0600392403
 40
1.8114196136
 50
227.5593061332
 51
347.7134320826
  0
ARC
  8
0
 62
7
  6
CONTINUOUS
 10
225.5557285011
 20
36.8851261028
 40
1.8114196136
 50
108.0107581108
 51
227.8352992885
  0
SOLID
  8
0
 62
7
  6
CONTINUOUS
 10
273.5667358473
 20
40.6108901629
 11
270.7703390318
 21
40.4021237832
 12
273.2131232975
 22
40.9240346664
 13
273.2131232975
 23
40.9240346664
  0
SOLID
  8
0
 62
7
  6
CONTINUOUS
 10
273.2131232975
 20
40.9240346664
 11
270.7703390318
 21
40.4021237832
 12
272.7204948586
 22
41.0284149524
 13
272.7204948586
 23
41.0284149524
  0
SOLID
  8
0
 62
7
  6
CONTINUOUS
 10
270.7703390318
 20
40.4021237832
 11
270.267529289
 21
41.0284149524
 12
272.7204948586
 22
41.0284149524
 13
272.7204948586
 23
41.0284149524
  0
SOLID
  8
0
 62
7
  6
CONTINUOUS
 10
270.7703390318
 20
40.4021237832
 11
273.5667358473
 21
40.6108901629
 12
272.7122708874
 22
40.4021237832
 13
272.7122708874
 23
40.4021237832
  0
SOLID
  8
0
 62
7
  6
CONTINUOUS
 10
272.7122708874
 20
40.4021237832
 11
273.5667358473
 21
40.6108901629
 12
273.0004863087
 22
40.2977456595
 13
273.0004863087
 23
40.2977456595
  0
SOLID
  8
0
 62
7
  6
CONTINUOUS
 10
273.5667358473
 20
40.6108901629
 11
273.7997354438
 21
40.1933641583
 12
273.0004863087
 22
40.2977456595
 13
273.0004863087
 23
40.2977456595
  0
SOLID
  8
0
 62
7
  6
CONTINUOUS
 10
273.1680887765
 20
40.0889826572
 11
273.0004863087
 21
40.2977456595
 12
273.7997354438
 22
40.1933641583
 13
273.7997354438
 23
40.1933641583
  0
SOLID
  8
0
 62
7
  6
CONTINUOUS
 10
273.7997354438
 20
40.1933641583
 11
273.8467272975
 21
39.8802196548
 12
273.1680887765
 22
40.0889826572
 13
273.1680887765
 23
40.0889826572
  0
SOLID
  8
0
 62
7
  6
CONTINUOUS
 10
273.2150805786
 20
39.7758378613
 11
273.1680887765
 21
40.0889826572
 12
273.8467272975
 22
39.8802196548
 13
273.8467272975
 23
39.8802196548
  0
SOLID
  8
0
 62
7
  6
CONTINUOUS
 10
273.2150805786
 20
39.7758378613
 11
273.8467272975
 21
39.8802196548
 12
273.1782700287
 22
39.567074859
 13
273.1782700287
 23
39.567074859
  0
SOLID
  8
0
 62
7
  6
CONTINUOUS
 10
273.8467272975
 20
39.8802196548
 11
273.7731061461
 21
39.4626933578
 12
273.1782700287
 22
39.567074859
 13
273.1782700287
 23
39.567074859
  0
SOLID
  8
0
 62
7
  6
CONTINUOUS
 10
273.0208465254
 20
39.2539303555
 11
273.1782700287
 21
39.567074859
 12
273.7731061461
 22
39.4626933578
 13
273.7731061461
 23
39.4626933578
  0
SOLID
  8
0
 62
7
  6
CONTINUOUS
 10
273.7731061461
 20
39.4626933578
 11
273.6156826428
 21
39.1495488544
 12
273.0208465254
 22
39.2539303555
 13
273.0208465254
 23
39.2539303555
  0
SOLID
  8
0
 62
7
  6
CONTINUOUS
 10
272.7796229578
 20
39.0451673532
 11
273.0208465254
 21
39.2539303555
 12
273.6156826428
 22
39.1495488544
 13
273.6156826428
 23
39.1495488544
  0
SOLID
  8
0
 62
7
  6
CONTINUOUS
 10
272.7796229578
 20
39.0451673532
 11
273.6156826428
 21
39.1495488544
 12
272.4545969867
 22
38.940784263
 13
272.4545969867
 23
38.940784263
  0
SOLID
  8
0
 62
7
  6
CONTINUOUS
 10
273.6156826428
 20
39.1495488544
 11
273.2354408469
 21
38.7320228498
 12
272.4545969867
 22
38.940784263
 13
272.4545969867
 23
38.940784263
  0
SOLID
  8
0
 62
7
  6
CONTINUOUS
 10
273.2354408469
 20
38.7320228498
 11
270.4022334814
 21
38.3144953912
 12
272.4545969867
 22
38.940784263
 13
272.4545969867
 23
38.940784263
  0
SOLID
  8
0
 62
7
  6
CONTINUOUS
 10
272.4545969867
 20
38.940784263
 11
270.4022334814
 21
38.3144953912
 12
270.512665131
 22
38.940784263
 13
270.512665131
 23
38.940784263
  0
SOLID
  8
0
 62
7
  6
CONTINUOUS
 10
269.4024812637
 20
36.1224861108
 11
270.512665131
 21
38.940784263
 12
270.4022334814
 22
38.3144953912
 13
270.4022334814
 23
38.3144953912
  0
SOLID
  8
0
 62
7
  6
CONTINUOUS
 10
273.198630297
 20
38.5232598474
 11
270.4022334814
 21
38.3144944647
 12
273.0126225543
 22
38.6276413486
 13
273.0126225543
 23
38.6276413486
  0
SOLID
  8
0
 62
7
  6
CONTINUOUS
 10
270.4022334814
 20
38.3144944647
 11
273.2354408469
 21
38.7320228498
 12
273.0126225543
 22
38.6276413486
 13
273.0126225543
 23
38.6276413486
  0
SOLID
  8
0
 62
7
  6
CONTINUOUS
 10
270.4022334814
 20
38.3144944647
 11
273.198630297
 21
38.5232598474
 12
272.344165337
 22
38.3144944647
 13
272.344165337
 23
38.3144944647
  0
SOLID
  8
0
 62
7
  6
CONTINUOUS
 10
272.344165337
 20
38.3144944647
 11
273.198630297
 21
38.5232598474
 12
272.6323807583
 22
38.210115344
 13
272.6323807583
 23
38.210115344
  0
SOLID
  8
0
 62
7
  6
CONTINUOUS
 10
273.198630297
 20
38.5232598474
 11
273.4316298935
 21
38.1057338428
 12
272.6323807583
 22
38.210115344
 13
272.6323807583
 23
38.210115344
  0
SOLID
  8
0
 62
7
  6
CONTINUOUS
 10
272.7999832261
 20
38.0013523417
 11
272.6323807583
 21
38.210115344
 12
273.4316298935
 22
38.1057338428
 13
273.4316298935
 23
38.1057338428
  0
SOLID
  8
0
 62
7
  6
CONTINUOUS
 10
273.4316298935
 20
38.1057338428
 11
273.4786217213
 21
37.7925891932
 12
272.7999832261
 22
38.0013523417
 13
272.7999832261
 23
38.0013523417
  0
SOLID
  8
0
 62
7
  6
CONTINUOUS
 10
272.846975054
 20
37.688207692
 11
272.7999832261
 21
38.0013523417
 12
273.4786217213
 22
37.7925891932
 13
273.4786217213
 23
37.7925891932
  0
SOLID
  8
0
 62
7
  6
CONTINUOUS
 10
272.846975054
 20
37.688207692
 11
273.4786217213
 21
37.7925891932
 12
272.7917592292
 22
37.3750631886
 13
272.7917592292
 23
37.3750631886
  0
SOLID
  8
0
 62
7
  6
CONTINUOUS
 10
273.4786217213
 20
37.7925891932
 11
273.3865953467
 21
37.2706816874
 12
272.7917592292
 22
37.3750631886
 13
272.7917592292
 23
37.3750631886
  0
SOLID
  8
0
 62
7
  6
CONTINUOUS
 10
272.6343357259
 20
37.0619186851
 11
272.7917592292
 21
37.3750631886
 12
273.3865953467
 22
37.2706816874
 13
273.3865953467
 23
37.2706816874
  0
SOLID
  8
0
 62
7
  6
CONTINUOUS
 10
273.3865953467
 20
37.2706816874
 11
273.2291718305
 21
36.9575371108
 12
272.6343357259
 22
37.0619186851
 13
272.6343357259
 23
37.0619186851
  0
SOLID
  8
0
 62
7
  6
CONTINUOUS
 10
272.3931121454
 20
36.8531556097
 11
272.6343357259
 21
37.0619186851
 12
273.2291718305
 22
36.9575371108
 13
273.2291718305
 23
36.9575371108
  0
SOLID
  8
0
 62
7
  6
CONTINUOUS
 10
272.3931121454
 20
36.8531556097
 11
273.2291718305
 21
36.9575371108
 12
272.0680861743
 22
36.7487724213
 13
272.0680861743
 23
36.7487724213
  0
SOLID
  8
0
 62
7
  6
CONTINUOUS
 10
273.2291718305
 20
36.9575371108
 11
272.848930028
 21
36.5400110697
 12
272.0680861743
 22
36.7487724213
 13
272.0680861743
 23
36.7487724213
  0
SOLID
  8
0
 62
7
  6
CONTINUOUS
 10
272.848930028
 20
36.5400110697
 11
269.4024812637
 21
36.1224861108
 12
272.0680861743
 22
36.7487724213
 13
272.0680861743
 23
36.7487724213
  0
SOLID
  8
0
 62
7
  6
CONTINUOUS
 10
269.4024812637
 20
36.1224861108
 11
270.1261543186
 21
36.7487724213
 12
272.0680861743
 22
36.7487724213
 13
272.0680861743
 23
36.7487724213
  0
SOLID
  8
0
 62
7
  6
CONTINUOUS
 10
272.3848858237
 20
36.2268665388
 11
271.8554468332
 21
36.1224861108
 12
272.848930028
 22
36.5400110697
 13
269.4024812637
 23
36.1224861108
  0
SOLID
  8
0
 62
7
  6
CONTINUOUS
 10
270.1261543186
 20
36.7487723741
 11
269.4024812637
 21
36.1224861108
 12
270.4022334814
 22
38.3144953912
 13
270.4022334814
 23
38.3144953912
  0
SOLID
  8
0
 62
7
  6
CONTINUOUS
 10
270.512665131
 20
38.9407865604
 11
269.4024812637
 21
36.1224861108
 12
270.7703390318
 22
40.4021260807
 13
270.267529289
 23
41.0284172499
  0
SOLID
  8
0
 62
7
  6
CONTINUOUS
 10
276.3282793942
 20
39.4626933578
 11
276.9231155117
 21
39.3583111139
 12
275.6966327269
 22
39.3583111139
 13
275.6966327269
 23
39.3583111139
  0
SOLID
  8
0
 62
7
  6
CONTINUOUS
 10
275.3716067557
 20
39.2539303555
 11
275.6966327269
 21
39.3583111139
 12
276.9231155117
 22
39.3583111139
 13
276.9231155117
 23
39.3583111139
  0
SOLID
  8
0
 62
7
  6
CONTINUOUS
 10
275.3716067557
 20
39.2539303555
 11
276.9231155117
 21
39.3583111139
 12
275.0281755097
 22
39.0451680223
 13
275.0281755097
 23
39.0451680223
  0
SOLID
  8
0
 62
7
  6
CONTINUOUS
 10
275.0281755097
 20
39.0451680223
 11
276.9231155117
 21
39.3583111139
 12
276.1524482766
 22
39.0451680223
 13
276.1524482766
 23
39.0451680223
  0
SOLID
  8
0
 62
7
  6
CONTINUOUS
 10
276.9231155117
 20
39.3583111139
 11
277.3789310613
 21
39.0451680223
 12
276.1524482766
 22
39.0451680223
 13
276.1524482766
 23
39.0451680223
  0
SOLID
  8
0
 62
7
  6
CONTINUOUS
 10
276.7472843941
 20
38.9407856445
 11
276.1524482766
 21
39.0451680223
 12
277.3789310613
 22
39.0451680223
 13
277.3789310613
 23
39.0451680223
  0
SOLID
  8
0
 62
7
  6
CONTINUOUS
 10
274.7869496028
 20
38.8364041342
 11
275.0281755097
 21
39.0451680223
 12
276.1524482766
 22
39.0451680223
 13
276.1524482766
 23
39.0451680223
  0
SOLID
  8
0
 62
7
  6
CONTINUOUS
 10
276.7472843941
 20
38.9407856445
 11
277.3789310613
 21
39.0451680223
 12
277.0170945403
 22
38.7320228498
 13
277.0170945403
 23
38.7320228498
  0
SOLID
  8
0
 62
7
  6
CONTINUOUS
 10
277.3789310613
 20
39.0451680223
 11
277.6119306578
 21
38.6276413486
 12
277.0170945403
 22
38.7320228498
 13
277.0170945403
 23
38.7320228498
  0
SOLID
  8
0
 62
7
  6
CONTINUOUS
 10
277.1662940726
 20
38.4188772463
 11
277.0170945403
 21
38.7320228498
 12
277.6119306578
 22
38.6276413486
 13
277.6119306578
 23
38.6276413486
  0
SOLID
  8
0
 62
7
  6
CONTINUOUS
 10
277.1662940726
 20
38.4188772463
 11
277.6119306578
 21
38.6276413486
 12
277.1294835226
 22
38.2101144198
 13
277.1294835226
 23
38.2101144198
  0
SOLID
  8
0
 62
7
  6
CONTINUOUS
 10
277.6119306578
 20
38.6276413486
 11
277.6405195759
 21
38.2101144198
 12
277.1294835226
 22
38.2101144198
 13
277.1294835226
 23
38.2101144198
  0
SOLID
  8
0
 62
7
  6
CONTINUOUS
 10
277.6405195759
 20
38.2101144198
 11
274.2962761314
 21
37.7925887667
 12
277.1294835226
 22
38.2101144198
 13
277.1294835226
 23
38.2101144198
  0
SOLID
  8
0
 62
7
  6
CONTINUOUS
 10
277.1294835226
 20
38.2101144198
 11
274.2962761314
 21
37.7925887667
 12
274.9831386493
 22
38.2101144198
 13
274.9831386493
 23
38.2101144198
  0
SOLID
  8
0
 62
7
  6
CONTINUOUS
 10
274.9831386493
 20
38.2101144198
 11
274.2962761314
 21
37.7925887667
 12
275.0015439243
 22
38.3144968451
 13
275.0015439243
 23
38.3144968451
  0
SOLID
  8
0
 62
7
  6
CONTINUOUS
 10
274.2962761314
 20
37.7925887667
 11
274.508913146
 21
38.4188772463
 12
275.0015439243
 22
38.3144968451
 13
275.0015439243
 23
38.3144968451
  0
SOLID
  8
0
 62
7
  6
CONTINUOUS
 10
274.2962761314
 20
37.7925887667
 11
277.6405195759
 21
38.2101144198
 12
274.8073121846
 22
37.7925887667
 13
274.8073121846
 23
37.7925887667
  0
SOLID
  8
0
 62
7
  6
CONTINUOUS
 10
277.6405195759
 20
38.2101144198
 11
277.5668984503
 21
37.7925887667
 12
274.8073121846
 22
37.7925887667
 13
274.8073121846
 23
37.7925887667
  0
SOLID
  8
0
 62
7
  6
CONTINUOUS
 10
274.288049821
 20
37.1662999696
 11
274.2962761314
 21
37.7925887667
 12
274.8073121846
 22
37.7925887667
 13
274.8073121846
 23
37.7925887667
  0
SOLID
  8
0
 62
7
  6
CONTINUOUS
 10
274.7869496028
 20
38.8364039206
 11
276.1524482766
 21
39.0451671548
 12
275.7252169663
 22
38.9407856445
 13
275.7252169663
 23
38.9407856445
  0
SOLID
  8
0
 62
7
  6
CONTINUOUS
 10
275.7252169663
 20
38.9407856445
 11
275.5023963343
 21
38.8364039206
 12
274.7869496028
 22
38.8364039206
 13
274.7869496028
 23
38.8364039206
  0
SOLID
  8
0
 62
7
  6
CONTINUOUS
 10
274.508913146
 20
38.4188780931
 11
274.7869496028
 21
38.8364039206
 12
275.5023963343
 22
38.8364039206
 13
275.5023963343
 23
38.8364039206
  0
SOLID
  8
0
 62
7
  6
CONTINUOUS
 10
275.1405598133
 20
38.5232598474
 11
275.0015439243
 21
38.3144968451
 12
275.5023963343
 22
38.8364041342
 13
274.508913146
 23
38.4188780931
  0
SOLID
  8
0
 62
7
  6
CONTINUOUS
 10
274.8174911491
 20
37.2706816874
 11
274.288049821
 21
37.1662999696
 12
274.7705016348
 22
37.5838261908
 13
274.7705016348
 23
37.5838261908
  0
SOLID
  8
0
 62
7
  6
CONTINUOUS
 10
274.288049821
 20
37.1662999696
 11
274.8073121846
 21
37.7925890313
 12
274.7705016348
 22
37.5838261908
 13
274.7705016348
 23
37.5838261908
  0
SOLID
  8
0
 62
7
  6
CONTINUOUS
 10
274.8174911491
 20
37.2706816874
 11
274.8828859384
 21
37.0619186851
 12
274.288049821
 22
37.1662999696
 13
274.288049821
 23
37.1662999696
  0
SOLID
  8
0
 62
7
  6
CONTINUOUS
 10
274.4188440653
 20
36.7487745498
 11
274.288049821
 21
37.1662999696
 12
274.8828859384
 22
37.0619186851
 13
274.8828859384
 23
37.0619186851
  0
SOLID
  8
0
 62
7
  6
CONTINUOUS
 10
274.8828859384
 20
37.0619186851
 11
275.1342907969
 21
36.7487745498
 12
274.4188440653
 22
36.7487745498
 13
274.4188440653
 23
36.7487745498
  0
SOLID
  8
0
 62
7
  6
CONTINUOUS
 10
274.586448866
 20
36.5400109078
 11
274.4188440653
 21
36.7487745498
 12
275.1342907969
 22
36.7487745498
 13
275.1342907969
 23
36.7487745498
  0
SOLID
  8
0
 62
7
  6
CONTINUOUS
 10
276.7880095706
 20
36.8531556097
 11
276.9454307475
 21
37.1663002572
 12
277.4564668007
 22
37.1663002572
 13
277.4564668007
 23
37.1663002572
  0
SOLID
  8
0
 62
7
  6
CONTINUOUS
 10
277.4564668007
 20
37.1663002572
 11
277.2806356702
 21
36.7487739284
 12
276.7880095706
 22
36.8531556097
 13
276.7880095706
 23
36.8531556097
  0
SOLID
  8
0
 62
7
  6
CONTINUOUS
 10
276.4445783245
 20
36.6443924181
 11
276.7880095706
 21
36.8531556097
 12
277.2806356702
 22
36.7487739284
 13
277.2806356702
 23
36.7487739284
  0
SOLID
  8
0
 62
7
  6
CONTINUOUS
 10
276.4445783245
 20
36.6443924181
 11
277.2806356702
 21
36.7487739284
 12
275.7107216329
 22
36.5400112926
 13
275.7107216329
 23
36.5400112926
  0
SOLID
  8
0
 62
7
  6
CONTINUOUS
 10
277.2806356702
 20
36.7487739284
 11
276.9187991428
 21
36.4356295685
 12
275.7107216329
 22
36.5400112926
 13
275.7107216329
 23
36.5400112926
  0
SOLID
  8
0
 62
7
  6
CONTINUOUS
 10
276.9187991428
 20
36.4356295685
 11
274.8562590091
 21
36.3312480491
 12
275.7107216329
 22
36.5400112926
 13
275.7107216329
 23
36.5400112926
  0
SOLID
  8
0
 62
7
  6
CONTINUOUS
 10
274.8562590091
 20
36.3312480491
 11
274.586448866
 21
36.5400112926
 12
275.7107216329
 22
36.5400112926
 13
275.7107216329
 23
36.5400112926
  0
SOLID
  8
0
 62
7
  6
CONTINUOUS
 10
274.8562590091
 20
36.3312480491
 11
276.9187991428
 21
36.4356295685
 12
275.1444744287
 22
36.2268668102
 13
275.1444744287
 23
36.2268668102
  0
SOLID
  8
0
 62
7
  6
CONTINUOUS
 10
276.9187991428
 20
36.4356295685
 11
276.4731625527
 21
36.2268668102
 12
275.1444744287
 22
36.2268668102
 13
275.1444744287
 23
36.2268668102
  0
SOLID
  8
0
 62
7
  6
CONTINUOUS
 10
275.7393105446
 20
36.1224850285
 11
275.1444744287
 21
36.2268668102
 12
276.4731625527
 22
36.2268668102
 13
276.4731625527
 23
36.2268668102
  0
SOLID
  8
0
 62
7
  6
CONTINUOUS
 10
275.320300879
 20
36.6443924181
 11
275.7107216329
 21
36.5400109078
 12
275.1342907969
 22
36.7487739284
 13
274.586448866
 23
36.5400109078
  0
SOLID
  8
0
 62
7
  6
CONTINUOUS
 10
278.6011021494
 20
36.1224850285
 11
278.0900660962
 21
36.1224850285
 12
279.4661501748
 22
41.0284161675
 13
278.9551141216
 23
41.0284161675
  0
SOLID
  8
0
 62
7
  6
CONTINUOUS
 10
280.8253798192
 20
39.4626929675
 11
280.9726220703
 21
40.2977450937
 12
281.4836581235
 22
40.2977450937
 13
281.4836581235
 23
40.2977450937
  0
SOLID
  8
0
 62
7
  6
CONTINUOUS
 10
281.4836581235
 20
40.2977450937
 11
281.3364158724
 21
39.4626929675
 12
280.8253798192
 22
39.4626929675
 13
280.8253798192
 23
39.4626929675
  0
SOLID
  8
0
 62
7
  6
CONTINUOUS
 10
282.460693318
 20
39.4626929675
 11
279.9341066488
 21
39.0451669044
 12
281.3364158724
 22
39.4626929675
 13
281.3364158724
 23
39.4626929675
  0
SOLID
  8
0
 62
7
  6
CONTINUOUS
 10
281.3364158724
 20
39.4626929675
 11
279.9341066488
 21
39.0451669044
 12
280.8253798192
 22
39.4626929675
 13
280.8253798192
 23
39.4626929675
  0
SOLID
  8
0
 62
7
  6
CONTINUOUS
 10
279.9341066488
 20
39.0451669044
 11
280.0077277485
 21
39.4626929675
 12
280.8253798192
 22
39.4626929675
 13
280.8253798192
 23
39.4626929675
  0
SOLID
  8
0
 62
7
  6
CONTINUOUS
 10
279.9341066488
 20
39.0451669044
 11
282.460693318
 21
39.4626929675
 12
280.7517587195
 22
39.0451669044
 13
280.7517587195
 23
39.0451669044
  0
SOLID
  8
0
 62
7
  6
CONTINUOUS
 10
280.7517587195
 20
39.0451669044
 11
282.460693318
 21
39.4626929675
 12
281.2627947727
 22
39.0451669044
 13
281.2627947727
 23
39.0451669044
  0
SOLID
  8
0
 62
7
  6
CONTINUOUS
 10
282.460693318
 20
39.4626929675
 11
282.3870722183
 21
39.0451669044
 12
281.2627947727
 22
39.0451669044
 13
281.2627947727
 23
39.0451669044
  0
SOLID
  8
0
 62
7
  6
CONTINUOUS
 10
280.931499798
 20
37.1663001862
 11
280.383653182
 21
36.9575371108
 12
281.2627947727
 22
39.0451669044
 13
281.2627947727
 23
39.0451669044
  0
SOLID
  8
0
 62
7
  6
CONTINUOUS
 10
280.383653182
 20
36.9575371108
 11
280.7517587195
 21
39.0451669044
 12
281.2627947727
 22
39.0451669044
 13
281.2627947727
 23
39.0451669044
  0
SOLID
  8
0
 62
7
  6
CONTINUOUS
 10
280.931499798
 20
37.1663001862
 11
280.9784892995
 21
36.8531556097
 12
280.383653182
 22
36.9575371108
 13
280.383653182
 23
36.9575371108
  0
SOLID
  8
0
 62
7
  6
CONTINUOUS
 10
281.2482994457
 20
36.6443926073
 11
280.5144474328
 21
36.5400105258
 12
280.9784892995
 22
36.8531556097
 13
280.9784892995
 23
36.8531556097
  0
SOLID
  8
0
 62
7
  6
CONTINUOUS
 10
280.5144474328
 20
36.5400105258
 11
280.383653182
 21
36.9575371108
 12
280.9784892995
 22
36.8531556097
 13
280.9784892995
 23
36.8531556097
  0
SOLID
  8
0
 62
7
  6
CONTINUOUS
 10
281.2482994457
 20
36.6443926073
 11
281.7409302175
 21
36.5400105258
 12
280.5144474328
 22
36.5400105258
 13
280.5144474328
 23
36.5400105258
  0
SOLID
  8
0
 62
7
  6
CONTINUOUS
 10
280.7842575759
 20
36.3312480491
 11
280.5144474328
 21
36.5400105258
 12
281.7409302175
 22
36.5400105258
 13
281.7409302175
 23
36.5400105258
  0
SOLID
  8
0
 62
7
  6
CONTINUOUS
 10
280.7842575759
 20
36.3312480491
 11
281.7409302175
 21
36.5400105258
 12
281.0724729955
 22
36.2268665388
 13
281.0724729955
 23
36.2268665388
  0
SOLID
  8
0
 62
7
  6
CONTINUOUS
 10
281.7409302175
 20
36.5400105258
 11
281.6673091114
 21
36.1224850285
 12
281.0724729955
 22
36.2268665388
 13
281.0724729955
 23
36.2268665388
  0
SOLID
  8
0
 62
7
  6
CONTINUOUS
 10
285.0158642267
 20
39.4626933578
 11
285.6107003442
 21
39.3583111139
 12
284.3842175595
 22
39.3583111139
 13
284.3842175595
 23
39.3583111139
  0
SOLID
  8
0
 62
7
  6
CONTINUOUS
 10
284.0591915883
 20
39.2539303555
 11
284.3842175595
 21
39.3583111139
 12
285.6107003442
 22
39.3583111139
 13
285.6107003442
 23
39.3583111139
  0
SOLID
  8
0
 62
7
  6
CONTINUOUS
 10
284.0591915883
 20
39.2539303555
 11
285.6107003442
 21
39.3583111139
 12
283.7157603422
 22
39.0451680223
 13
283.7157603422
 23
39.0451680223
  0
SOLID
  8
0
 62
7
  6
CONTINUOUS
 10
283.7157603422
 20
39.0451680223
 11
285.6107003442
 21
39.3583111139
 12
284.8400377878
 22
39.0451680223
 13
284.8400377878
 23
39.0451680223
  0
SOLID
  8
0
 62
7
  6
CONTINUOUS
 10
285.6107003442
 20
39.3583111139
 11
286.0665205726
 21
39.0451680223
 12
284.8400377878
 22
39.0451680223
 13
284.8400377878
 23
39.0451680223
  0
SOLID
  8
0
 62
7
  6
CONTINUOUS
 10
285.4348739052
 20
38.9407856445
 11
284.8400377878
 21
39.0451680223
 12
286.0665205726
 22
39.0451680223
 13
286.0665205726
 23
39.0451680223
  0
SOLID
  8
0
 62
7
  6
CONTINUOUS
 10
283.4745344353
 20
38.8364041342
 11
283.7157603422
 21
39.0451680223
 12
284.8400377878
 22
39.0451680223
 13
284.8400377878
 23
39.0451680223
  0
SOLID
  8
0
 62
7
  6
CONTINUOUS
 10
285.4348739052
 20
38.9407856445
 11
286.0665205726
 21
39.0451680223
 12
285.7046840516
 22
38.7320228498
 13
285.7046840516
 23
38.7320228498
  0
SOLID
  8
0
 62
7
  6
CONTINUOUS
 10
286.0665205726
 20
39.0451680223
 11
286.299520169
 21
38.6276413486
 12
285.7046840516
 22
38.7320228498
 13
285.7046840516
 23
38.7320228498
  0
SOLID
  8
0
 62
7
  6
CONTINUOUS
 10
285.8538789051
 20
38.4188772463
 11
285.7046840516
 21
38.7320228498
 12
286.299520169
 22
38.6276413486
 13
286.299520169
 23
38.6276413486
  0
SOLID
  8
0
 62
7
  6
CONTINUOUS
 10
285.8538789051
 20
38.4188772463
 11
286.299520169
 21
38.6276413486
 12
285.8170683552
 22
38.2101144198
 13
285.8170683552
 23
38.2101144198
  0
SOLID
  8
0
 62
7
  6
CONTINUOUS
 10
286.299520169
 20
38.6276413486
 11
286.3281044084
 21
38.2101144198
 12
285.8170683552
 22
38.2101144198
 13
285.8170683552
 23
38.2101144198
  0
SOLID
  8
0
 62
7
  6
CONTINUOUS
 10
286.3281044084
 20
38.2101144198
 11
282.983860964
 21
37.7925887667
 12
285.8170683552
 22
38.2101144198
 13
285.8170683552
 23
38.2101144198
  0
SOLID
  8
0
 62
7
  6
CONTINUOUS
 10
285.8170683552
 20
38.2101144198
 11
282.983860964
 21
37.7925887667
 12
283.6707234819
 22
38.2101144198
 13
283.6707234819
 23
38.2101144198
  0
SOLID
  8
0
 62
7
  6
CONTINUOUS
 10
283.6707234819
 20
38.2101144198
 11
282.983860964
 21
37.7925887667
 12
283.6891287568
 22
38.3144968451
 13
283.6891287568
 23
38.3144968451
  0
SOLID
  8
0
 62
7
  6
CONTINUOUS
 10
282.983860964
 20
37.7925887667
 11
283.1965026572
 21
38.4188772463
 12
283.6891287568
 22
38.3144968451
 13
283.6891287568
 23
38.3144968451
  0
SOLID
  8
0
 62
7
  6
CONTINUOUS
 10
282.983860964
 20
37.7925887667
 11
286.3281044084
 21
38.2101144198
 12
283.4948970172
 22
37.7925887667
 13
283.4948970172
 23
37.7925887667
  0
SOLID
  8
0
 62
7
  6
CONTINUOUS
 10
286.3281044084
 20
38.2101144198
 11
286.2544832829
 21
37.7925887667
 12
283.4948970172
 22
37.7925887667
 13
283.4948970172
 23
37.7925887667
  0
SOLID
  8
0
 62
7
  6
CONTINUOUS
 10
282.9756393321
 20
37.1662999696
 11
282.983860964
 21
37.7925887667
 12
283.4948970172
 22
37.7925887667
 13
283.4948970172
 23
37.7925887667
  0
SOLID
  8
0
 62
7
  6
CONTINUOUS
 10
283.4745344353
 20
38.8364039206
 11
284.8400377878
 21
39.0451671548
 12
284.4128017989
 22
38.9407856445
 13
284.4128017989
 23
38.9407856445
  0
SOLID
  8
0
 62
7
  6
CONTINUOUS
 10
284.4128017989
 20
38.9407856445
 11
284.1899858456
 21
38.8364039206
 12
283.4745344353
 22
38.8364039206
 13
283.4745344353
 23
38.8364039206
  0
SOLID
  8
0
 62
7
  6
CONTINUOUS
 10
283.1965026572
 20
38.4188780931
 11
283.4745344353
 21
38.8364039206
 12
284.1899858456
 22
38.8364039206
 13
284.1899858456
 23
38.8364039206
  0
SOLID
  8
0
 62
7
  6
CONTINUOUS
 10
283.8281493246
 20
38.5232598474
 11
283.6891287568
 21
38.3144968451
 12
284.1899858456
 22
38.8364041342
 13
283.1965026572
 23
38.4188780931
  0
SOLID
  8
0
 62
7
  6
CONTINUOUS
 10
283.5050759816
 20
37.2706816874
 11
282.9756393321
 21
37.1662999696
 12
283.4580864672
 22
37.5838261908
 13
283.4580864672
 23
37.5838261908
  0
SOLID
  8
0
 62
7
  6
CONTINUOUS
 10
282.9756393321
 20
37.1662999696
 11
283.4948970172
 21
37.7925890313
 12
283.4580864672
 22
37.5838261908
 13
283.4580864672
 23
37.5838261908
  0
SOLID
  8
0
 62
7
  6
CONTINUOUS
 10
283.5050759816
 20
37.2706816874
 11
283.5704754496
 21
37.0619186851
 12
282.9756393321
 22
37.1662999696
 13
282.9756393321
 23
37.1662999696
  0
SOLID
  8
0
 62
7
  6
CONTINUOUS
 10
283.1064288978
 20
36.7487745498
 11
282.9756393321
 21
37.1662999696
 12
283.5704754496
 22
37.0619186851
 13
283.5704754496
 23
37.0619186851
  0
SOLID
  8
0
 62
7
  6
CONTINUOUS
 10
283.5704754496
 20
37.0619186851
 11
283.821880308
 21
36.7487745498
 12
283.1064288978
 22
36.7487745498
 13
283.1064288978
 23
36.7487745498
  0
SOLID
  8
0
 62
7
  6
CONTINUOUS
 10
283.2740336985
 20
36.5400109078
 11
283.1064288978
 21
36.7487745498
 12
283.821880308
 22
36.7487745498
 13
283.821880308
 23
36.7487745498
  0
SOLID
  8
0
 62
7
  6
CONTINUOUS
 10
285.4755944032
 20
36.8531556097
 11
285.6330155801
 21
37.1663002572
 12
286.1440516332
 22
37.1663002572
 13
286.1440516332
 23
37.1663002572
  0
SOLID
  8
0
 62
7
  6
CONTINUOUS
 10
286.1440516332
 20
37.1663002572
 11
285.9682251814
 21
36.7487739284
 12
285.4755944032
 22
36.8531556097
 13
285.4755944032
 23
36.8531556097
  0
SOLID
  8
0
 62
7
  6
CONTINUOUS
 10
285.1321631571
 20
36.6443924181
 11
285.4755944032
 21
36.8531556097
 12
285.9682251814
 22
36.7487739284
 13
285.9682251814
 23
36.7487739284
  0
SOLID
  8
0
 62
7
  6
CONTINUOUS
 10
285.1321631571
 20
36.6443924181
 11
285.9682251814
 21
36.7487739284
 12
284.3983111442
 22
36.5400112926
 13
284.3983111442
 23
36.5400112926
  0
SOLID
  8
0
 62
7
  6
CONTINUOUS
 10
285.9682251814
 20
36.7487739284
 11
285.606388654
 21
36.4356295685
 12
284.3983111442
 22
36.5400112926
 13
284.3983111442
 23
36.5400112926
  0
SOLID
  8
0
 62
7
  6
CONTINUOUS
 10
285.606388654
 20
36.4356295685
 11
283.5438438416
 21
36.3312480491
 12
284.3983111442
 22
36.5400112926
 13
284.3983111442
 23
36.5400112926
  0
SOLID
  8
0
 62
7
  6
CONTINUOUS
 10
283.5438438416
 20
36.3312480491
 11
283.2740336985
 21
36.5400112926
 12
284.3983111442
 22
36.5400112926
 13
284.3983111442
 23
36.5400112926
  0
SOLID
  8
0
 62
7
  6
CONTINUOUS
 10
283.5438438416
 20
36.3312480491
 11
285.606388654
 21
36.4356295685
 12
283.8320592613
 22
36.2268668102
 13
283.8320592613
 23
36.2268668102
  0
SOLID
  8
0
 62
7
  6
CONTINUOUS
 10
285.606388654
 20
36.4356295685
 11
285.1607473852
 21
36.2268668102
 12
283.8320592613
 22
36.2268668102
 13
283.8320592613
 23
36.2268668102
  0
SOLID
  8
0
 62
7
  6
CONTINUOUS
 10
284.4268953771
 20
36.1224850285
 11
283.8320592613
 21
36.2268668102
 12
285.1607473852
 22
36.2268668102
 13
285.1607473852
 23
36.2268668102
  0
SOLID
  8
0
 62
7
  6
CONTINUOUS
 10
284.0078857115
 20
36.6443924181
 11
284.3983111442
 21
36.5400109078
 12
283.821880308
 22
36.7487739284
 13
283.2740336985
 23
36.5400109078
  0
SOLID
  8
0
 62
7
  6
CONTINUOUS
 10
289.1041386164
 20
39.4626933578
 11
289.8011847517
 21
39.3583127246
 12
288.4724919491
 22
39.3583127246
 13
288.4724919491
 23
39.3583127246
  0
SOLID
  8
0
 62
7
  6
CONTINUOUS
 10
288.147465978
 20
39.2539303555
 11
288.4724919491
 21
39.3583127246
 12
289.8011847517
 22
39.3583127246
 13
289.8011847517
 23
39.3583127246
  0
SOLID
  8
0
 62
7
  6
CONTINUOUS
 10
289.8011847517
 20
39.3583127246
 11
290.1732002372
 21
39.1495488544
 12
288.147465978
 22
39.2539303555
 13
288.147465978
 23
39.2539303555
  0
SOLID
  8
0
 62
7
  6
CONTINUOUS
 10
287.8040347319
 20
39.0451681937
 11
288.147465978
 21
39.2539303555
 12
290.1732002372
 22
39.1495488544
 13
290.1732002372
 23
39.1495488544
  0
SOLID
  8
0
 62
7
  6
CONTINUOUS
 10
288.5010808672
 20
38.9407866834
 11
287.5628135037
 21
38.8364051731
 12
288.9283121775
 22
39.0451681937
 13
288.9283121775
 23
39.0451681937
  0
SOLID
  8
0
 62
7
  6
CONTINUOUS
 10
287.5628135037
 20
38.8364051731
 11
287.8040347319
 21
39.0451681937
 12
288.9283121775
 22
39.0451681937
 13
288.9283121775
 23
39.0451681937
  0
SOLID
  8
0
 62
7
  6
CONTINUOUS
 10
288.5010808672
 20
38.9407866834
 11
288.2782602352
 21
38.8364051731
 12
287.5628135037
 22
38.8364051731
 13
287.5628135037
 23
38.8364051731
  0
SOLID
  8
0
 62
7
  6
CONTINUOUS
 10
287.8040347319
 20
39.0451681937
 11
290.1732002372
 21
39.1495488544
 12
288.9283121775
 22
39.0451681937
 13
288.9283121775
 23
39.0451681937
  0
SOLID
  8
0
 62
7
  6
CONTINUOUS
 10
288.9283121775
 20
39.0451681937
 11
290.1732002372
 21
39.1495488544
 12
289.6253536341
 22
38.9407866834
 13
289.6253536341
 23
38.9407866834
  0
SOLID
  8
0
 62
7
  6
CONTINUOUS
 10
290.1732002372
 20
39.1495488544
 11
290.4246051085
 21
38.8364051731
 12
289.6253536341
 22
38.9407866834
 13
289.6253536341
 23
38.9407866834
  0
SOLID
  8
0
 62
7
  6
CONTINUOUS
 10
289.8951637804
 20
38.7320228498
 11
289.6253536341
 21
38.9407866834
 12
290.4246051085
 22
38.8364051731
 13
290.4246051085
 23
38.8364051731
  0
SOLID
  8
0
 62
7
  6
CONTINUOUS
 10
287.9164237142
 20
38.5232598474
 11
287.2847770469
 21
38.418879132
 12
288.2782602352
 22
38.8364051731
 13
288.2782602352
 23
38.8364051731
  0
SOLID
  8
0
 62
7
  6
CONTINUOUS
 10
287.2847770469
 20
38.418879132
 11
287.5628135037
 21
38.8364051731
 12
288.2782602352
 22
38.8364051731
 13
288.2782602352
 23
38.8364051731
  0
SOLID
  8
0
 62
7
  6
CONTINUOUS
 10
289.8951637804
 20
38.7320228498
 11
290.4246051085
 21
38.8364051731
 12
289.9421579734
 22
38.418879132
 13
289.9421579734
 23
38.418879132
  0
SOLID
  8
0
 62
7
  6
CONTINUOUS
 10
290.4246051085
 20
38.8364051731
 11
290.453189348
 21
38.418879132
 12
289.9421579734
 22
38.418879132
 13
289.9421579734
 23
38.418879132
  0
SOLID
  8
0
 62
7
  6
CONTINUOUS
 10
287.9164237142
 20
38.5232598474
 11
287.7774078251
 21
38.3144968451
 12
287.2847770469
 22
38.418879132
 13
287.2847770469
 23
38.418879132
  0
SOLID
  8
0
 62
7
  6
CONTINUOUS
 10
287.6015766817
 20
37.8969706943
 11
287.0721400323
 21
37.7925891932
 12
287.7774078251
 22
38.3144968451
 13
287.7774078251
 23
38.3144968451
  0
SOLID
  8
0
 62
7
  6
CONTINUOUS
 10
287.0721400323
 20
37.7925891932
 11
287.2847770469
 21
38.418879132
 12
287.7774078251
 22
38.3144968451
 13
287.7774078251
 23
38.3144968451
  0
SOLID
  8
0
 62
7
  6
CONTINUOUS
 10
287.6015766817
 20
37.8969706943
 11
287.5463608569
 21
37.5838261908
 12
287.0721400323
 22
37.7925891932
 13
287.0721400323
 23
37.7925891932
  0
SOLID
  8
0
 62
7
  6
CONTINUOUS
 10
287.0639137218
 20
37.1663010085
 11
287.0721400323
 21
37.7925891932
 12
287.5463608569
 22
37.5838261908
 13
287.5463608569
 23
37.5838261908
  0
SOLID
  8
0
 62
7
  6
CONTINUOUS
 10
287.5463608569
 20
37.5838261908
 11
287.6587498392
 21
37.0619186851
 12
287.0639137218
 22
37.1663010085
 13
287.0639137218
 23
37.1663010085
  0
SOLID
  8
0
 62
7
  6
CONTINUOUS
 10
289.5638687928
 20
36.8531556097
 11
289.7212946484
 21
37.1663010085
 12
290.2323260229
 22
37.1663010085
 13
290.2323260229
 23
37.1663010085
  0
SOLID
  8
0
 62
7
  6
CONTINUOUS
 10
287.1947079661
 20
36.7487749673
 11
287.0639137218
 21
37.1663010085
 12
287.6587498392
 22
37.0619186851
 13
287.6587498392
 23
37.0619186851
  0
SOLID
  8
0
 62
7
  6
CONTINUOUS
 10
287.6587498392
 20
37.0619186851
 11
287.9101546977
 21
36.7487749673
 12
287.1947079661
 22
36.7487749673
 13
287.1947079661
 23
36.7487749673
  0
SOLID
  8
0
 62
7
  6
CONTINUOUS
 10
290.2323260229
 20
37.1663010085
 11
290.0564995711
 21
36.7487749673
 12
289.5638687928
 22
36.8531556097
 13
289.5638687928
 23
36.8531556097
  0
SOLID
  8
0
 62
7
  6
CONTINUOUS
 10
289.2204375467
 20
36.6443926073
 11
289.5638687928
 21
36.8531556097
 12
290.0564995711
 22
36.7487749673
 13
290.0564995711
 23
36.7487749673
  0
SOLID
  8
0
 62
7
  6
CONTINUOUS
 10
287.3623080882
 20
36.5400119467
 11
287.1947079661
 21
36.7487749673
 12
287.9101546977
 22
36.7487749673
 13
287.9101546977
 23
36.7487749673
  0
SOLID
  8
0
 62
7
  6
CONTINUOUS
 10
287.9101546977
 20
36.7487749673
 11
288.4865855338
 21
36.5400119467
 12
287.3623080882
 22
36.5400119467
 13
287.3623080882
 23
36.5400119467
  0
SOLID
  8
0
 62
7
  6
CONTINUOUS
 10
289.2204375467
 20
36.6443926073
 11
290.0564995711
 21
36.7487749673
 12
288.4865855338
 22
36.5400119467
 13
288.4865855338
 23
36.5400119467
  0
SOLID
  8
0
 62
7
  6
CONTINUOUS
 10
290.0564995711
 20
36.7487749673
 11
289.6946630436
 21
36.4356295685
 12
288.4865855338
 22
36.5400119467
 13
288.4865855338
 23
36.5400119467
  0
SOLID
  8
0
 62
7
  6
CONTINUOUS
 10
289.6946630436
 20
36.4356295685
 11
287.6321182313
 21
36.3312480491
 12
288.4865855338
 22
36.5400119467
 13
288.4865855338
 23
36.5400119467
  0
SOLID
  8
0
 62
7
  6
CONTINUOUS
 10
287.6321182313
 20
36.3312480491
 11
287.3623080882
 21
36.5400119467
 12
288.4865855338
 22
36.5400119467
 13
288.4865855338
 23
36.5400119467
  0
SOLID
  8
0
 62
7
  6
CONTINUOUS
 10
287.6321182313
 20
36.3312480491
 11
289.6946630436
 21
36.4356295685
 12
287.9203336509
 22
36.2268674158
 13
287.9203336509
 23
36.2268674158
  0
SOLID
  8
0
 62
7
  6
CONTINUOUS
 10
289.6946630436
 20
36.4356295685
 11
289.2490264535
 21
36.2268674158
 12
287.9203336509
 22
36.2268674158
 13
287.9203336509
 23
36.2268674158
  0
SOLID
  8
0
 62
7
  6
CONTINUOUS
 10
288.5151697668
 20
36.1224850285
 11
287.9203336509
 21
36.2268674158
 12
289.2490264535
 22
36.2268674158
 13
289.2490264535
 23
36.2268674158
  0
SOLID
  8
0
 62
7
  6
CONTINUOUS
 10
292.4585609996
 20
39.3583133444
 11
292.8857969885
 21
39.4626919353
 12
293.2946230239
 22
39.4626919353
 13
293.2946230239
 23
39.4626919353
  0
SOLID
  8
0
 62
7
  6
CONTINUOUS
 10
293.2946230239
 20
39.4626919353
 11
293.5828384452
 21
39.3583133444
 12
292.4585609996
 22
39.3583133444
 13
292.4585609996
 23
39.3583133444
  0
SOLID
  8
0
 62
7
  6
CONTINUOUS
 10
292.1151297535
 20
39.1495512566
 11
292.4585609996
 21
39.3583133444
 12
293.5828384452
 22
39.3583133444
 13
293.5828384452
 23
39.3583133444
  0
SOLID
  8
0
 62
7
  6
CONTINUOUS
 10
293.5828384452
 20
39.3583133444
 11
293.8526485915
 21
39.1495512566
 12
292.1151297535
 22
39.1495512566
 13
292.1151297535
 23
39.1495512566
  0
SOLID
  8
0
 62
7
  6
CONTINUOUS
 10
293.8526485915
 20
39.1495512566
 11
292.8121758888
 21
39.0451673532
 12
292.1151297535
 22
39.1495512566
 13
292.1151297535
 23
39.1495512566
  0
SOLID
  8
0
 62
7
  6
CONTINUOUS
 10
291.8739085253
 20
38.940784263
 11
292.1151297535
 21
39.1495512566
 12
292.8121758888
 22
39.0451673532
 13
292.8121758888
 23
39.0451673532
  0
SOLID
  8
0
 62
7
  6
CONTINUOUS
 10
292.8121758888
 20
39.0451673532
 11
292.3849398998
 21
38.940784263
 12
291.8739085253
 22
38.940784263
 13
291.8739085253
 23
38.940784263
  0
SOLID
  8
0
 62
7
  6
CONTINUOUS
 10
292.8121758888
 20
39.0451673532
 11
293.8526485915
 21
39.1495512566
 12
293.2025966492
 22
38.940784263
 13
293.2025966492
 23
38.940784263
  0
SOLID
  8
0
 62
7
  6
CONTINUOUS
 10
293.8526485915
 20
39.1495512566
 11
294.0202533986
 21
38.940784263
 12
293.2025966492
 22
38.940784263
 13
293.2025966492
 23
38.940784263
  0
SOLID
  8
0
 62
7
  6
CONTINUOUS
 10
293.3886067313
 20
38.8364043509
 11
293.2025966492
 21
38.940784263
 12
294.0202533986
 22
38.940784263
 13
294.0202533986
 23
38.940784263
  0
SOLID
  8
0
 62
7
  6
CONTINUOUS
 10
294.0202533986
 20
38.940784263
 11
294.0856481879
 21
38.7320221752
 12
293.3886067313
 22
38.8364043509
 13
293.3886067313
 23
38.8364043509
  0
SOLID
  8
0
 62
7
  6
CONTINUOUS
 10
293.5562068598
 20
38.6276413486
 11
293.3886067313
 21
38.8364043509
 12
294.0856481879
 22
38.7320221752
 13
294.0856481879
 23
38.7320221752
  0
SOLID
  8
0
 62
7
  6
CONTINUOUS
 10
293.5562068598
 20
38.6276413486
 11
294.0856481879
 21
38.7320221752
 12
293.5847957779
 22
38.2101145028
 13
293.5847957779
 23
38.2101145028
  0
SOLID
  8
0
 62
7
  6
CONTINUOUS
 10
294.0856481879
 20
38.7320221752
 11
294.0958271524
 21
38.2101145028
 12
293.5847957779
 22
38.2101145028
 13
293.5847957779
 23
38.2101145028
  0
SOLID
  8
0
 62
7
  6
CONTINUOUS
 10
292.3849398998
 20
38.940784263
 11
292.0415086537
 21
38.7320221752
 12
291.8739085253
 22
38.940784263
 13
291.8739085253
 23
38.940784263
  0
SOLID
  8
0
 62
7
  6
CONTINUOUS
 10
292.0415086537
 20
38.7320221752
 11
291.8002874255
 21
38.5232598474
 12
291.8739085253
 22
38.940784263
 13
291.8739085253
 23
38.940784263
  0
SOLID
  8
0
 62
7
  6
CONTINUOUS
 10
291.8002874255
 20
38.5232598474
 11
290.8659299971
 21
36.1224838134
 12
291.8739085253
 22
38.940784263
 13
291.8739085253
 23
38.940784263
  0
SOLID
  8
0
 62
7
  6
CONTINUOUS
 10
291.8739085253
 20
38.940784263
 11
290.8659299971
 21
36.1224838134
 12
292.2420140756
 22
41.0284149524
 13
292.2420140756
 23
41.0284149524
  0
SOLID
  8
0
 62
7
  6
CONTINUOUS
 10
290.8659299971
 20
36.1224838134
 11
291.7309780224
 21
41.0284149524
 12
292.2420140756
 22
41.0284149524
 13
292.2420140756
 23
41.0284149524
  0
SOLID
  8
0
 62
7
  6
CONTINUOUS
 10
291.8002874255
 20
38.5232598474
 11
291.3769660504
 21
36.1224838134
 12
290.8659299971
 22
36.1224838134
 13
290.8659299971
 23
36.1224838134
  0
SOLID
  8
0
 62
7
  6
CONTINUOUS
 10
293.2166902275
 20
36.1224838134
 11
293.5847957779
 21
38.2101145028
 12
294.0958271524
 22
38.2101145028
 13
294.0958271524
 23
38.2101145028
  0
SOLID
  8
0
 62
7
  6
CONTINUOUS
 10
294.0958271524
 20
38.2101145028
 11
293.727721602
 21
36.1224838134
 12
293.2166902275
 22
36.1224838134
 13
293.2166902275
 23
36.1224838134
  0
SOLID
  8
0
 62
7
  6
CONTINUOUS
 10
263.1678596614
 20
36.1224850285
 11
264.0329076867
 21
41.0284161675
 12
263.6788957145
 22
36.1224850285
 13
264.5439437399
 23
41.0284161675
  0
SOLID
  8
0
 62
7
  6
CONTINUOUS
 10
260.1611825603
 20
39.3583118896
 11
260.8950369061
 21
39.4626942349
 12
261.5082782985
 22
39.4626942349
 13
261.5082782985
 23
39.4626942349
  0
SOLID
  8
0
 62
7
  6
CONTINUOUS
 10
261.5082782985
 20
39.4626942349
 11
262.103114416
 21
39.3583118896
 12
260.1611825603
 22
39.3583118896
 13
260.1611825603
 23
39.3583118896
  0
SOLID
  8
0
 62
7
  6
CONTINUOUS
 10
259.9383642677
 20
39.2539303555
 11
260.1611825603
 21
39.3583118896
 12
262.103114416
 22
39.3583118896
 13
262.103114416
 23
39.3583118896
  0
SOLID
  8
0
 62
7
  6
CONTINUOUS
 10
262.103114416
 20
39.3583118896
 11
262.3729245622
 21
39.1495488544
 12
259.9383642677
 22
39.2539303555
 13
259.9383642677
 23
39.2539303555
  0
SOLID
  8
0
 62
7
  6
CONTINUOUS
 10
259.6971383608
 20
39.0451673587
 11
259.9383642677
 21
39.2539303555
 12
262.3729245622
 22
39.1495488544
 13
262.3729245622
 23
39.1495488544
  0
SOLID
  8
0
 62
7
  6
CONTINUOUS
 10
259.6971383608
 20
39.0451673587
 11
262.3729245622
 21
39.1495488544
 12
260.8214158064
 22
39.0451673587
 13
260.8214158064
 23
39.0451673587
  0
SOLID
  8
0
 62
7
  6
CONTINUOUS
 10
260.8214158064
 20
39.0451673587
 11
262.3729245622
 21
39.1495488544
 12
261.4346571988
 22
39.0451673587
 13
261.4346571988
 23
39.0451673587
  0
SOLID
  8
0
 62
7
  6
CONTINUOUS
 10
261.4346571988
 20
39.0451673587
 11
262.3729245622
 21
39.1495488544
 12
261.8250779592
 22
38.9407850133
 13
261.8250779592
 23
38.9407850133
  0
SOLID
  8
0
 62
7
  6
CONTINUOUS
 10
262.3729245622
 20
39.1495488544
 11
262.5405270301
 21
38.9407850133
 12
261.8250779592
 22
38.9407850133
 13
261.8250779592
 23
38.9407850133
  0
SOLID
  8
0
 62
7
  6
CONTINUOUS
 10
259.5581224717
 20
38.8364051731
 11
259.6971383608
 21
39.0451673587
 12
260.8214158064
 22
39.0451673587
 13
260.8214158064
 23
39.0451673587
  0
SOLID
  8
0
 62
7
  6
CONTINUOUS
 10
262.0110880412
 20
38.8364051731
 11
261.8250779592
 21
38.9407850133
 12
262.5405270301
 22
38.9407850133
 13
262.5405270301
 23
38.9407850133
  0
SOLID
  8
0
 62
7
  6
CONTINUOUS
 10
262.0110880412
 20
38.8364051731
 11
262.5405270301
 21
38.9407850133
 12
262.0764828305
 22
38.6276404825
 13
262.0764828305
 23
38.6276404825
  0
SOLID
  8
0
 62
7
  6
CONTINUOUS
 10
262.5405270301
 20
38.9407850133
 11
262.5875188837
 21
38.6276404825
 12
262.0764828305
 22
38.6276404825
 13
262.0764828305
 23
38.6276404825
  0
SOLID
  8
0
 62
7
  6
CONTINUOUS
 10
262.0212670057
 20
38.3144965828
 11
262.0764828305
 21
38.6276404825
 12
262.5875188837
 22
38.6276404825
 13
262.5875188837
 23
38.6276404825
  0
SOLID
  8
0
 62
7
  6
CONTINUOUS
 10
262.0212670057
 20
38.3144965828
 11
262.5875188837
 21
38.6276404825
 12
261.9476458802
 22
37.8969705416
 13
261.9476458802
 23
37.8969705416
  0
SOLID
  8
0
 62
7
  6
CONTINUOUS
 10
261.9476458802
 20
37.8969705416
 11
262.5875188837
 21
38.6276404825
 12
261.8372142305
 22
37.2706816874
 13
261.8372142305
 23
37.2706816874
  0
SOLID
  8
0
 62
7
  6
CONTINUOUS
 10
262.5875188837
 20
38.6276404825
 11
262.2930344461
 21
36.957536949
 12
261.8372142305
 22
37.2706816874
 13
261.8372142305
 23
37.2706816874
  0
SOLID
  8
0
 62
7
  6
CONTINUOUS
 10
259.5581224717
 20
38.8364043381
 11
260.8214158064
 21
39.0451671548
 12
260.3941821567
 22
38.9407856445
 13
260.3941821567
 23
38.9407856445
  0
SOLID
  8
0
 62
7
  6
CONTINUOUS
 10
260.3941821567
 20
38.9407856445
 11
260.1713638641
 21
38.8364043381
 12
259.5581224717
 22
38.8364043381
 13
259.5581224717
 23
38.8364043381
  0
SOLID
  8
0
 62
7
  6
CONTINUOUS
 10
259.5213119218
 20
38.6276413175
 11
259.5581224717
 21
38.8364043381
 12
260.1713638641
 22
38.8364043381
 13
260.1713638641
 23
38.8364043381
  0
SOLID
  8
0
 62
7
  6
CONTINUOUS
 10
260.1713638641
 20
38.8364043381
 11
260.0323456357
 21
38.6276413175
 12
259.5213119218
 22
38.6276413175
 13
259.5213119218
 23
38.6276413175
  0
SOLID
  8
0
 62
7
  6
CONTINUOUS
 10
260.2653452321
 20
38.210115344
 11
260.8969918995
 21
38.3144967866
 12
262.0212670057
 22
38.3144967866
 13
262.0212670057
 23
38.3144967866
  0
SOLID
  8
0
 62
7
  6
CONTINUOUS
 10
260.2653452321
 20
38.210115344
 11
262.0212670057
 21
38.3144967866
 12
259.8197063076
 22
38.0013523417
 13
259.8197063076
 23
38.0013523417
  0
SOLID
  8
0
 62
7
  6
CONTINUOUS
 10
259.8197063076
 20
38.0013523417
 11
262.0212670057
 21
38.3144967866
 12
260.8233707739
 22
37.8969707455
 13
260.8233707739
 23
37.8969707455
  0
SOLID
  8
0
 62
7
  6
CONTINUOUS
 10
262.0212670057
 20
38.3144967866
 11
261.9476458802
 21
37.8969707455
 12
260.8233707739
 22
37.8969707455
 13
260.8233707739
 23
37.8969707455
  0
SOLID
  8
0
 62
7
  6
CONTINUOUS
 10
259.5784827142
 20
37.7925891126
 11
259.8197063076
 21
38.0013523417
 12
260.8233707739
 22
37.8969705416
 13
260.8233707739
 23
37.8969705416
  0
SOLID
  8
0
 62
7
  6
CONTINUOUS
 10
260.8233707739
 20
37.8969705416
 11
260.3961371243
 21
37.7925891126
 12
259.5784827142
 22
37.7925891126
 13
259.5784827142
 23
37.7925891126
  0
SOLID
  8
0
 62
7
  6
CONTINUOUS
 10
259.3004485967
 20
37.3750631886
 11
259.5784827142
 21
37.7925891126
 12
260.3961371243
 22
37.7925891126
 13
260.3961371243
 23
37.7925891126
  0
SOLID
  8
0
 62
7
  6
CONTINUOUS
 10
259.9320952641
 20
37.4794446897
 11
259.3004485967
 21
37.3750631886
 12
260.1733188316
 22
37.688207692
 13
260.1733188316
 23
37.688207692
  0
SOLID
  8
0
 62
7
  6
CONTINUOUS
 10
259.3004485967
 20
37.3750631886
 11
260.3961371243
 21
37.7925890313
 12
260.1733188316
 22
37.688207692
 13
260.1733188316
 23
37.688207692
  0
SOLID
  8
0
 62
7
  6
CONTINUOUS
 10
259.9320952641
 20
37.4794446897
 11
259.7746717608
 21
37.1663001862
 12
259.3004485967
 22
37.3750631886
 13
259.3004485967
 23
37.3750631886
  0
SOLID
  8
0
 62
7
  6
CONTINUOUS
 10
259.2452327719
 20
37.0619184593
 11
259.3004485967
 21
37.3750631886
 12
259.7746717608
 22
37.1663001862
 13
259.7746717608
 23
37.1663001862
  0
SOLID
  8
0
 62
7
  6
CONTINUOUS
 10
259.7746717608
 20
37.1663001862
 11
259.737861198
 21
36.957536949
 12
259.2452327719
 22
37.0619184593
 13
259.2452327719
 23
37.0619184593
  0
SOLID
  8
0
 62
7
  6
CONTINUOUS
 10
259.2738169984
 20
36.6443924181
 11
259.2452327719
 21
37.0619184593
 12
259.737861198
 22
36.957536949
 13
259.737861198
 23
36.957536949
  0
SOLID
  8
0
 62
7
  6
CONTINUOUS
 10
261.8372142305
 20
37.2706816874
 11
262.2930344461
 21
36.957536949
 12
261.6981983415
 22
37.0619184593
 13
261.6981983415
 23
37.0619184593
  0
SOLID
  8
0
 62
7
  6
CONTINUOUS
 10
261.3363618075
 20
36.7487739284
 11
261.6981983415
 21
37.0619184593
 12
262.2930344461
 22
36.957536949
 13
262.2930344461
 23
36.957536949
  0
SOLID
  8
0
 62
7
  6
CONTINUOUS
 10
261.3363618075
 20
36.7487739284
 11
262.2930344461
 21
36.957536949
 12
261.726782568
 22
36.6443924181
 13
261.726782568
 23
36.6443924181
  0
SOLID
  8
0
 62
7
  6
CONTINUOUS
 10
262.2930344461
 20
36.957536949
 11
262.3032134041
 21
36.4356293975
 12
261.726782568
 22
36.6443924181
 13
261.726782568
 23
36.6443924181
  0
SOLID
  8
0
 62
7
  6
CONTINUOUS
 10
261.773774412
 20
36.3312478872
 11
261.726782568
 21
36.6443924181
 12
262.3032134041
 22
36.4356293975
 13
262.3032134041
 23
36.4356293975
  0
SOLID
  8
0
 62
7
  6
CONTINUOUS
 10
261.773774412
 20
36.3312478872
 11
262.3032134041
 21
36.4356293975
 12
261.8391715374
 22
36.1224843968
 13
261.8391715374
 23
36.1224843968
  0
SOLID
  8
0
 62
7
  6
CONTINUOUS
 10
262.3032134041
 20
36.4356293975
 11
262.3502052513
 21
36.1224843968
 12
261.8391715374
 22
36.1224843968
 13
261.8391715374
 23
36.1224843968
  0
SOLID
  8
0
 62
7
  6
CONTINUOUS
 10
259.2738169984
 20
36.6443924181
 11
259.737861198
 21
36.957536949
 12
259.8032583266
 22
36.7487739284
 13
259.8032583266
 23
36.7487739284
  0
SOLID
  8
0
 62
7
  6
CONTINUOUS
 10
259.8032583266
 20
36.7487739284
 11
260.1752738056
 21
36.5400109078
 12
259.2738169984
 22
36.6443924181
 13
259.2738169984
 23
36.6443924181
  0
SOLID
  8
0
 62
7
  6
CONTINUOUS
 10
259.5252218602
 20
36.3312478872
 11
259.2738169984
 21
36.6443924181
 12
260.1752738056
 22
36.5400109078
 13
260.1752738056
 23
36.5400109078
  0
SOLID
  8
0
 62
7
  6
CONTINUOUS
 10
260.788515198
 20
36.5400111117
 11
261.3363618075
 21
36.7487739284
 12
261.726782568
 22
36.6443924181
 13
261.726782568
 23
36.6443924181
  0
SOLID
  8
0
 62
7
  6
CONTINUOUS
 10
261.726782568
 20
36.6443924181
 11
261.5877666725
 21
36.4356293975
 12
260.788515198
 22
36.5400111117
 13
260.788515198
 23
36.5400111117
  0
SOLID
  8
0
 62
7
  6
CONTINUOUS
 10
261.5877666725
 20
36.4356293975
 11
259.5252218602
 21
36.3312478872
 12
260.788515198
 22
36.5400111117
 13
260.788515198
 23
36.5400111117
  0
SOLID
  8
0
 62
7
  6
CONTINUOUS
 10
259.5252218602
 20
36.3312478872
 11
260.1752738056
 21
36.5400111117
 12
260.788515198
 22
36.5400111117
 13
260.788515198
 23
36.5400111117
  0
SOLID
  8
0
 62
7
  6
CONTINUOUS
 10
259.5252218602
 20
36.3312478872
 11
261.5877666725
 21
36.4356293975
 12
259.7112319406
 22
36.2268665808
 13
259.7112319406
 23
36.2268665808
  0
SOLID
  8
0
 62
7
  6
CONTINUOUS
 10
261.5877666725
 20
36.4356293975
 11
261.2443354216
 21
36.2268665808
 12
259.7112319406
 22
36.2268665808
 13
259.7112319406
 23
36.2268665808
  0
SOLID
  8
0
 62
7
  6
CONTINUOUS
 10
260.1016526994
 20
36.1224848617
 11
259.7112319406
 21
36.2268665808
 12
261.2443354216
 22
36.2268665808
 13
261.2443354216
 23
36.2268665808
  0
SOLID
  8
0
 62
7
  6
CONTINUOUS
 10
261.2443354216
 20
36.2268665808
 11
260.7148940918
 21
36.1224848617
 12
260.1016526994
 22
36.1224848617
 13
260.1016526994
 23
36.1224848617
  0
SOLID
  8
0
 62
7
  6
CONTINUOUS
 10
256.0729058313
 20
39.3583118896
 11
256.8067601771
 21
39.4626942349
 12
257.4200015695
 22
39.4626942349
 13
257.4200015695
 23
39.4626942349
  0
SOLID
  8
0
 62
7
  6
CONTINUOUS
 10
257.4200015695
 20
39.4626942349
 11
258.014837687
 21
39.3583118896
 12
256.0729058313
 22
39.3583118896
 13
256.0729058313
 23
39.3583118896
  0
SOLID
  8
0
 62
7
  6
CONTINUOUS
 10
255.8500875387
 20
39.2539303555
 11
256.0729058313
 21
39.3583118896
 12
258.014837687
 22
39.3583118896
 13
258.014837687
 23
39.3583118896
  0
SOLID
  8
0
 62
7
  6
CONTINUOUS
 10
258.014837687
 20
39.3583118896
 11
258.2846478332
 21
39.1495488544
 12
255.8500875387
 22
39.2539303555
 13
255.8500875387
 23
39.2539303555
  0
SOLID
  8
0
 62
7
  6
CONTINUOUS
 10
255.6088639711
 20
39.0451673587
 11
255.8500875387
 21
39.2539303555
 12
258.2846478332
 22
39.1495488544
 13
258.2846478332
 23
39.1495488544
  0
SOLID
  8
0
 62
7
  6
CONTINUOUS
 10
255.6088639711
 20
39.0451673587
 11
258.2846478332
 21
39.1495488544
 12
256.7331390774
 22
39.0451673587
 13
256.7331390774
 23
39.0451673587
  0
SOLID
  8
0
 62
7
  6
CONTINUOUS
 10
256.7331390774
 20
39.0451673587
 11
258.2846478332
 21
39.1495488544
 12
257.3463804698
 22
39.0451673587
 13
257.3463804698
 23
39.0451673587
  0
SOLID
  8
0
 62
7
  6
CONTINUOUS
 10
257.3463804698
 20
39.0451673587
 11
258.2846478332
 21
39.1495488544
 12
257.7368035695
 22
38.9407850133
 13
257.7368035695
 23
38.9407850133
  0
SOLID
  8
0
 62
7
  6
CONTINUOUS
 10
258.2846478332
 20
39.1495488544
 11
258.4522503011
 21
38.9407850133
 12
257.7368035695
 22
38.9407850133
 13
257.7368035695
 23
38.9407850133
  0
SOLID
  8
0
 62
7
  6
CONTINUOUS
 10
255.4698457427
 20
38.8364051731
 11
255.6088639711
 21
39.0451673587
 12
256.7331390774
 22
39.0451673587
 13
256.7331390774
 23
39.0451673587
  0
SOLID
  8
0
 62
7
  6
CONTINUOUS
 10
257.9228113122
 20
38.8364051731
 11
257.7368035695
 21
38.9407850133
 12
258.4522503011
 22
38.9407850133
 13
258.4522503011
 23
38.9407850133
  0
SOLID
  8
0
 62
7
  6
CONTINUOUS
 10
257.9228113122
 20
38.8364051731
 11
258.4522503011
 21
38.9407850133
 12
257.9882084409
 22
38.6276404825
 13
257.9882084409
 23
38.6276404825
  0
SOLID
  8
0
 62
7
  6
CONTINUOUS
 10
258.4522503011
 20
38.9407850133
 11
258.4992421547
 21
38.6276404825
 12
257.9882084409
 22
38.6276404825
 13
257.9882084409
 23
38.6276404825
  0
SOLID
  8
0
 62
7
  6
CONTINUOUS
 10
257.932992616
 20
38.3144965828
 11
257.9882084409
 21
38.6276404825
 12
258.4992421547
 22
38.6276404825
 13
258.4992421547
 23
38.6276404825
  0
SOLID
  8
0
 62
7
  6
CONTINUOUS
 10
257.932992616
 20
38.3144965828
 11
258.4992421547
 21
38.6276404825
 12
257.8593714905
 22
37.8969705416
 13
257.8593714905
 23
37.8969705416
  0
SOLID
  8
0
 62
7
  6
CONTINUOUS
 10
257.8593714905
 20
37.8969705416
 11
258.4992421547
 21
38.6276404825
 12
257.7489398409
 22
37.2706816874
 13
257.7489398409
 23
37.2706816874
  0
SOLID
  8
0
 62
7
  6
CONTINUOUS
 10
258.4992421547
 20
38.6276404825
 11
258.2047577171
 21
36.957536949
 12
257.7489398409
 22
37.2706816874
 13
257.7489398409
 23
37.2706816874
  0
SOLID
  8
0
 62
7
  6
CONTINUOUS
 10
255.4698457427
 20
38.8364043381
 11
256.7331390774
 21
39.0451671548
 12
256.3059054277
 22
38.9407856445
 13
256.3059054277
 23
38.9407856445
  0
SOLID
  8
0
 62
7
  6
CONTINUOUS
 10
256.3059054277
 20
38.9407856445
 11
256.0830871351
 21
38.8364043381
 12
255.4698457427
 22
38.8364043381
 13
255.4698457427
 23
38.8364043381
  0
SOLID
  8
0
 62
7
  6
CONTINUOUS
 10
255.4330351928
 20
38.6276413175
 11
255.4698457427
 21
38.8364043381
 12
256.0830871351
 22
38.8364043381
 13
256.0830871351
 23
38.8364043381
  0
SOLID
  8
0
 62
7
  6
CONTINUOUS
 10
256.0830871351
 20
38.8364043381
 11
255.9440689067
 21
38.6276413175
 12
255.4330351928
 22
38.6276413175
 13
255.4330351928
 23
38.6276413175
  0
SOLID
  8
0
 62
7
  6
CONTINUOUS
 10
256.1770685031
 20
38.210115344
 11
256.8087151705
 21
38.3144967866
 12
257.932992616
 22
38.3144967866
 13
257.932992616
 23
38.3144967866
  0
SOLID
  8
0
 62
7
  6
CONTINUOUS
 10
256.1770685031
 20
38.210115344
 11
257.932992616
 21
38.3144967866
 12
255.7314319179
 22
38.0013523417
 13
255.7314319179
 23
38.0013523417
  0
SOLID
  8
0
 62
7
  6
CONTINUOUS
 10
255.7314319179
 20
38.0013523417
 11
257.932992616
 21
38.3144967866
 12
256.7350940449
 22
37.8969707455
 13
256.7350940449
 23
37.8969707455
  0
SOLID
  8
0
 62
7
  6
CONTINUOUS
 10
257.932992616
 20
38.3144967866
 11
257.8593714905
 21
37.8969707455
 12
256.7350940449
 22
37.8969707455
 13
256.7350940449
 23
37.8969707455
  0
SOLID
  8
0
 62
7
  6
CONTINUOUS
 10
255.4902059852
 20
37.7925891126
 11
255.7314319179
 21
38.0013523417
 12
256.7350940449
 22
37.8969705416
 13
256.7350940449
 23
37.8969705416
  0
SOLID
  8
0
 62
7
  6
CONTINUOUS
 10
256.7350940449
 20
37.8969705416
 11
256.3078627346
 21
37.7925891126
 12
255.4902059852
 22
37.7925891126
 13
255.4902059852
 23
37.7925891126
  0
SOLID
  8
0
 62
7
  6
CONTINUOUS
 10
255.2121718678
 20
37.3750631886
 11
255.4902059852
 21
37.7925891126
 12
256.3078627346
 22
37.7925891126
 13
256.3078627346
 23
37.7925891126
  0
SOLID
  8
0
 62
7
  6
CONTINUOUS
 10
255.8438185351
 20
37.4794446897
 11
255.2121718678
 21
37.3750631886
 12
256.0850421027
 22
37.688207692
 13
256.0850421027
 23
37.688207692
  0
SOLID
  8
0
 62
7
  6
CONTINUOUS
 10
255.2121718678
 20
37.3750631886
 11
256.3078627346
 21
37.7925890313
 12
256.0850421027
 22
37.688207692
 13
256.0850421027
 23
37.688207692
  0
SOLID
  8
0
 62
7
  6
CONTINUOUS
 10
255.8438185351
 20
37.4794446897
 11
255.6863950318
 21
37.1663001862
 12
255.2121718678
 22
37.3750631886
 13
255.2121718678
 23
37.3750631886
  0
SOLID
  8
0
 62
7
  6
CONTINUOUS
 10
255.1569560429
 20
37.0619184593
 11
255.2121718678
 21
37.3750631886
 12
255.6863950318
 22
37.1663001862
 13
255.6863950318
 23
37.1663001862
  0
SOLID
  8
0
 62
7
  6
CONTINUOUS
 10
255.6863950318
 20
37.1663001862
 11
255.649584469
 21
36.957536949
 12
255.1569560429
 22
37.0619184593
 13
255.1569560429
 23
37.0619184593
  0
SOLID
  8
0
 62
7
  6
CONTINUOUS
 10
255.1855426088
 20
36.6443924181
 11
255.1569560429
 21
37.0619184593
 12
255.649584469
 22
36.957536949
 13
255.649584469
 23
36.957536949
  0
SOLID
  8
0
 62
7
  6
CONTINUOUS
 10
257.7489398409
 20
37.2706816874
 11
258.2047577171
 21
36.957536949
 12
257.6099216125
 22
37.0619184593
 13
257.6099216125
 23
37.0619184593
  0
SOLID
  8
0
 62
7
  6
CONTINUOUS
 10
257.2480850786
 20
36.7487739284
 11
257.6099216125
 21
37.0619184593
 12
258.2047577171
 22
36.957536949
 13
258.2047577171
 23
36.957536949
  0
SOLID
  8
0
 62
7
  6
CONTINUOUS
 10
257.2480850786
 20
36.7487739284
 11
258.2047577171
 21
36.957536949
 12
257.6385081784
 22
36.6443924181
 13
257.6385081784
 23
36.6443924181
  0
SOLID
  8
0
 62
7
  6
CONTINUOUS
 10
258.2047577171
 20
36.957536949
 11
258.2149390144
 21
36.4356293975
 12
257.6385081784
 22
36.6443924181
 13
257.6385081784
 23
36.6443924181
  0
SOLID
  8
0
 62
7
  6
CONTINUOUS
 10
257.685497683
 20
36.3312478872
 11
257.6385081784
 21
36.6443924181
 12
258.2149390144
 22
36.4356293975
 13
258.2149390144
 23
36.4356293975
  0
SOLID
  8
0
 62
7
  6
CONTINUOUS
 10
257.685497683
 20
36.3312478872
 11
258.2149390144
 21
36.4356293975
 12
257.7508948084
 22
36.1224843968
 13
257.7508948084
 23
36.1224843968
  0
SOLID
  8
0
 62
7
  6
CONTINUOUS
 10
258.2149390144
 20
36.4356293975
 11
258.2619285223
 21
36.1224843968
 12
257.7508948084
 22
36.1224843968
 13
257.7508948084
 23
36.1224843968
  0
SOLID
  8
0
 62
7
  6
CONTINUOUS
 10
255.1855426088
 20
36.6443924181
 11
255.649584469
 21
36.957536949
 12
255.7149815976
 22
36.7487739284
 13
255.7149815976
 23
36.7487739284
  0
SOLID
  8
0
 62
7
  6
CONTINUOUS
 10
255.7149815976
 20
36.7487739284
 11
256.086999416
 21
36.5400109078
 12
255.1855426088
 22
36.6443924181
 13
255.1855426088
 23
36.6443924181
  0
SOLID
  8
0
 62
7
  6
CONTINUOUS
 10
255.4369474705
 20
36.3312478872
 11
255.1855426088
 21
36.6443924181
 12
256.086999416
 22
36.5400109078
 13
256.086999416
 23
36.5400109078
  0
SOLID
  8
0
 62
7
  6
CONTINUOUS
 10
256.7002408084
 20
36.5400111117
 11
257.2480850786
 21
36.7487739284
 12
257.6385081784
 22
36.6443924181
 13
257.6385081784
 23
36.6443924181
  0
SOLID
  8
0
 62
7
  6
CONTINUOUS
 10
257.6385081784
 20
36.6443924181
 11
257.4994899435
 21
36.4356293975
 12
256.7002408084
 22
36.5400111117
 13
256.7002408084
 23
36.5400111117
  0
SOLID
  8
0
 62
7
  6
CONTINUOUS
 10
257.4994899435
 20
36.4356293975
 11
255.4369474705
 21
36.3312478872
 12
256.7002408084
 22
36.5400111117
 13
256.7002408084
 23
36.5400111117
  0
SOLID
  8
0
 62
7
  6
CONTINUOUS
 10
255.4369474705
 20
36.3312478872
 11
256.086999416
 21
36.5400111117
 12
256.7002408084
 22
36.5400111117
 13
256.7002408084
 23
36.5400111117
  0
SOLID
  8
0
 62
7
  6
CONTINUOUS
 10
255.4369474705
 20
36.3312478872
 11
257.4994899435
 21
36.4356293975
 12
255.6229552116
 22
36.2268665808
 13
255.6229552116
 23
36.2268665808
  0
SOLID
  8
0
 62
7
  6
CONTINUOUS
 10
257.4994899435
 20
36.4356293975
 11
257.1560586926
 21
36.2268665808
 12
255.6229552116
 22
36.2268665808
 13
255.6229552116
 23
36.2268665808
  0
SOLID
  8
0
 62
7
  6
CONTINUOUS
 10
256.0133783098
 20
36.1224848617
 11
255.6229552116
 21
36.2268665808
 12
257.1560586926
 22
36.2268665808
 13
257.1560586926
 23
36.2268665808
  0
SOLID
  8
0
 62
7
  6
CONTINUOUS
 10
257.1560586926
 20
36.2268665808
 11
256.6266197021
 21
36.1224848617
 12
256.0133783098
 22
36.1224848617
 13
256.0133783098
 23
36.1224848617
  0
SOLID
  8
0
 62
7
  6
CONTINUOUS
 10
254.2331828238
 20
39.3583118566
 11
254.7626229823
 21
39.4626942349
 12
253.9081568526
 22
39.2539303555
 13
253.9081568526
 23
39.2539303555
  0
SOLID
  8
0
 62
7
  6
CONTINUOUS
 10
253.9081568526
 20
39.2539303555
 11
254.7626229823
 21
39.4626942349
 12
253.5647256066
 22
39.0451673532
 13
253.5647256066
 23
39.0451673532
  0
SOLID
  8
0
 62
7
  6
CONTINUOUS
 10
254.7626229823
 20
39.4626942349
 11
254.6705966076
 21
38.940785852
 12
253.5647256066
 22
39.0451673532
 13
253.5647256066
 23
39.0451673532
  0
SOLID
  8
0
 62
7
  6
CONTINUOUS
 10
253.3235008693
 20
38.8364051731
 11
253.5647256066
 21
39.0451673532
 12
254.6705966076
 22
38.940785852
 13
254.6705966076
 23
38.940785852
  0
SOLID
  8
0
 62
7
  6
CONTINUOUS
 10
254.6705966076
 20
38.940785852
 11
254.0389487706
 21
38.8364051731
 12
253.3235008693
 22
38.8364051731
 13
253.3235008693
 23
38.8364051731
  0
SOLID
  8
0
 62
7
  6
CONTINUOUS
 10
254.0389487706
 20
38.8364051731
 11
253.5933110157
 21
38.6276413486
 12
253.3235008693
 22
38.8364051731
 13
253.3235008693
 23
38.8364051731
  0
SOLID
  8
0
 62
7
  6
CONTINUOUS
 10
253.5933110157
 20
38.6276413486
 11
253.2130692197
 21
38.210115344
 12
253.3235008693
 22
38.8364051731
 13
253.3235008693
 23
38.8364051731
  0
SOLID
  8
0
 62
7
  6
CONTINUOUS
 10
253.2130692197
 20
38.210115344
 11
252.3339287858
 21
36.1224859055
 12
253.3235008693
 22
38.8364051731
 13
253.3235008693
 23
38.8364051731
  0
SOLID
  8
0
 62
7
  6
CONTINUOUS
 10
253.3235008693
 20
38.8364051731
 11
252.3339287858
 21
36.1224859055
 12
253.433932519
 22
39.4626942349
 13
253.433932519
 23
39.4626942349
  0
SOLID
  8
0
 62
7
  6
CONTINUOUS
 10
252.3339287858
 20
36.1224859055
 11
252.9228976355
 21
39.4626942349
 12
253.433932519
 22
39.4626942349
 13
253.433932519
 23
39.4626942349
  0
SOLID
  8
0
 62
7
  6
CONTINUOUS
 10
253.2130692197
 20
38.210115344
 11
252.8449636693
 21
36.1224859055
 12
252.3339287858
 22
36.1224859055
 13
252.3339287858
 23
36.1224859055
  0
SOLID
  8
0
 62
7
  6
CONTINUOUS
 10
250.5721397445
 20
39.4626933578
 11
251.1669758619
 21
39.3583111139
 12
249.9404930771
 22
39.3583111139
 13
249.9404930771
 23
39.3583111139
  0
SOLID
  8
0
 62
7
  6
CONTINUOUS
 10
249.615467106
 20
39.2539303555
 11
249.9404930771
 21
39.3583111139
 12
251.1669758619
 22
39.3583111139
 13
251.1669758619
 23
39.3583111139
  0
SOLID
  8
0
 62
7
  6
CONTINUOUS
 10
249.615467106
 20
39.2539303555
 11
251.1669758619
 21
39.3583111139
 12
249.2720358599
 22
39.0451680223
 13
249.2720358599
 23
39.0451680223
  0
SOLID
  8
0
 62
7
  6
CONTINUOUS
 10
249.2720358599
 20
39.0451680223
 11
251.1669758619
 21
39.3583111139
 12
250.3963109662
 22
39.0451680223
 13
250.3963109662
 23
39.0451680223
  0
SOLID
  8
0
 62
7
  6
CONTINUOUS
 10
251.1669758619
 20
39.3583111139
 11
251.6227937509
 21
39.0451680223
 12
250.3963109662
 22
39.0451680223
 13
250.3963109662
 23
39.0451680223
  0
SOLID
  8
0
 62
7
  6
CONTINUOUS
 10
250.9911470836
 20
38.9407856445
 11
250.3963109662
 21
39.0451680223
 12
251.6227937509
 22
39.0451680223
 13
251.6227937509
 23
39.0451680223
  0
SOLID
  8
0
 62
7
  6
CONTINUOUS
 10
249.0308111227
 20
38.8364041342
 11
249.2720358599
 21
39.0451680223
 12
250.3963109662
 22
39.0451680223
 13
250.3963109662
 23
39.0451680223
  0
SOLID
  8
0
 62
7
  6
CONTINUOUS
 10
250.9911470836
 20
38.9407856445
 11
251.6227937509
 21
39.0451680223
 12
251.2609572299
 22
38.7320228498
 13
251.2609572299
 23
38.7320228498
  0
SOLID
  8
0
 62
7
  6
CONTINUOUS
 10
251.6227937509
 20
39.0451680223
 11
251.8557933473
 21
38.6276413486
 12
251.2609572299
 22
38.7320228498
 13
251.2609572299
 23
38.7320228498
  0
SOLID
  8
0
 62
7
  6
CONTINUOUS
 10
251.4101555925
 20
38.4188772463
 11
251.2609572299
 21
38.7320228498
 12
251.8557933473
 22
38.6276413486
 13
251.8557933473
 23
38.6276413486
  0
SOLID
  8
0
 62
7
  6
CONTINUOUS
 10
251.4101555925
 20
38.4188772463
 11
251.8557933473
 21
38.6276413486
 12
251.3733450425
 22
38.2101144198
 13
251.3733450425
 23
38.2101144198
  0
SOLID
  8
0
 62
7
  6
CONTINUOUS
 10
251.8557933473
 20
38.6276413486
 11
251.8843799261
 21
38.2101144198
 12
251.3733450425
 22
38.2101144198
 13
251.3733450425
 23
38.2101144198
  0
SOLID
  8
0
 62
7
  6
CONTINUOUS
 10
251.8843799261
 20
38.2101144198
 11
248.5401376513
 21
37.7925887667
 12
251.3733450425
 22
38.2101144198
 13
251.3733450425
 23
38.2101144198
  0
SOLID
  8
0
 62
7
  6
CONTINUOUS
 10
251.3733450425
 20
38.2101144198
 11
248.5401376513
 21
37.7925887667
 12
249.2270001692
 22
38.2101144198
 13
249.2270001692
 23
38.2101144198
  0
SOLID
  8
0
 62
7
  6
CONTINUOUS
 10
249.2270001692
 20
38.2101144198
 11
248.5401376513
 21
37.7925887667
 12
249.2454054442
 22
38.3144968451
 13
249.2454054442
 23
38.3144968451
  0
SOLID
  8
0
 62
7
  6
CONTINUOUS
 10
248.5401376513
 20
37.7925887667
 11
248.7527758356
 21
38.4188772463
 12
249.2454054442
 22
38.3144968451
 13
249.2454054442
 23
38.3144968451
  0
SOLID
  8
0
 62
7
  6
CONTINUOUS
 10
248.5401376513
 20
37.7925887667
 11
251.8843799261
 21
38.2101144198
 12
249.0511725348
 22
37.7925887667
 13
249.0511725348
 23
37.7925887667
  0
SOLID
  8
0
 62
7
  6
CONTINUOUS
 10
251.8843799261
 20
38.2101144198
 11
251.8107588006
 21
37.7925887667
 12
249.0511725348
 22
37.7925887667
 13
249.0511725348
 23
37.7925887667
  0
SOLID
  8
0
 62
7
  6
CONTINUOUS
 10
248.5319125105
 20
37.1662999696
 11
248.5401376513
 21
37.7925887667
 12
249.0511725348
 22
37.7925887667
 13
249.0511725348
 23
37.7925887667
  0
SOLID
  8
0
 62
7
  6
CONTINUOUS
 10
249.0308111227
 20
38.8364039206
 11
250.3963109662
 21
39.0451671548
 12
249.9690784862
 22
38.9407856445
 13
249.9690784862
 23
38.9407856445
  0
SOLID
  8
0
 62
7
  6
CONTINUOUS
 10
249.9690784862
 20
38.9407856445
 11
249.7462590239
 21
38.8364039206
 12
249.0308111227
 22
38.8364039206
 13
249.0308111227
 23
38.8364039206
  0
SOLID
  8
0
 62
7
  6
CONTINUOUS
 10
248.7527758356
 20
38.4188780931
 11
249.0308111227
 21
38.8364039206
 12
249.7462590239
 22
38.8364039206
 13
249.7462590239
 23
38.8364039206
  0
SOLID
  8
0
 62
7
  6
CONTINUOUS
 10
249.3844225029
 20
38.5232598474
 11
249.2454054442
 21
38.3144968451
 12
249.7462590239
 22
38.8364041342
 13
248.7527758356
 23
38.4188780931
  0
SOLID
  8
0
 62
7
  6
CONTINUOUS
 10
249.061352669
 20
37.2706816874
 11
248.5319125105
 21
37.1662999696
 12
249.014361985
 22
37.5838261908
 13
249.014361985
 23
37.5838261908
  0
SOLID
  8
0
 62
7
  6
CONTINUOUS
 10
248.5319125105
 20
37.1662999696
 11
249.0511725348
 21
37.7925890313
 12
249.014361985
 22
37.5838261908
 13
249.014361985
 23
37.5838261908
  0
SOLID
  8
0
 62
7
  6
CONTINUOUS
 10
249.061352669
 20
37.2706816874
 11
249.126748628
 21
37.0619186851
 12
248.5319125105
 22
37.1662999696
 13
248.5319125105
 23
37.1662999696
  0
SOLID
  8
0
 62
7
  6
CONTINUOUS
 10
248.6627055852
 20
36.7487745498
 11
248.5319125105
 21
37.1662999696
 12
249.126748628
 22
37.0619186851
 13
249.126748628
 23
37.0619186851
  0
SOLID
  8
0
 62
7
  6
CONTINUOUS
 10
249.126748628
 20
37.0619186851
 11
249.3781534865
 21
36.7487745498
 12
248.6627055852
 22
36.7487745498
 13
248.6627055852
 23
36.7487745498
  0
SOLID
  8
0
 62
7
  6
CONTINUOUS
 10
248.8303092162
 20
36.5400109078
 11
248.6627055852
 21
36.7487745498
 12
249.3781534865
 22
36.7487745498
 13
249.3781534865
 23
36.7487745498
  0
SOLID
  8
0
 62
7
  6
CONTINUOUS
 10
251.0318699208
 20
36.8531556097
 11
251.1892922674
 21
37.1663002572
 12
251.7003271509
 22
37.1663002572
 13
251.7003271509
 23
37.1663002572
  0
SOLID
  8
0
 62
7
  6
CONTINUOUS
 10
251.7003271509
 20
37.1663002572
 11
251.5244983598
 21
36.7487739284
 12
251.0318699208
 22
36.8531556097
 13
251.0318699208
 23
36.8531556097
  0
SOLID
  8
0
 62
7
  6
CONTINUOUS
 10
250.6884386748
 20
36.6443924181
 11
251.0318699208
 21
36.8531556097
 12
251.5244983598
 22
36.7487739284
 13
251.5244983598
 23
36.7487739284
  0
SOLID
  8
0
 62
7
  6
CONTINUOUS
 10
250.6884386748
 20
36.6443924181
 11
251.5244983598
 21
36.7487739284
 12
249.9545843225
 22
36.5400112926
 13
249.9545843225
 23
36.5400112926
  0
SOLID
  8
0
 62
7
  6
CONTINUOUS
 10
251.5244983598
 20
36.7487739284
 11
251.1626618323
 21
36.4356295685
 12
249.9545843225
 22
36.5400112926
 13
249.9545843225
 23
36.5400112926
  0
SOLID
  8
0
 62
7
  6
CONTINUOUS
 10
251.1626618323
 20
36.4356295685
 11
249.1001193593
 21
36.3312480491
 12
249.9545843225
 22
36.5400112926
 13
249.9545843225
 23
36.5400112926
  0
SOLID
  8
0
 62
7
  6
CONTINUOUS
 10
249.1001193593
 20
36.3312480491
 11
248.8303092162
 21
36.5400112926
 12
249.9545843225
 22
36.5400112926
 13
249.9545843225
 23
36.5400112926
  0
SOLID
  8
0
 62
7
  6
CONTINUOUS
 10
249.1001193593
 20
36.3312480491
 11
251.1626618323
 21
36.4356295685
 12
249.388334779
 22
36.2268668102
 13
249.388334779
 23
36.2268668102
  0
SOLID
  8
0
 62
7
  6
CONTINUOUS
 10
251.1626618323
 20
36.4356295685
 11
250.7170240726
 21
36.2268668102
 12
249.388334779
 22
36.2268668102
 13
249.388334779
 23
36.2268668102
  0
SOLID
  8
0
 62
7
  6
CONTINUOUS
 10
249.9831708948
 20
36.1224850285
 11
249.388334779
 21
36.2268668102
 12
250.7170240726
 22
36.2268668102
 13
250.7170240726
 23
36.2268668102
  0
SOLID
  8
0
 62
7
  6
CONTINUOUS
 10
249.5641623989
 20
36.6443924181
 11
249.9545843225
 21
36.5400109078
 12
249.3781534865
 22
36.7487739284
 13
248.8303092162
 23
36.5400109078
  0
SOLID
  8
0
 62
7
  6
CONTINUOUS
 10
244.9323542595
 20
39.3583127246
 11
245.2573802307
 21
39.4626942349
 12
245.6662086054
 22
39.4626942349
 13
245.6662086054
 23
39.4626942349
  0
SOLID
  8
0
 62
7
  6
CONTINUOUS
 10
245.6662086054
 20
39.4626942349
 11
245.9544240266
 21
39.3583127246
 12
244.9323542595
 22
39.3583127246
 13
244.9323542595
 23
39.3583127246
  0
SOLID
  8
0
 62
7
  6
CONTINUOUS
 10
246.567665419
 20
39.3583127246
 11
246.8926913902
 21
39.4626942349
 12
247.3015185952
 22
39.4626942349
 13
247.3015185952
 23
39.4626942349
  0
SOLID
  8
0
 62
7
  6
CONTINUOUS
 10
247.3015185952
 20
39.4626942349
 11
247.5897340165
 21
39.3583127246
 12
246.567665419
 22
39.3583127246
 13
246.567665419
 23
39.3583127246
  0
SOLID
  8
0
 62
7
  6
CONTINUOUS
 10
244.691130692
 20
39.149549704
 11
244.9323542595
 21
39.3583127246
 12
245.9544240266
 22
39.3583127246
 13
245.9544240266
 23
39.3583127246
  0
SOLID
  8
0
 62
7
  6
CONTINUOUS
 10
244.691130692
 20
39.149549704
 11
245.9544240266
 21
39.3583127246
 12
245.1837591309
 22
39.0451681937
 13
245.1837591309
 23
39.0451681937
  0
SOLID
  8
0
 62
7
  6
CONTINUOUS
 10
245.1837591309
 20
39.0451681937
 11
245.9544240266
 21
39.3583127246
 12
245.3881733183
 22
39.0451681937
 13
245.3881733183
 23
39.0451681937
  0
SOLID
  8
0
 62
7
  6
CONTINUOUS
 10
245.9544240266
 20
39.3583127246
 11
246.205828898
 21
39.0451681937
 12
245.3881733183
 22
39.0451681937
 13
245.3881733183
 23
39.0451681937
  0
SOLID
  8
0
 62
7
  6
CONTINUOUS
 10
247.7573376539
 20
39.149549704
 11
246.205828898
 21
39.0451681937
 12
247.5897340165
 22
39.3583127246
 13
247.5897340165
 23
39.3583127246
  0
SOLID
  8
0
 62
7
  6
CONTINUOUS
 10
246.205828898
 20
39.0451681937
 11
246.567665419
 21
39.3583127246
 12
247.5897340165
 22
39.3583127246
 13
247.5897340165
 23
39.3583127246
  0
SOLID
  8
0
 62
7
  6
CONTINUOUS
 10
246.7168626119
 20
39.0451681937
 11
245.5741822307
 21
38.9407866834
 12
246.205828898
 22
39.0451681937
 13
246.205828898
 23
39.0451681937
  0
SOLID
  8
0
 62
7
  6
CONTINUOUS
 10
245.5741822307
 20
38.9407866834
 11
245.3881733183
 21
39.0451681937
 12
246.205828898
 22
39.0451681937
 13
246.205828898
 23
39.0451681937
  0
SOLID
  8
0
 62
7
  6
CONTINUOUS
 10
246.7168626119
 20
39.0451681937
 11
246.4940443193
 21
38.9407866834
 12
245.5741822307
 22
38.9407866834
 13
245.5741822307
 23
38.9407866834
  0
SOLID
  8
0
 62
7
  6
CONTINUOUS
 10
245.6579834646
 20
38.8364051731
 11
245.5741822307
 21
38.9407866834
 12
246.4940443193
 22
38.9407866834
 13
246.4940443193
 23
38.9407866834
  0
SOLID
  8
0
 62
7
  6
CONTINUOUS
 10
246.4940443193
 20
38.9407866834
 11
246.3734313658
 21
38.8364051731
 12
245.6579834646
 22
38.8364051731
 13
245.6579834646
 23
38.8364051731
  0
SOLID
  8
0
 62
7
  6
CONTINUOUS
 10
245.7233794235
 20
38.6276421526
 11
245.6579834646
 21
38.8364051731
 12
246.3734313658
 22
38.8364051731
 13
246.3734313658
 23
38.8364051731
  0
SOLID
  8
0
 62
7
  6
CONTINUOUS
 10
246.3734313658
 20
38.8364051731
 11
246.2344143071
 21
38.6276421526
 12
245.7233794235
 22
38.6276421526
 13
245.7233794235
 23
38.6276421526
  0
SOLID
  8
0
 62
7
  6
CONTINUOUS
 10
246.205828898
 20
39.0451681937
 11
247.7573376539
 21
39.149549704
 12
246.7168626119
 22
39.0451681937
 13
246.7168626119
 23
39.0451681937
  0
SOLID
  8
0
 62
7
  6
CONTINUOUS
 10
246.7168626119
 20
39.0451681937
 11
247.7573376539
 21
39.149549704
 12
247.0234833081
 22
39.0451681937
 13
247.0234833081
 23
39.0451681937
  0
SOLID
  8
0
 62
7
  6
CONTINUOUS
 10
247.0234833081
 20
39.0451681937
 11
247.7573376539
 21
39.149549704
 12
247.2094922205
 22
38.9407866834
 13
247.2094922205
 23
38.9407866834
  0
SOLID
  8
0
 62
7
  6
CONTINUOUS
 10
247.2094922205
 20
38.9407866834
 11
247.7573376539
 21
39.149549704
 12
247.2932934544
 22
38.8364051731
 13
247.2932934544
 23
38.8364051731
  0
SOLID
  8
0
 62
7
  6
CONTINUOUS
 10
247.2932934544
 20
38.8364051731
 11
247.7573376539
 21
39.149549704
 12
247.358690583
 22
38.6276421526
 13
247.358690583
 23
38.6276421526
  0
SOLID
  8
0
 62
7
  6
CONTINUOUS
 10
247.7573376539
 20
39.149549704
 11
247.8697242968
 21
38.6276421526
 12
247.358690583
 22
38.6276421526
 13
247.358690583
 23
38.6276421526
  0
SOLID
  8
0
 62
7
  6
CONTINUOUS
 10
245.1837591309
 20
39.0451681937
 11
244.8587331598
 21
38.9407866834
 12
244.691130692
 22
39.149549704
 13
244.691130692
 23
39.149549704
  0
SOLID
  8
0
 62
7
  6
CONTINUOUS
 10
244.8587331598
 20
38.9407866834
 11
244.6175095922
 21
38.7320228498
 12
244.691130692
 22
39.149549704
 13
244.691130692
 23
39.149549704
  0
SOLID
  8
0
 62
7
  6
CONTINUOUS
 10
244.6175095922
 20
38.7320228498
 11
243.6463427836
 21
36.1224859055
 12
244.691130692
 22
39.149549704
 13
244.691130692
 23
39.149549704
  0
SOLID
  8
0
 62
7
  6
CONTINUOUS
 10
244.691130692
 20
39.149549704
 11
243.6463427836
 21
36.1224859055
 12
244.7463465168
 22
39.4626942349
 13
244.7463465168
 23
39.4626942349
  0
SOLID
  8
0
 62
7
  6
CONTINUOUS
 10
243.6463427836
 20
36.1224859055
 11
244.2353116332
 21
39.4626942349
 12
244.7463465168
 22
39.4626942349
 13
244.7463465168
 23
39.4626942349
  0
SOLID
  8
0
 62
7
  6
CONTINUOUS
 10
244.6175095922
 20
38.7320228498
 11
244.1573776672
 21
36.1224859055
 12
243.6463427836
 22
36.1224859055
 13
243.6463427836
 23
36.1224859055
  0
SOLID
  8
0
 62
7
  6
CONTINUOUS
 10
245.2816527734
 20
36.1224859055
 11
245.7233794235
 21
38.6276421526
 12
246.2344143071
 22
38.6276421526
 13
246.2344143071
 23
38.6276421526
  0
SOLID
  8
0
 62
7
  6
CONTINUOUS
 10
246.2344143071
 20
38.6276421526
 11
245.7926876569
 21
36.1224859055
 12
245.2816527734
 22
36.1224859055
 13
245.2816527734
 23
36.1224859055
  0
SOLID
  8
0
 62
7
  6
CONTINUOUS
 10
246.9169639329
 20
36.1224859055
 11
247.358690583
 21
38.6276421526
 12
247.8697242968
 22
38.6276421526
 13
247.8697242968
 23
38.6276421526
  0
SOLID
  8
0
 62
7
  6
CONTINUOUS
 10
247.8697242968
 20
38.6276421526
 11
247.4279976468
 21
36.1224859055
 12
246.9169639329
 22
36.1224859055
 13
246.9169639329
 23
36.1224859055
  0
SOLID
  8
0
 62
7
  6
CONTINUOUS
 10
240.3330444015
 20
39.3583127246
 11
240.6580703726
 21
39.4626942349
 12
241.0668975776
 22
39.4626942349
 13
241.0668975776
 23
39.4626942349
  0
SOLID
  8
0
 62
7
  6
CONTINUOUS
 10
241.0668975776
 20
39.4626942349
 11
241.3551129989
 21
39.3583127246
 12
240.3330444015
 22
39.3583127246
 13
240.3330444015
 23
39.3583127246
  0
SOLID
  8
0
 62
7
  6
CONTINUOUS
 10
241.9683543913
 20
39.3583127246
 11
242.2933803624
 21
39.4626942349
 12
242.7022081523
 22
39.4626942349
 13
242.7022081523
 23
39.4626942349
  0
SOLID
  8
0
 62
7
  6
CONTINUOUS
 10
242.7022081523
 20
39.4626942349
 11
242.9904235736
 21
39.3583127246
 12
241.9683543913
 22
39.3583127246
 13
241.9683543913
 23
39.3583127246
  0
SOLID
  8
0
 62
7
  6
CONTINUOUS
 10
240.0918196642
 20
39.149549704
 11
240.3330444015
 21
39.3583127246
 12
241.3551129989
 22
39.3583127246
 13
241.3551129989
 23
39.3583127246
  0
SOLID
  8
0
 62
7
  6
CONTINUOUS
 10
240.0918196642
 20
39.149549704
 11
241.3551129989
 21
39.3583127246
 12
240.5844492728
 22
39.0451681937
 13
240.5844492728
 23
39.0451681937
  0
SOLID
  8
0
 62
7
  6
CONTINUOUS
 10
240.5844492728
 20
39.0451681937
 11
241.3551129989
 21
39.3583127246
 12
240.7888628754
 22
39.0451681937
 13
240.7888628754
 23
39.0451681937
  0
SOLID
  8
0
 62
7
  6
CONTINUOUS
 10
241.3551129989
 20
39.3583127246
 11
241.6065178703
 21
39.0451681937
 12
240.7888628754
 22
39.0451681937
 13
240.7888628754
 23
39.0451681937
  0
SOLID
  8
0
 62
7
  6
CONTINUOUS
 10
243.1580266262
 20
39.149549704
 11
241.6065178703
 21
39.0451681937
 12
242.9904235736
 22
39.3583127246
 13
242.9904235736
 23
39.3583127246
  0
SOLID
  8
0
 62
7
  6
CONTINUOUS
 10
241.6065178703
 20
39.0451681937
 11
241.9683543913
 21
39.3583127246
 12
242.9904235736
 22
39.3583127246
 13
242.9904235736
 23
39.3583127246
  0
SOLID
  8
0
 62
7
  6
CONTINUOUS
 10
242.1175527538
 20
39.0451681937
 11
240.974871203
 21
38.9407866834
 12
241.6065178703
 22
39.0451681937
 13
241.6065178703
 23
39.0451681937
  0
SOLID
  8
0
 62
7
  6
CONTINUOUS
 10
240.974871203
 20
38.9407866834
 11
240.7888628754
 21
39.0451681937
 12
241.6065178703
 22
39.0451681937
 13
241.6065178703
 23
39.0451681937
  0
SOLID
  8
0
 62
7
  6
CONTINUOUS
 10
242.1175527538
 20
39.0451681937
 11
241.8947332915
 21
38.9407866834
 12
240.974871203
 22
38.9407866834
 13
240.974871203
 23
38.9407866834
  0
SOLID
  8
0
 62
7
  6
CONTINUOUS
 10
241.0586730217
 20
38.8364051731
 11
240.974871203
 21
38.9407866834
 12
241.8947332915
 22
38.9407866834
 13
241.8947332915
 23
38.9407866834
  0
SOLID
  8
0
 62
7
  6
CONTINUOUS
 10
241.8947332915
 20
38.9407866834
 11
241.7741215078
 21
38.8364051731
 12
241.0586730217
 22
38.8364051731
 13
241.0586730217
 23
38.8364051731
  0
SOLID
  8
0
 62
7
  6
CONTINUOUS
 10
241.1240695655
 20
38.6276421526
 11
241.0586730217
 21
38.8364051731
 12
241.7741215078
 22
38.8364051731
 13
241.7741215078
 23
38.8364051731
  0
SOLID
  8
0
 62
7
  6
CONTINUOUS
 10
241.7741215078
 20
38.8364051731
 11
241.6351038642
 21
38.6276421526
 12
241.1240695655
 22
38.6276421526
 13
241.1240695655
 23
38.6276421526
  0
SOLID
  8
0
 62
7
  6
CONTINUOUS
 10
241.6065178703
 20
39.0451681937
 11
243.1580266262
 21
39.149549704
 12
242.1175527538
 22
39.0451681937
 13
242.1175527538
 23
39.0451681937
  0
SOLID
  8
0
 62
7
  6
CONTINUOUS
 10
242.1175527538
 20
39.0451681937
 11
243.1580266262
 21
39.149549704
 12
242.42417345
 22
39.0451681937
 13
242.42417345
 23
39.0451681937
  0
SOLID
  8
0
 62
7
  6
CONTINUOUS
 10
242.42417345
 20
39.0451681937
 11
243.1580266262
 21
39.149549704
 12
242.6101817776
 22
38.9407866834
 13
242.6101817776
 23
38.9407866834
  0
SOLID
  8
0
 62
7
  6
CONTINUOUS
 10
242.6101817776
 20
38.9407866834
 11
243.1580266262
 21
39.149549704
 12
242.6939835963
 22
38.8364051731
 13
242.6939835963
 23
38.8364051731
  0
SOLID
  8
0
 62
7
  6
CONTINUOUS
 10
242.6939835963
 20
38.8364051731
 11
243.1580266262
 21
39.149549704
 12
242.7593795553
 22
38.6276421526
 13
242.7593795553
 23
38.6276421526
  0
SOLID
  8
0
 62
7
  6
CONTINUOUS
 10
243.1580266262
 20
39.149549704
 11
243.2704144389
 21
38.6276421526
 12
242.7593795553
 22
38.6276421526
 13
242.7593795553
 23
38.6276421526
  0
SOLID
  8
0
 62
7
  6
CONTINUOUS
 10
240.5844492728
 20
39.0451681937
 11
240.2594233018
 21
38.9407866834
 12
240.0918196642
 22
39.149549704
 13
240.0918196642
 23
39.149549704
  0
SOLID
  8
0
 62
7
  6
CONTINUOUS
 10
240.2594233018
 20
38.9407866834
 11
240.0181985645
 21
38.7320228498
 12
240.0918196642
 22
39.149549704
 13
240.0918196642
 23
39.149549704
  0
SOLID
  8
0
 62
7
  6
CONTINUOUS
 10
240.0181985645
 20
38.7320228498
 11
239.0470323407
 21
36.1224859055
 12
240.0918196642
 22
39.149549704
 13
240.0918196642
 23
39.149549704
  0
SOLID
  8
0
 62
7
  6
CONTINUOUS
 10
240.0918196642
 20
39.149549704
 11
239.0470323407
 21
36.1224859055
 12
240.1470354891
 22
39.4626942349
 13
240.1470354891
 23
39.4626942349
  0
SOLID
  8
0
 62
7
  6
CONTINUOUS
 10
239.0470323407
 20
36.1224859055
 11
239.6360011904
 21
39.4626942349
 12
240.1470354891
 22
39.4626942349
 13
240.1470354891
 23
39.4626942349
  0
SOLID
  8
0
 62
7
  6
CONTINUOUS
 10
240.0181985645
 20
38.7320228498
 11
239.5580666395
 21
36.1224859055
 12
239.0470323407
 22
36.1224859055
 13
239.0470323407
 23
36.1224859055
  0
SOLID
  8
0
 62
7
  6
CONTINUOUS
 10
240.6823429154
 20
36.1224859055
 11
241.1240695655
 21
38.6276421526
 12
241.6351038642
 22
38.6276421526
 13
241.6351038642
 23
38.6276421526
  0
SOLID
  8
0
 62
7
  6
CONTINUOUS
 10
241.6351038642
 20
38.6276421526
 11
241.1933772141
 21
36.1224859055
 12
240.6823429154
 22
36.1224859055
 13
240.6823429154
 23
36.1224859055
  0
SOLID
  8
0
 62
7
  6
CONTINUOUS
 10
242.3176529052
 20
36.1224859055
 11
242.7593795553
 21
38.6276421526
 12
243.2704144389
 22
38.6276421526
 13
243.2704144389
 23
38.6276421526
  0
SOLID
  8
0
 62
7
  6
CONTINUOUS
 10
243.2704144389
 20
38.6276421526
 11
242.8286877887
 21
36.1224859055
 12
242.3176529052
 22
36.1224859055
 13
242.3176529052
 23
36.1224859055
  0
SOLID
  8
0
 62
7
  6
CONTINUOUS
 10
237.3995857871
 20
37.7925854214
 11
235.3840334897
 21
37.3750612459
 12
235.5598615369
 22
37.7925854214
 13
235.5598615369
 23
37.7925854214
  0
SOLID
  8
0
 62
7
  6
CONTINUOUS
 10
235.3840334897
 20
37.3750612459
 11
234.1411012016
 21
36.1224838134
 12
235.5598615369
 22
37.7925854214
 13
235.5598615369
 23
37.7925854214
  0
SOLID
  8
0
 62
7
  6
CONTINUOUS
 10
235.5598615369
 20
37.7925854214
 11
234.1411012016
 21
36.1224838134
 12
236.9766660531
 22
40.6108901629
 13
236.9766660531
 23
40.6108901629
  0
SOLID
  8
0
 62
7
  6
CONTINUOUS
 10
234.1411012016
 20
36.1224838134
 11
236.6414596554
 21
41.0284149524
 12
236.9766660531
 22
40.6108901629
 13
236.9766660531
 23
40.6108901629
  0
SOLID
  8
0
 62
7
  6
CONTINUOUS
 10
235.3840334897
 20
37.3750612459
 11
234.754342594
 21
36.1224838134
 12
234.1411012016
 22
36.1224838134
 13
234.1411012016
 23
36.1224838134
  0
SOLID
  8
0
 62
7
  6
CONTINUOUS
 10
235.3840334897
 20
37.3750612459
 11
237.3995857871
 21
37.7925854214
 12
237.4281714886
 22
37.3750612459
 13
237.4281714886
 23
37.3750612459
  0
SOLID
  8
0
 62
7
  6
CONTINUOUS
 10
237.3995857871
 20
37.7925854214
 11
237.4591147965
 21
41.0284149524
 12
237.4281714886
 22
37.3750612459
 13
237.4281714886
 23
37.3750612459
  0
SOLID
  8
0
 62
7
  6
CONTINUOUS
 10
237.4281714886
 20
37.3750612459
 11
237.4591147965
 21
41.0284149524
 12
237.616135661
 22
36.1224838134
 13
237.616135661
 23
36.1224838134
  0
SOLID
  8
0
 62
7
  6
CONTINUOUS
 10
237.4591147965
 20
41.0284149524
 11
238.2293770534
 21
36.1224838134
 12
237.616135661
 22
36.1224838134
 13
237.616135661
 23
36.1224838134
  0
SOLID
  8
0
 62
7
  6
CONTINUOUS
 10
237.4591147965
 20
41.0284172499
 11
237.3995857871
 21
37.7925877188
 12
236.6414596554
 22
41.0284172499
 13
236.9766660531
 23
40.6108901629
  0
ENDBLK
  8
0
  6
BYBLOCK
 62
0
  0
BLOCK
  8
0
  2
_FILLED
 70
64
 10
0.0
 20
0.0
  0
SOLID
  8
0
  6
BYBLOCK
 62
0
 10
0.0
 20
0.0
 11
-1.0
 21
0.2142857143
 12
-1.0
 22
-0.2142857143
 13
-1.0
 23
-0.2142857143
  0
ENDBLK
  8
0
  6
BYBLOCK
 62
0
  0
BLOCK
  8
0
 62
2
  6
CONTINUOUS
  2
*D0
 70
65
 10
0.0
 20
0.0
  0
TEXT
  8
0
 62
5
  6
CONTINUOUS
 10
194.7917983778
 20
90.5647750514
  7
STANDARD
 40
3.5
  1
5.20
 50
90.0
 41
0.8
 72
0
  0
TEXT
  8
0
 62
5
  6
CONTINUOUS
 10
192.6917983778
 20
101.7647750514
  7
STANDARD
 40
2.1
  1
+0.10
 50
90.0
 41
0.8
 72
0
  0
TEXT
  8
0
 62
5
  6
CONTINUOUS
 10
195.4917983778
 20
101.7647750514
  7
STANDARD
 40
2.1
  1
-0.10
 50
90.0
 41
0.8
 72
0
  0
LINE
  8
0
 62
2
  6
CONTINUOUS
 10
114.670809358
 20
82.760274472
 11
198.5417983778
 21
82.760274472
  0
LINE
  8
0
 62
2
  6
CONTINUOUS
 10
114.670809358
 20
30.760274472
 11
198.5417983778
 21
30.760274472
  0
LINE
  8
0
 62
2
  6
CONTINUOUS
 10
196.5417983778
 20
82.760274472
 11
196.5417983778
 21
56.760274472
  0
LINE
  8
0
 62
2
  6
CONTINUOUS
 10
196.5417983778
 20
56.760274472
 11
196.5417983778
 21
110.1647750514
  0
LINE
  8
0
 62
2
  6
CONTINUOUS
 10
196.5417983778
 20
30.760274472
 11
196.5417983778
 21
56.760274472
  0
INSERT
  8
0
 62
2
  6
CONTINUOUS
  2
_FILLED
 10
196.5417983778
 20
82.760274472
 41
3.5
 42
3.5
 43
3.5
 50
90.0
  0
INSERT
  8
0
 62
2
  6
CONTINUOUS
  2
_FILLED
 10
196.5417983778
 20
30.760274472
 41
3.5
 42
3.5
 43
3.5
 50
270.0
  0
ENDBLK
  8
0
  6
BYBLOCK
 62
0
  0
BLOCK
  8
0
 62
2
  6
CONTINUOUS
  2
*D1
 70
65
 10
0.0
 20
0.0
  0
TEXT
  8
0
 62
5
  6
CONTINUOUS
 10
126.264132387
 20
223.7899458285
  7
STANDARD
 40
3.5
  1
4.00
 50
90.0
 41
0.8
 72
0
  0
TEXT
  8
0
 62
5
  6
CONTINUOUS
 10
124.164132387
 20
234.9899458285
  7
STANDARD
 40
2.1
  1
-0.05
 50
90.0
 41
0.8
 72
0
  0
TEXT
  8
0
 62
5
  6
CONTINUOUS
 10
126.964132387
 20
234.9899458285
  7
STANDARD
 40
2.1
  1
-0.15
 50
90.0
 41
0.8
 72
0
  0
LINE
  8
0
 62
2
  6
CONTINUOUS
 10
128.014132387
 20
211.0140977717
 11
128.014132387
 21
206.0140977717
  0
LINE
  8
0
 62
2
  6
CONTINUOUS
 10
128.014132387
 20
206.0140977717
 11
128.014132387
 21
212.9640977717
  0
LINE
  8
0
 62
2
  6
CONTINUOUS
 10
128.014132387
 20
214.9140977717
 11
128.014132387
 21
243.3899458285
  0
LINE
  8
0
 62
2
  6
CONTINUOUS
 10
128.014132387
 20
243.3899458285
 11
128.014132387
 21
212.9640977717
  0
INSERT
  8
0
 62
2
  6
CONTINUOUS
  2
_FILLED
 10
128.014132387
 20
211.0140977717
 41
3.5
 42
3.5
 43
3.5
 50
90.0
  0
INSERT
  8
0
 62
2
  6
CONTINUOUS
  2
_FILLED
 10
128.014132387
 20
214.9140977717
 41
3.5
 42
3.5
 43
3.5
 50
270.0
  0
ENDBLK
  8
0
  6
BYBLOCK
 62
0
  0
ENDSEC
  0
SECTION
  2
ENTITIES
  0
TEXT
  8
0
 62
5
  6
CONTINUOUS
 10
219.5634863739
 20
6.2684199426
  7
TEXTSTYLE_2
 40
2.5
  1
This drawing belongs to Ammeraal Beltech. It is not allowed to use, copy or to bring it to the knowledge of third party without the express permission from Ammeraal Beltech.
 41
0.44
 72
0
  0
INSERT
  8
0
 62
2
  6
CONTINUOUS
  2
AMMERAAL_LOGO_BL0
 10
259.1032480509
 20
37.8237533355
  0
DIMENSION
  8
0
 62
2
  6
CONTINUOUS
  2
*D0
 10
196.5417983778
 20
30.760274472
 11
196.5417983778
 21
100.3647750514
 70
128
 13
114.670809358
 23
82.760274472
 14
114.670809358
 24
30.760274472
 50
270.0
  0
DIMENSION
  8
0
 62
2
  6
CONTINUOUS
  2
*D1
 10
128.014132387
 20
214.9140977717
 11
128.014132387
 21
233.5899458285
 70
128
 13
27.9100207738
 23
211.0140977717
 14
27.9100207738
 24
214.9140977717
 50
90.0
  0
LINE
  8
0
 62
2
  6
CONTINUOUS
 10
312.0233606557
 20
282.581557377
 11
406.8233606557
 21
282.581557377
  0
LINE
  8
0
 62
2
  6
CONTINUOUS
 10
312.0233606557
 20
282.581557377
 11
312.0233606557
 21
254.581557377
  0
LINE
  8
0
 62
2
  6
CONTINUOUS
 10
312.0233606557
 20
275.581557377
 11
406.8233606557
 21
275.581557377
  0
LINE
  8
0
 62
2
  6
CONTINUOUS
 10
312.0233606557
 20
268.581557377
 11
406.8233606557
 21
268.581557377
  0
LINE
  8
0
 62
2
  6
CONTINUOUS
 10
312.0233606557
 20
261.581557377
 11
406.8233606557
 21
261.581557377
  0
LINE
  8
0
 62
2
  6
CONTINUOUS
 10
312.0233606557
 20
254.581557377
 11
406.8233606557
 21
254.581557377
  0
LINE
  8
0
 62
2
  6
CONTINUOUS
 10
356.8233606557
 20
282.581557377
 11
356.8233606557
 21
254.581557377
  0
LINE
  8
0
 62
2
  6
CONTINUOUS
 10
406.8233606557
 20
282.581557377
 11
406.8233606557
 21
254.581557377
  0
TEXT
  8
0
 62
5
  6
CONTINUOUS
 10
313.4233606557
 20
277.331557377
  7
TEXTSTYLE_3
 40
3.5
  1
Pin length
 41
1.0
 72
0
  0
TEXT
  8
0
 62
5
  6
CONTINUOUS
 10
358.2233606557
 20
277.331557377
  7
TEXTSTYLE_3
 40
3.5
  1
pin tolerance
 41
1.0
 72
0
  0
TEXT
  8
0
 62
5
  6
CONTINUOUS
 10
321.3338772609
 20
270.331557377
  7
TEXTSTYLE_3
 40
3.5
  1
0>>192,0
 41
1.0
 72
1
 11
334.4233606557
 21
270.331557377
  0
TEXT
  8
0
 62
5
  6
CONTINUOUS
 10
369.2233606557
 20
270.331557377
  7
STANDARD
 40
3.5
  1
+0/-1,0mm
 41
0.8
 72
1
 11
381.8233606557
 21
270.331557377
  0
TEXT
  8
0
 62
5
  6
CONTINUOUS
 10
316.0451318734
 20
263.331557377
  7
TEXTSTYLE_3
 40
3.5
  1
192,1>>610,0
 41
1.0
 72
1
 11
334.4233606557
 21
263.331557377
  0
TEXT
  8
0
 62
5
  6
CONTINUOUS
 10
369.2233606557
 20
263.331557377
  7
STANDARD
 40
3.5
  1
+0/-2,0mm
 41
0.8
 72
1
 11
381.8233606557
 21
263.331557377
  0
TEXT
  8
0
 62
5
  6
CONTINUOUS
 10
318.7831392535
 20
256.331557377
  7
TEXTSTYLE_3
 40
3.5
  1
610,1>>xxx
 41
1.0
 72
1
 11
334.4233606557
 21
256.331557377
  0
TEXT
  8
0
 62
5
  6
CONTINUOUS
 10
369.2233606557
 20
256.331557377
  7
STANDARD
 40
3.5
  1
+0/-3,5mm
 41
0.8
 72
1
 11
381.8233606557
 21
256.331557377
  0
LINE
  8
0
 62
2
  6
CONTINUOUS
 10
220.0
 20
84.0
 11
410.0
 21
84.0
  0
LINE
  8
0
 62
2
  6
CONTINUOUS
 10
220.0
 20
84.0
 11
220.0
 21
10.0
  0
LINE
  8
0
 62
2
  6
CONTINUOUS
 10
299.0
 20
79.0
 11
410.0
 21
79.0
  0
LINE
  8
0
 62
2
  6
CONTINUOUS
 10
220.0
 20
74.0
 11
380.0
 21
74.0
  0
LINE
  8
0
 62
2
  6
CONTINUOUS
 10
220.0
 20
69.0
 11
410.0
 21
69.0
  0
LINE
  8
0
 62
2
  6
CONTINUOUS
 10
220.0
 20
64.0
 11
410.0
 21
64.0
  0
LINE
  8
0
 62
2
  6
CONTINUOUS
 10
220.0
 20
59.0
 11
410.0
 21
59.0
  0
LINE
  8
0
 62
2
  6
CONTINUOUS
 10
220.0
 20
54.0
 11
410.0
 21
54.0
  0
LINE
  8
0
 62
2
  6
CONTINUOUS
 10
299.0
 20
44.0
 11
410.0
 21
44.0
  0
LINE
  8
0
 62
2
  6
CONTINUOUS
 10
299.0
 20
27.0
 11
410.0
 21
27.0
  0
LINE
  8
0
 62
2
  6
CONTINUOUS
 10
220.0
 20
10.0
 11
410.0
 21
10.0
  0
LINE
  8
0
 62
2
  6
CONTINUOUS
 10
245.0
 20
84.0
 11
245.0
 21
74.0
  0
LINE
  8
0
 62
2
  6
CONTINUOUS
 10
257.0
 20
74.0
 11
257.0
 21
54.0
  0
LINE
  8
0
 62
2
  6
CONTINUOUS
 10
299.0
 20
84.0
 11
299.0
 21
10.0
  0
LINE
  8
0
 62
2
  6
CONTINUOUS
 10
324.0
 20
84.0
 11
324.0
 21
44.0
  0
LINE
  8
0
 62
2
  6
CONTINUOUS
 10
380.0
 20
84.0
 11
380.0
 21
69.0
  0
LINE
  8
0
 62
2
  6
CONTINUOUS
 10
410.0
 20
84.0
 11
410.0
 21
10.0
  0
TEXT
  8
0
 62
4
  6
CONTINUOUS
 10
221.0
 20
77.75
  7
STANDARD
 40
2.5
  1
Drawing No.
 41
0.8
 72
0
  0
TEXT
  8
0
 62
7
  6
CONTINUOUS
 10
246.0
 20
76.0
  7
TEXTSTYLE_4
 40
6.0
  1
P1320
 41
0.7
 72
0
  0
TEXT
  8
0
 62
4
  6
CONTINUOUS
 10
300.0
 20
80.25
  7
TEXTSTYLE_4
 40
2.5
  1
Material
 41
0.7
 72
0
  0
TEXT
  8
0
 62
4
  6
CONTINUOUS
 10
325.0
 20
80.25
  7
STANDARD
 40
2.5
  1
PA6.6
 41
0.8
 72
0
  0
TEXT
  8
0
 62
4
  6
CONTINUOUS
 10
390.0
 20
80.25
  7
STANDARD
 40
2.5
  1
Scale
 41
0.8
 72
1
 11
395.0
 21
80.25
  0
TEXT
  8
0
 62
4
  6
CONTINUOUS
 10
300.0
 20
75.25
  7
TEXTSTYLE_4
 40
2.5
  1
Shrinkage
 41
0.7
 72
0
  0
TEXT
  8
0
 62
4
  6
CONTINUOUS
 10
389.0
 20
70.25
  7
STANDARD
 40
5.0
  1
1:1
 41
0.8
 72
1
 11
395.0
 21
70.25
  0
TEXT
  8
0
 62
4
  6
CONTINUOUS
 10
221.0
 20
70.25
  7
STANDARD
 40
2.5
  1
Designer
 41
0.8
 72
0
  0
TEXT
  8
0
 62
4
  6
CONTINUOUS
 10
258.0
 20
70.25
  7
STANDARD
 40
2.5
  1
JAS
 41
0.8
 72
0
  0
TEXT
  8
0
 62
4
  6
CONTINUOUS
 10
300.0
 20
70.25
  7
TEXTSTYLE_5
 40
2.5
  1
Proj. Surf. Area
 41
0.59
 72
0
  0
TEXT
  8
0
 62
4
  6
CONTINUOUS
 10
221.0
 20
65.25
  7
STANDARD
 40
2.5
  1
Date
 41
0.8
 72
0
  0
TEXT
  8
0
 62
4
  6
CONTINUOUS
 10
258.0
 20
65.25
  7
STANDARD
 40
2.5
  1
16-Mar-12
 41
0.8
 72
0
  0
TEXT
  8
0
 62
4
  6
CONTINUOUS
 10
300.0
 20
65.25
  7
TEXTSTYLE_4
 40
2.5
  1
Tool No.
 41
0.7
 72
0
  0
TEXT
  8
0
 62
4
  6
CONTINUOUS
 10
325.0
 20
65.25
  7
STANDARD
 40
2.5
  1
180511
 41
0.8
 72
0
  0
TEXT
  8
0
 62
4
  6
CONTINUOUS
 10
221.0
 20
60.25
  7
STANDARD
 40
2.5
  1
Approval Signature
 41
0.8
 72
0
  0
TEXT
  8
0
 62
5
  6
CONTINUOUS
 10
258.0
 20
60.25
  7
STANDARD
 40
2.5
  1
Germ Buter
 41
0.8
 72
0
  0
TEXT
  8
0
 62
4
  6
CONTINUOUS
 10
300.0
 20
60.25
  7
TEXTSTYLE_6
 40
2.5
  1
Finish Top Surf.
 41
0.6
 72
0
  0
TEXT
  8
0
 62
4
  6
CONTINUOUS
 10
221.0
 20
55.25
  7
STANDARD
 40
2.5
  1
Approval Date
 41
0.8
 72
0
  0
TEXT
  8
0
 62
5
  6
CONTINUOUS
 10
258.0
 20
55.25
  7
STANDARD
 40
2.5
  1
01-10-11
 41
0.8
 72
0
  0
TEXT
  8
0
 62
4
  6
CONTINUOUS
 10
300.0
 20
55.25
  7
STANDARD
 40
2.5
  1
Part Name
 41
0.8
 72
0
  0
TEXT
  8
0
 62
4
  6
CONTINUOUS
 10
325.0
 20
55.25
  7
STANDARD
 40
2.5
  1
P1320
 41
0.8
 72
0
  0
TEXT
  8
0
 62
4
  6
CONTINUOUS
 10
335.0
 20
55.25
  7
STANDARD
 40
2.5
  1
.
 41
0.8
 72
0
  0
TEXT
  8
0
 62
4
  6
CONTINUOUS
 10
337.0
 20
55.25
  7
STANDARD
 40
2.5
  1
PART
 41
0.8
 72
0
  0
TEXT
  8
0
 62
4
  6
CONTINUOUS
 10
300.0
 20
50.25
  7
STANDARD
 40
2.5
  1
Project No.
 41
0.8
 72
0
  0
TEXT
  8
0
 62
7
  6
CONTINUOUS
 10
325.0
 20
46.0
  7
STANDARD
 40
6.0
  1
200065
 41
0.8
 72
0
  0
TEXT
  8
0
 62
4
  6
CONTINUOUS
 10
300.0
 20
40.25
  7
STANDARD
 40
2.5
  1
Project
 41
0.8
 72
0
  0
TEXT
  8
0
 62
7
  6
CONTINUOUS
 10
300.0
 20
29.75
  7
STANDARD
 40
7.5
  1
uni Plaststifter
 41
0.8
 72
0
  0
TEXT
  8
0
 62
4
  6
CONTINUOUS
 10
300.0
 20
23.25
  7
STANDARD
 40
2.5
  1
Name
 41
0.8
 72
0
  0
TEXT
  8
0
 62
7
  6
CONTINUOUS
 10
300.0
 20
12.75
  7
TEXTSTYLE_7
 40
7.5
  1
uni LockPin Ø4 L=xxx mm 
 41
0.65
 72
0
  0
TEXT
  8
0
 62
5
  6
CONTINUOUS
 10
221.0
 20
23.3607692308
  7
TEXTSTYLE_8
 40
1.2
  1
  
 41
1.2307692308
 72
0
  0
TEXT
  8
0
 62
5
  6
CONTINUOUS
 10
221.0
 20
20.3330769231
  7
TEXTSTYLE_8
 40
1.2
  1
 Ammeraal Beltech      Hjulmagervej 21       tel: +45 75723 100
 41
1.0231990232
 72
0
  0
TEXT
  8
0
 62
5
  6
CONTINUOUS
 10
221.0
 20
17.3053846154
  7
TEXTSTYLE_8
 40
1.2
  1
 Modular A/S         DK-Vejle             fax: +45 75723348 
 41
1.0825641026
 72
0
  0
TEXT
  8
0
 62
5
  6
CONTINUOUS
 10
221.0
 20
14.2776923077
  7
TEXTSTYLE_8
 40
1.2
  1
                                    admin@unichains.dk 
 41
1.1311888112
 72
0
  0
TEXT
  8
0
 62
5
  6
CONTINUOUS
 10
221.0
 20
11.25
  7
TEXTSTYLE_8
 40
1.2
  1
                                    www.unichains.dk
 41
1.1588757396
 72
0
  0
LINE
  8
0
 62
2
  6
CONTINUOUS
 10
324.0
 20
109.0
 11
410.0
 21
109.0
  0
LINE
  8
0
 62
2
  6
CONTINUOUS
 10
324.0
 20
109.0
 11
324.0
 21
84.0
  0
LINE
  8
0
 62
2
  6
CONTINUOUS
 10
324.0
 20
104.0
 11
410.0
 21
104.0
  0
LINE
  8
0
 62
2
  6
CONTINUOUS
 10
324.0
 20
99.0
 11
410.0
 21
99.0
  0
LINE
  8
0
 62
2
  6
CONTINUOUS
 10
324.0
 20
94.0
 11
410.0
 21
94.0
  0
LINE
  8
0
 62
2
  6
CONTINUOUS
 10
324.0
 20
89.0
 11
410.0
 21
89.0
  0
LINE
  8
0
 62
2
  6
CONTINUOUS
 10
324.0
 20
84.0
 11
410.0
 21
84.0
  0
LINE
  8
0
 62
2
  6
CONTINUOUS
 10
332.0
 20
109.0
 11
332.0
 21
84.0
  0
LINE
  8
0
 62
2
  6
CONTINUOUS
 10
386.0
 20
109.0
 11
386.0
 21
84.0
  0
LINE
  8
0
 62
2
  6
CONTINUOUS
 10
398.0
 20
109.0
 11
398.0
 21
84.0
  0
LINE
  8
0
 62
2
  6
CONTINUOUS
 10
410.0
 20
109.0
 11
410.0
 21
84.0
  0
TEXT
  8
0
 62
4
  6
CONTINUOUS
 10
326.64
 20
104.8
  7
STANDARD
 40
3.4
  1
D
 41
0.8
 72
1
 11
328.0
 21
104.8
  0
TEXT
  8
0
 62
4
  6
CONTINUOUS
 10
326.64
 20
99.8
  7
STANDARD
 40
3.4
  1
C
 41
0.8
 72
1
 11
328.0
 21
99.8
  0
TEXT
  8
0
 62
4
  6
CONTINUOUS
 10
326.64
 20
94.8
  7
STANDARD
 40
3.4
  1
B
 41
0.8
 72
1
 11
328.0
 21
94.8
  0
TEXT
  8
0
 62
4
  6
CONTINUOUS
 10
326.64
 20
89.8
  7
STANDARD
 40
3.4
  1
A
 41
0.8
 72
1
 11
328.0
 21
89.8
  0
TEXT
  8
0
 62
4
  6
CONTINUOUS
 10
333.36
 20
89.8
  7
TEXTSTYLE_6
 40
3.4
  1
Lengh dimension for PA66
 41
0.6
 72
0
  0
TEXT
  8
0
 62
4
  6
CONTINUOUS
 10
387.8
 20
90.0
  7
TEXTSTYLE_9
 40
3.0
  1
14/12-12
 41
0.35
 72
1
 11
392.0
 21
90.0
  0
TEXT
  8
0
 62
4
  6
CONTINUOUS
 10
402.425
 20
90.0
  7
TEXTSTYLE_9
 40
3.0
  1
MTH
 41
0.35
 72
1
 11
404.0
 21
90.0
  0
TEXT
  8
0
 62
4
  6
CONTINUOUS
 10
324.94
 20
84.8
  7
TEXTSTYLE_6
 40
3.4
  1
Rev
 41
0.6
 72
1
 11
328.0
 21
84.8
  0
TEXT
  8
0
 62
4
  6
CONTINUOUS
 10
333.36
 20
84.8
  7
TEXTSTYLE_6
 40
3.4
  1
Modification
 41
0.6
 72
0
  0
TEXT
  8
0
 62
4
  6
CONTINUOUS
 10
387.92
 20
84.8
  7
TEXTSTYLE_6
 40
3.4
  1
Date
 41
0.6
 72
1
 11
392.0
 21
84.8
  0
TEXT
  8
0
 62
4
  6
CONTINUOUS
 10
398.9
 20
84.8
  7
TEXTSTYLE_6
 40
3.4
  1
Init.
 41
0.6
 72
1
 11
404.0
 21
84.8
  0
TEXT
  8
0
 62
5
  6
CONTINUOUS
 10
163.6083477509
 20
228.2930363322
  7
STANDARD
 40
3.5
  1
Adjustablel Length
 41
0.8
 72
0
  0
TEXT
  8
0
 62
5
  6
CONTINUOUS
 10
58.6872765565
 20
240.6688865975
  7
STANDARD
 40
3.5
  1
SEE DETAIL  
 41
0.8
 72
0
  0
TEXT
  8
0
 62
5
  6
CONTINUOUS
 10
92.2872765565
 20
240.6688865975
  7
STANDARD
 40
3.5
  1
A
 41
0.8
 72
0
  0
LINE
  8
0
 62
2
  6
CONTINUOUS
 10
39.7484467218
 20
221.6118825937
 11
52.6872765565
 21
242.4188865975
  0
LINE
  8
0
 62
2
  6
CONTINUOUS
 10
52.6872765565
 20
242.4188865975
 11
58.6872765565
 21
242.4188865975
  0
SOLID
  8
0
 62
2
  6
CONTINUOUS
 10
40.9598062955
 20
224.9801325819
 11
39.7484467218
 21
221.6118825937
 12
42.2336039866
 22
224.1880218308
 13
42.2336039866
 23
224.1880218308
  0
TEXT
  8
0
 62
5
  6
CONTINUOUS
 10
131.0298469378
 20
23.6921461297
  7
STANDARD
 40
3.5
  1
DETAIL  
 41
0.8
 72
0
  0
TEXT
  8
0
 62
5
  6
CONTINUOUS
 10
153.4298469378
 20
23.6921461297
  7
STANDARD
 40
3.5
  1
A
 41
0.8
 72
0
  0
TEXT
  8
0
 62
5
  6
CONTINUOUS
 10
131.0298469378
 20
18.4421461297
  7
STANDARD
 40
3.5
  1
SCALE  
 41
0.8
 72
0
  0
TEXT
  8
0
 62
5
  6
CONTINUOUS
 10
150.6298469378
 20
18.4421461297
  7
STANDARD
 40
3.5
  1
10:1
 41
0.8
 72
0
  0
TEXT
  8
0
 62
5
  6
CONTINUOUS
 10
27.2331434659
 20
96.8555406944
  7
STANDARD
 40
3.5
  1
SECTION  
 41
0.8
 72
2
 11
52.4331434659
 21
96.8555406944
  0
TEXT
  8
0
 62
5
  6
CONTINUOUS
 10
52.4331434659
 20
96.8555406944
  7
STANDARD
 40
3.5
  1
A-A
 41
0.8
 72
2
 11
60.8331434659
 21
96.8555406944
  0
TEXT
  8
0
 62
5
  6
CONTINUOUS
 10
30.0331434659
 20
91.6055406944
  7
STANDARD
 40
3.5
  1
SCALE  
 41
0.8
 72
2
 11
49.6331434659
 21
91.6055406944
  0
TEXT
  8
0
 62
5
  6
CONTINUOUS
 10
49.6331434659
 20
91.6055406944
  7
STANDARD
 40
3.5
  1
10:1
 41
0.8
 72
2
 11
60.8331434659
 21
91.6055406944
  0
LINE
  8
0
 62
7
  6
CONTINUOUS
 10
0.0
 20
0.0
 11
0.0
 21
297.0
  0
LINE
  8
0
 62
7
  6
CONTINUOUS
 10
10.0
 20
10.0
 11
10.0
 21
287.0
  0
LINE
  8
0
 62
7
  6
CONTINUOUS
 10
0.0
 20
0.0
 11
420.0
 21
0.0
  0
LINE
  8
0
 62
7
  6
CONTINUOUS
 10
10.0
 20
10.0
 11
410.0
 21
10.0
  0
LINE
  8
0
 62
7
  6
CONTINUOUS
 10
220.0
 20
84.0
 11
410.0
 21
84.0
  0
LINE
  8
0
 62
7
  6
CONTINUOUS
 10
205.0
 20
5.0
 11
205.0
 21
10.0
  0
LINE
  8
0
 62
7
  6
CONTINUOUS
 10
205.0
 20
287.0
 11
205.0
 21
292.0
  0
LINE
  8
0
 62
7
  6
CONTINUOUS
 10
220.0
 20
10.0
 11
220.0
 21
84.0
  0
LINE
  8
0
 62
7
  6
CONTINUOUS
 10
10.0
 20
287.0
 11
410.0
 21
287.0
  0
LINE
  8
0
 62
7
  6
CONTINUOUS
 10
0.0
 20
297.0
 11
420.0
 21
297.0
  0
LINE
  8
0
 62
7
  6
CONTINUOUS
 10
410.0
 20
10.0
 11
410.0
 21
287.0
  0
LINE
  8
0
 62
7
  6
CONTINUOUS
 10
420.0
 20
0.0
 11
420.0
 21
297.0
  0
LINE
  8
0
 62
7
  6
CONTINUOUS
 10
27.4100207738
 20
214.4140977717
 11
27.4100207738
 21
211.5140977717
  0
LINE
  8
0
 62
7
  6
CONTINUOUS
 10
27.9100207738
 20
214.9140977717
 11
27.9100207738
 21
211.0140977717
  0
LINE
  8
0
 62
9
  6
CONTINUOUS
 10
33.4100207738
 20
213.2931741685
 11
33.4100207738
 21
213.0640977717
  0
LINE
  8
DEFAULT_2
 62
8
  6
HIDDEN
 10
33.4100207738
 20
212.6350213749
 11
33.4100207738
 21
212.8640977717
  0
POLYLINE
  8
DEFAULT_2
 62
8
  6
HIDDEN
 66
1
 70
0
  0
VERTEX
  8
DEFAULT_2
 62
8
  6
HIDDEN
 10
37.6860421756
 20
211.3170984872
  0
VERTEX
  8
DEFAULT_2
 62
8
  6
HIDDEN
 10
37.6854117255
 20
211.3270160295
  0
VERTEX
  8
DEFAULT_2
 62
8
  6
HIDDEN
 10
37.6803441725
 20
211.3471569698
  0
VERTEX
  8
DEFAULT_2
 62
8
  6
HIDDEN
 10
37.6702492952
 20
211.3673637496
  0
VERTEX
  8
DEFAULT_2
 62
8
  6
HIDDEN
 10
37.6553385145
 20
211.3872094745
  0
VERTEX
  8
DEFAULT_2
 62
8
  6
HIDDEN
 10
37.6359782786
 20
211.4062678341
  0
VERTEX
  8
DEFAULT_2
 62
8
  6
HIDDEN
 10
37.6126569999
 20
211.4241596085
  0
VERTEX
  8
DEFAULT_2
 62
8
  6
HIDDEN
 10
37.5859629882
 20
211.4405710018
  0
VERTEX
  8
DEFAULT_2
 62
8
  6
HIDDEN
 10
37.5564880187
 20
211.4552999067
  0
VERTEX
  8
DEFAULT_2
 62
8
  6
HIDDEN
 10
37.5408938031
 20
211.4619924182
  0
VERTEX
  8
DEFAULT_2
 62
8
  6
HIDDEN
 10
37.5083362403
 20
211.4739995097
  0
VERTEX
  8
DEFAULT_2
 62
8
  6
HIDDEN
 10
37.474067832
 20
211.4842544952
  0
VERTEX
  8
DEFAULT_2
 62
8
  6
HIDDEN
 10
37.4371295126
 20
211.493055115
  0
VERTEX
  8
DEFAULT_2
 62
8
  6
HIDDEN
 10
37.3961992106
 20
211.5005101813
  0
VERTEX
  8
DEFAULT_2
 62
8
  6
HIDDEN
 10
37.3503741934
 20
211.5064274492
  0
VERTEX
  8
DEFAULT_2
 62
8
  6
HIDDEN
 10
37.2977864005
 20
211.5105631801
  0
VERTEX
  8
DEFAULT_2
 62
8
  6
HIDDEN
 10
37.2374811226
 20
211.5125257502
  0
VERTEX
  8
DEFAULT_2
 62
8
  6
HIDDEN
 10
37.2091942791
 20
211.5126954727
  0
SEQEND
  0
POLYLINE
  8
DEFAULT_2
 62
8
  6
HIDDEN
 66
1
 70
0
  0
VERTEX
  8
DEFAULT_2
 62
8
  6
HIDDEN
 10
36.2108393474
 20
214.4943097921
  0
VERTEX
  8
DEFAULT_2
 62
8
  6
HIDDEN
 10
36.2129340472
 20
214.4613051248
  0
VERTEX
  8
DEFAULT_2
 62
8
  6
HIDDEN
 10
36.2168680777
 20
214.393063824
  0
VERTEX
  8
DEFAULT_2
 62
8
  6
HIDDEN
 10
36.2200681514
 20
214.3287871702
  0
VERTEX
  8
DEFAULT_2
 62
8
  6
HIDDEN
 10
36.2212664795
 20
214.3006244775
  0
VERTEX
  8
DEFAULT_2
 62
8
  6
HIDDEN
 10
36.2226773311
 20
214.2565387691
  0
VERTEX
  8
DEFAULT_2
 62
8
  6
HIDDEN
 10
36.2226479884
 20
214.233023299
  0
VERTEX
  8
DEFAULT_2
 62
8
  6
HIDDEN
 10
36.2220874272
 20
214.2299827843
  0
SEQEND
  0
POLYLINE
  8
0
 62
9
  6
CONTINUOUS
 66
1
 70
0
  0
VERTEX
  8
0
 62
9
  6
CONTINUOUS
 10
37.6860421756
 20
211.3029546274
  0
VERTEX
  8
0
 62
9
  6
CONTINUOUS
 10
37.6851930749
 20
211.3230707693
  0
VERTEX
  8
0
 62
9
  6
CONTINUOUS
 10
37.68359515
 20
211.3756786556
  0
VERTEX
  8
0
 62
9
  6
CONTINUOUS
 10
37.6822862001
 20
211.4394158425
  0
VERTEX
  8
0
 62
9
  6
CONTINUOUS
 10
37.6814207965
 20
211.5067554456
  0
VERTEX
  8
0
 62
9
  6
CONTINUOUS
 10
37.681188786
 20
211.5392818509
  0
VERTEX
  8
0
 62
9
  6
CONTINUOUS
 10
37.681160442
 20
211.5972392687
  0
VERTEX
  8
0
 62
9
  6
CONTINUOUS
 10
37.6817085711
 20
211.640161338
  0
VERTEX
  8
0
 62
9
  6
CONTINUOUS
 10
37.6827684377
 20
211.6629792838
  0
VERTEX
  8
0
 62
9
  6
CONTINUOUS
 10
37.6834531567
 20
211.6659035656
  0
SEQEND
  0
LINE
  8
0
 62
9
  6
CONTINUOUS
 10
37.2111485043
 20
211.6623180491
 11
37.211088361
 21
211.6650536912
  0
POLYLINE
  8
DEFAULT_2
 62
8
  6
HIDDEN
 66
1
 70
0
  0
VERTEX
  8
DEFAULT_2
 62
8
  6
HIDDEN
 10
37.2092047498
 20
214.5112158448
  0
VERTEX
  8
DEFAULT_2
 62
8
  6
HIDDEN
 10
37.2111058918
 20
214.2873015814
  0
VERTEX
  8
DEFAULT_2
 62
8
  6
HIDDEN
 10
37.2111485043
 20
214.2658774944
  0
VERTEX
  8
DEFAULT_2
 62
8
  6
HIDDEN
 10
37.211088361
 20
214.2631418522
  0
SEQEND
  0
LINE
  8
0
 62
9
  6
CONTINUOUS
 10
35.7339993721
 20
211.0140977717
 11
35.7339993721
 21
211.3170984837
  0
LINE
  8
0
 62
9
  6
CONTINUOUS
 10
35.7339993721
 20
214.611097137
 11
35.7339993721
 21
214.9140977717
  0
LINE
  8
0
 62
9
  6
CONTINUOUS
 10
35.9076823239
 20
211.2578209563
 11
35.9076823239
 21
210.9439149907
  0
LINE
  8
0
 62
9
  6
CONTINUOUS
 10
35.9076823239
 20
214.6703745866
 11
35.9076823239
 21
214.9842805527
  0
LINE
  8
0
 62
9
  6
CONTINUOUS
 10
36.2108349637
 20
214.6327659551
 11
36.2108349637
 21
214.4155000702
  0
LINE
  8
DEFAULT_2
 62
8
  6
HIDDEN
 10
36.2108393476
 20
211.4338850948
 11
36.2108349637
 21
211.5126954304
  0
LINE
  8
0
 62
9
  6
CONTINUOUS
 10
36.2108349606
 20
211.2954295883
 11
36.2108393476
 21
211.4338850948
  0
LINE
  8
0
 62
9
  6
CONTINUOUS
 10
36.3626548702
 20
215.4237322097
 11
36.3626548702
 21
215.0943112414
  0
LINE
  8
0
 62
9
  6
CONTINUOUS
 10
36.3626548702
 20
210.5044633338
 11
36.3626548702
 21
210.8338843021
  0
LINE
  8
0
 62
9
  6
CONTINUOUS
 10
37.0573866775
 20
215.4237322097
 11
37.0573866775
 21
215.0943112414
  0
LINE
  8
0
 62
9
  6
CONTINUOUS
 10
37.0573866775
 20
210.5044633338
 11
37.0573866775
 21
210.8338843021
  0
LINE
  8
0
 62
9
  6
CONTINUOUS
 10
37.2092065888
 20
211.2954295883
 11
37.2092047496
 21
211.416979653
  0
LINE
  8
0
 62
9
  6
CONTINUOUS
 10
37.209206591
 20
214.6327659551
 11
37.209206591
 21
214.4155001135
  0
LINE
  8
DEFAULT_2
 62
8
  6
HIDDEN
 10
37.2092047496
 20
211.416979653
 11
37.209206591
 21
211.5126954727
  0
LINE
  8
0
 62
9
  6
CONTINUOUS
 10
37.5123592237
 20
211.2578209561
 11
37.5123592237
 21
210.9439149907
  0
LINE
  8
0
 62
9
  6
CONTINUOUS
 10
37.5123592237
 20
214.6703745872
 11
37.5123592237
 21
214.9842805527
  0
LINE
  8
0
 62
9
  6
CONTINUOUS
 10
37.6860421756
 20
214.9140977717
 11
37.6860421756
 21
214.6110970562
  0
LINE
  8
0
 62
9
  6
CONTINUOUS
 10
37.6860421756
 20
211.3029546997
 11
37.6860421756
 21
211.0140977717
  0
LINE
  8
DEFAULT_2
 62
8
  6
HIDDEN
 10
37.6860421756
 20
211.3029546997
 11
37.6860421756
 21
211.3170984872
  0
LINE
  8
0
 62
9
  6
CONTINUOUS
 10
37.2108525376
 20
211.6004223709
 11
37.2111485043
 21
211.6623180491
  0
LINE
  8
0
 62
9
  6
CONTINUOUS
 10
37.2092047498
 20
211.4169796987
 11
37.2108525376
 21
211.6004223709
  0
POLYLINE
  8
DEFAULT_2
 62
8
  6
HIDDEN
 66
1
 70
0
  0
VERTEX
  8
DEFAULT_2
 62
8
  6
HIDDEN
 10
37.6860421756
 20
214.6252409161
  0
VERTEX
  8
DEFAULT_2
 62
8
  6
HIDDEN
 10
37.6851930749
 20
214.6051247742
  0
VERTEX
  8
DEFAULT_2
 62
8
  6
HIDDEN
 10
37.68359515
 20
214.5525168879
  0
VERTEX
  8
DEFAULT_2
 62
8
  6
HIDDEN
 10
37.6822862001
 20
214.488779701
  0
VERTEX
  8
DEFAULT_2
 62
8
  6
HIDDEN
 10
37.6814207965
 20
214.4214400979
  0
VERTEX
  8
DEFAULT_2
 62
8
  6
HIDDEN
 10
37.681188786
 20
214.3889136926
  0
VERTEX
  8
DEFAULT_2
 62
8
  6
HIDDEN
 10
37.681160442
 20
214.3309562747
  0
VERTEX
  8
DEFAULT_2
 62
8
  6
HIDDEN
 10
37.6817085711
 20
214.2880342054
  0
VERTEX
  8
DEFAULT_2
 62
8
  6
HIDDEN
 10
37.6827684377
 20
214.2652162596
  0
VERTEX
  8
DEFAULT_2
 62
8
  6
HIDDEN
 10
37.6834531567
 20
214.2622919779
  0
SEQEND
  0
POLYLINE
  8
0
 62
9
  6
CONTINUOUS
 66
1
 70
0
  0
VERTEX
  8
0
 62
9
  6
CONTINUOUS
 10
36.2108393474
 20
211.4338857514
  0
VERTEX
  8
0
 62
9
  6
CONTINUOUS
 10
36.2129340472
 20
211.4668904186
  0
VERTEX
  8
0
 62
9
  6
CONTINUOUS
 10
36.2168680777
 20
211.5351317195
  0
VERTEX
  8
0
 62
9
  6
CONTINUOUS
 10
36.2200681514
 20
211.5994083733
  0
VERTEX
  8
0
 62
9
  6
CONTINUOUS
 10
36.2212664795
 20
211.627571066
  0
VERTEX
  8
0
 62
9
  6
CONTINUOUS
 10
36.2226773311
 20
211.6716567744
  0
VERTEX
  8
0
 62
9
  6
CONTINUOUS
 10
36.2226479884
 20
211.6951722444
  0
VERTEX
  8
0
 62
9
  6
CONTINUOUS
 10
36.2220874272
 20
211.6982127592
  0
SEQEND
  0
POLYLINE
  8
0
 62
9
  6
CONTINUOUS
 66
1
 70
0
  0
VERTEX
  8
0
 62
9
  6
CONTINUOUS
 10
37.6860421756
 20
214.6110970562
  0
VERTEX
  8
0
 62
9
  6
CONTINUOUS
 10
37.6854117255
 20
214.6011795139
  0
VERTEX
  8
0
 62
9
  6
CONTINUOUS
 10
37.6803441725
 20
214.5810385736
  0
VERTEX
  8
0
 62
9
  6
CONTINUOUS
 10
37.6702492952
 20
214.5608317939
  0
VERTEX
  8
0
 62
9
  6
CONTINUOUS
 10
37.6553385145
 20
214.5409860689
  0
VERTEX
  8
0
 62
9
  6
CONTINUOUS
 10
37.6359782786
 20
214.5219277094
  0
VERTEX
  8
0
 62
9
  6
CONTINUOUS
 10
37.6126569999
 20
214.5040359349
  0
VERTEX
  8
0
 62
9
  6
CONTINUOUS
 10
37.5859629882
 20
214.4876245417
  0
VERTEX
  8
0
 62
9
  6
CONTINUOUS
 10
37.5564880187
 20
214.4728956367
  0
VERTEX
  8
0
 62
9
  6
CONTINUOUS
 10
37.5408938031
 20
214.4662031253
  0
VERTEX
  8
0
 62
9
  6
CONTINUOUS
 10
37.5083362403
 20
214.4541960338
  0
VERTEX
  8
0
 62
9
  6
CONTINUOUS
 10
37.474067832
 20
214.4439410483
  0
VERTEX
  8
0
 62
9
  6
CONTINUOUS
 10
37.4371295126
 20
214.4351404284
  0
VERTEX
  8
0
 62
9
  6
CONTINUOUS
 10
37.3961992106
 20
214.4276853622
  0
VERTEX
  8
0
 62
9
  6
CONTINUOUS
 10
37.3503741934
 20
214.4217680942
  0
VERTEX
  8
0
 62
9
  6
CONTINUOUS
 10
37.2977864005
 20
214.4176323634
  0
VERTEX
  8
0
 62
9
  6
CONTINUOUS
 10
37.2374811226
 20
214.4156697933
  0
VERTEX
  8
0
 62
9
  6
CONTINUOUS
 10
37.2092013983
 20
214.4155001135
  0
SEQEND
  0
POLYLINE
  8
0
 62
9
  6
CONTINUOUS
 66
1
 70
0
  0
VERTEX
  8
0
 62
9
  6
CONTINUOUS
 10
35.7339993721
 20
211.3170984837
  0
VERTEX
  8
0
 62
9
  6
CONTINUOUS
 10
35.7362500981
 20
211.3359132024
  0
VERTEX
  8
0
 62
9
  6
CONTINUOUS
 10
35.7430149208
 20
211.3549904662
  0
VERTEX
  8
0
 62
9
  6
CONTINUOUS
 10
35.7541983796
 20
211.3739782448
  0
SEQEND
  0
POLYLINE
  8
0
 62
9
  6
CONTINUOUS
 66
1
 70
0
  0
VERTEX
  8
0
 62
9
  6
CONTINUOUS
 10
35.7541983748
 20
211.3739786784
  0
VERTEX
  8
0
 62
9
  6
CONTINUOUS
 10
35.7635908896
 20
211.4238157071
  0
VERTEX
  8
0
 62
9
  6
CONTINUOUS
 10
35.771779502
 20
211.4877526414
  0
VERTEX
  8
0
 62
9
  6
CONTINUOUS
 10
35.7777144614
 20
211.5575932206
  0
VERTEX
  8
0
 62
9
  6
CONTINUOUS
 10
35.7806349192
 20
211.6243843787
  0
VERTEX
  8
0
 62
9
  6
CONTINUOUS
 10
35.7801664646
 20
211.6795639638
  0
VERTEX
  8
0
 62
9
  6
CONTINUOUS
 10
35.7763691213
 20
211.7160583455
  0
VERTEX
  8
0
 62
9
  6
CONTINUOUS
 10
35.7697296527
 20
211.7291892045
  0
SEQEND
  0
LINE
  8
0
 62
9
  6
CONTINUOUS
 10
33.330812853
 20
212.1720185638
 11
33.3110108728
 21
212.0739987618
  0
POLYLINE
  8
0
 62
9
  6
CONTINUOUS
 66
1
 70
0
  0
VERTEX
  8
0
 62
9
  6
CONTINUOUS
 10
33.2721989916
 20
211.7609480015
  0
VERTEX
  8
0
 62
9
  6
CONTINUOUS
 10
33.2885238093
 20
211.817980918
  0
VERTEX
  8
0
 62
9
  6
CONTINUOUS
 10
33.3029624028
 20
211.8823973016
  0
VERTEX
  8
0
 62
9
  6
CONTINUOUS
 10
33.3138463926
 20
211.9467539069
  0
VERTEX
  8
0
 62
9
  6
CONTINUOUS
 10
33.3175419698
 20
211.9765617201
  0
VERTEX
  8
0
 62
9
  6
CONTINUOUS
 10
33.3209057205
 20
212.0271247315
  0
VERTEX
  8
0
 62
9
  6
CONTINUOUS
 10
33.3186414913
 20
212.0609048645
  0
VERTEX
  8
0
 62
9
  6
CONTINUOUS
 10
33.3110108931
 20
212.0739988623
  0
SEQEND
  0
POLYLINE
  8
DEFAULT_2
 62
8
  6
HIDDEN
 66
1
 70
0
  0
VERTEX
  8
DEFAULT_2
 62
8
  6
HIDDEN
 10
33.2721989916
 20
214.167247542
  0
VERTEX
  8
DEFAULT_2
 62
8
  6
HIDDEN
 10
33.2885238093
 20
214.1102146255
  0
VERTEX
  8
DEFAULT_2
 62
8
  6
HIDDEN
 10
33.3029624028
 20
214.0457982419
  0
VERTEX
  8
DEFAULT_2
 62
8
  6
HIDDEN
 10
33.3138463926
 20
213.9814416366
  0
VERTEX
  8
DEFAULT_2
 62
8
  6
HIDDEN
 10
33.3175419698
 20
213.9516338233
  0
VERTEX
  8
DEFAULT_2
 62
8
  6
HIDDEN
 10
33.3209057205
 20
213.9010708119
  0
VERTEX
  8
DEFAULT_2
 62
8
  6
HIDDEN
 10
33.3186414913
 20
213.867290679
  0
VERTEX
  8
DEFAULT_2
 62
8
  6
HIDDEN
 10
33.3110108931
 20
213.8541966812
  0
SEQEND
  0
LINE
  8
DEFAULT_2
 62
8
  6
HIDDEN
 10
33.330812853
 20
213.7561769797
 11
33.3110108728
 21
213.8541967816
  0
POLYLINE
  8
DEFAULT_2
 62
8
  6
HIDDEN
 66
1
 70
0
  0
VERTEX
  8
DEFAULT_2
 62
8
  6
HIDDEN
 10
35.7541983748
 20
214.554216865
  0
VERTEX
  8
DEFAULT_2
 62
8
  6
HIDDEN
 10
35.7635908896
 20
214.5043798363
  0
VERTEX
  8
DEFAULT_2
 62
8
  6
HIDDEN
 10
35.771779502
 20
214.4404429021
  0
VERTEX
  8
DEFAULT_2
 62
8
  6
HIDDEN
 10
35.7777144614
 20
214.3706023228
  0
VERTEX
  8
DEFAULT_2
 62
8
  6
HIDDEN
 10
35.7806349192
 20
214.3038111648
  0
VERTEX
  8
DEFAULT_2
 62
8
  6
HIDDEN
 10
35.7801664646
 20
214.2486315797
  0
VERTEX
  8
DEFAULT_2
 62
8
  6
HIDDEN
 10
35.7763691213
 20
214.212137198
  0
VERTEX
  8
DEFAULT_2
 62
8
  6
HIDDEN
 10
35.7697296527
 20
214.1990063389
  0
SEQEND
  0
POLYLINE
  8
0
 62
9
  6
CONTINUOUS
 66
1
 70
0
  0
VERTEX
  8
0
 62
9
  6
CONTINUOUS
 10
35.9076823815
 20
211.2578208986
  0
VERTEX
  8
0
 62
9
  6
CONTINUOUS
 10
35.9068038029
 20
211.2638478142
  0
VERTEX
  8
0
 62
9
  6
CONTINUOUS
 10
35.907224029
 20
211.275494962
  0
VERTEX
  8
0
 62
9
  6
CONTINUOUS
 10
35.910679488
 20
211.2863782112
  0
VERTEX
  8
0
 62
9
  6
CONTINUOUS
 10
35.9172472273
 20
211.2962401562
  0
VERTEX
  8
0
 62
9
  6
CONTINUOUS
 10
35.9268772287
 20
211.3048633954
  0
VERTEX
  8
0
 62
9
  6
CONTINUOUS
 10
35.9393991067
 20
211.3120965966
  0
VERTEX
  8
0
 62
9
  6
CONTINUOUS
 10
35.9545420881
 20
211.3178534156
  0
VERTEX
  8
0
 62
9
  6
CONTINUOUS
 10
35.9719987557
 20
211.3221165558
  0
VERTEX
  8
0
 62
9
  6
CONTINUOUS
 10
35.9814907412
 20
211.3236948316
  0
VERTEX
  8
0
 62
9
  6
CONTINUOUS
 10
36.0017985198
 20
211.3257784831
  0
VERTEX
  8
0
 62
9
  6
CONTINUOUS
 10
36.0238091822
 20
211.3264926244
  0
VERTEX
  8
0
 62
9
  6
CONTINUOUS
 10
36.0481854779
 20
211.3258375974
  0
VERTEX
  8
0
 62
9
  6
CONTINUOUS
 10
36.0759142741
 20
211.3236054384
  0
VERTEX
  8
0
 62
9
  6
CONTINUOUS
 10
36.1077849022
 20
211.3194019705
  0
VERTEX
  8
0
 62
9
  6
CONTINUOUS
 10
36.1453553979
 20
211.3124656636
  0
VERTEX
  8
0
 62
9
  6
CONTINUOUS
 10
36.1896518574
 20
211.3016583886
  0
VERTEX
  8
0
 62
9
  6
CONTINUOUS
 10
36.2108349606
 20
211.2954292727
  0
SEQEND
  0
POLYLINE
  8
0
 62
9
  6
CONTINUOUS
 66
1
 70
0
  0
VERTEX
  8
0
 62
9
  6
CONTINUOUS
 10
37.5123591604
 20
214.6703746506
  0
VERTEX
  8
0
 62
9
  6
CONTINUOUS
 10
37.5132376514
 20
214.6643487103
  0
VERTEX
  8
0
 62
9
  6
CONTINUOUS
 10
37.5128177456
 20
214.652701968
  0
VERTEX
  8
0
 62
9
  6
CONTINUOUS
 10
37.5093626194
 20
214.6418185148
  0
VERTEX
  8
0
 62
9
  6
CONTINUOUS
 10
37.5027951763
 20
214.631956378
  0
VERTEX
  8
0
 62
9
  6
CONTINUOUS
 10
37.4931653873
 20
214.6233329233
  0
VERTEX
  8
0
 62
9
  6
CONTINUOUS
 10
37.4806436541
 20
214.6160995257
  0
VERTEX
  8
0
 62
9
  6
CONTINUOUS
 10
37.4655007463
 20
214.6103425318
  0
VERTEX
  8
0
 62
9
  6
CONTINUOUS
 10
37.4480440857
 20
214.6060792426
  0
VERTEX
  8
0
 62
9
  6
CONTINUOUS
 10
37.4385520854
 20
214.6045009035
  0
VERTEX
  8
0
 62
9
  6
CONTINUOUS
 10
37.418244212
 20
214.6024171442
  0
VERTEX
  8
0
 62
9
  6
CONTINUOUS
 10
37.3962334965
 20
214.6017029252
  0
VERTEX
  8
0
 62
9
  6
CONTINUOUS
 10
37.3718571114
 20
214.6023578915
  0
VERTEX
  8
0
 62
9
  6
CONTINUOUS
 10
37.3441282112
 20
214.6045900044
  0
VERTEX
  8
0
 62
9
  6
CONTINUOUS
 10
37.3122574353
 20
214.6087934444
  0
VERTEX
  8
0
 62
9
  6
CONTINUOUS
 10
37.2746867048
 20
214.6157297613
  0
VERTEX
  8
0
 62
9
  6
CONTINUOUS
 10
37.2303898808
 20
214.6265371028
  0
VERTEX
  8
0
 62
9
  6
CONTINUOUS
 10
37.209206591
 20
214.6327662709
  0
SEQEND
  0
POLYLINE
  8
DEFAULT_2
 62
8
  6
HIDDEN
 66
1
 70
0
  0
VERTEX
  8
DEFAULT_2
 62
8
  6
HIDDEN
 10
35.7339993721
 20
214.6110970598
  0
VERTEX
  8
DEFAULT_2
 62
8
  6
HIDDEN
 10
35.7362500975
 20
214.5922823436
  0
VERTEX
  8
DEFAULT_2
 62
8
  6
HIDDEN
 10
35.7430149183
 20
214.5732050825
  0
VERTEX
  8
DEFAULT_2
 62
8
  6
HIDDEN
 10
35.7541983791
 20
214.5542172986
  0
SEQEND
  0
LINE
  8
0
 62
9
  6
CONTINUOUS
 10
41.4100207738
 20
213.2931741685
 11
41.4100207738
 21
213.0640977717
  0
LINE
  8
DEFAULT_2
 62
8
  6
HIDDEN
 10
41.4100207738
 20
212.6350213749
 11
41.4100207738
 21
212.8640977717
  0
LINE
  8
DEFAULT_2
 62
8
  6
HIDDEN
 10
41.4892286946
 20
213.7561769797
 11
41.5090306748
 21
213.8541967816
  0
POLYLINE
  8
DEFAULT_2
 62
8
  6
HIDDEN
 66
1
 70
0
  0
VERTEX
  8
DEFAULT_2
 62
8
  6
HIDDEN
 10
41.547842556
 20
214.1672474761
  0
VERTEX
  8
DEFAULT_2
 62
8
  6
HIDDEN
 10
41.5315174624
 20
214.1102146762
  0
VERTEX
  8
DEFAULT_2
 62
8
  6
HIDDEN
 10
41.5170787166
 20
214.0457984296
  0
VERTEX
  8
DEFAULT_2
 62
8
  6
HIDDEN
 10
41.5061946947
 20
213.9814419411
  0
VERTEX
  8
DEFAULT_2
 62
8
  6
HIDDEN
 10
41.5024991411
 20
213.9516341665
  0
VERTEX
  8
DEFAULT_2
 62
8
  6
HIDDEN
 10
41.4991355006
 20
213.9010711736
  0
VERTEX
  8
DEFAULT_2
 62
8
  6
HIDDEN
 10
41.5013998956
 20
213.8672909654
  0
VERTEX
  8
DEFAULT_2
 62
8
  6
HIDDEN
 10
41.5090306778
 20
213.8541967966
  0
SEQEND
  0
POLYLINE
  8
0
 62
9
  6
CONTINUOUS
 66
1
 70
0
  0
VERTEX
  8
0
 62
9
  6
CONTINUOUS
 10
37.3481530579
 20
214.8239678442
  0
VERTEX
  8
0
 62
9
  6
CONTINUOUS
 10
37.3324191466
 20
214.785908456
  0
VERTEX
  8
0
 62
9
  6
CONTINUOUS
 10
37.3011428283
 20
214.7371603436
  0
VERTEX
  8
0
 62
9
  6
CONTINUOUS
 10
37.2582693026
 20
214.6838722643
  0
VERTEX
  8
0
 62
9
  6
CONTINUOUS
 10
37.2092068079
 20
214.6327661905
  0
SEQEND
  0
POLYLINE
  8
0
 62
9
  6
CONTINUOUS
 66
1
 70
0
  0
VERTEX
  8
0
 62
9
  6
CONTINUOUS
 10
36.0718884838
 20
211.1042276667
  0
VERTEX
  8
0
 62
9
  6
CONTINUOUS
 10
36.0876224027
 20
211.1422870889
  0
VERTEX
  8
0
 62
9
  6
CONTINUOUS
 10
36.1188987206
 20
211.191035201
  0
VERTEX
  8
0
 62
9
  6
CONTINUOUS
 10
36.1617722461
 20
211.2443232801
  0
VERTEX
  8
0
 62
9
  6
CONTINUOUS
 10
36.2108347408
 20
211.295429354
  0
SEQEND
  0
POLYLINE
  8
0
 62
9
  6
CONTINUOUS
 66
1
 70
0
  0
VERTEX
  8
0
 62
9
  6
CONTINUOUS
 10
37.6186090146
 20
211.309268944
  0
VERTEX
  8
0
 62
9
  6
CONTINUOUS
 10
37.6405818708
 20
211.3597517449
  0
VERTEX
  8
0
 62
9
  6
CONTINUOUS
 10
37.6529293203
 20
211.4242439342
  0
VERTEX
  8
0
 62
9
  6
CONTINUOUS
 10
37.654063302
 20
211.4944509458
  0
VERTEX
  8
0
 62
9
  6
CONTINUOUS
 10
37.6438379576
 20
211.5613432103
  0
VERTEX
  8
0
 62
9
  6
CONTINUOUS
 10
37.6235683919
 20
211.6163174795
  0
VERTEX
  8
0
 62
9
  6
CONTINUOUS
 10
37.595861533
 20
211.6523033205
  0
VERTEX
  8
0
 62
9
  6
CONTINUOUS
 10
37.5642808471
 20
211.6646724683
  0
SEQEND
  0
POLYLINE
  8
DEFAULT_2
 62
8
  6
HIDDEN
 66
1
 70
0
  0
VERTEX
  8
DEFAULT_2
 62
8
  6
HIDDEN
 10
37.6186090146
 20
214.6189265994
  0
VERTEX
  8
DEFAULT_2
 62
8
  6
HIDDEN
 10
37.6405818708
 20
214.5684437985
  0
VERTEX
  8
DEFAULT_2
 62
8
  6
HIDDEN
 10
37.6529293203
 20
214.5039516093
  0
VERTEX
  8
DEFAULT_2
 62
8
  6
HIDDEN
 10
37.6540633019
 20
214.4337445977
  0
VERTEX
  8
DEFAULT_2
 62
8
  6
HIDDEN
 10
37.6438379576
 20
214.3668523332
  0
VERTEX
  8
DEFAULT_2
 62
8
  6
HIDDEN
 10
37.6235683919
 20
214.3118780639
  0
VERTEX
  8
DEFAULT_2
 62
8
  6
HIDDEN
 10
37.595861533
 20
214.2758922229
  0
VERTEX
  8
DEFAULT_2
 62
8
  6
HIDDEN
 10
37.5642808471
 20
214.2635230752
  0
SEQEND
  0
POLYLINE
  8
0
 62
9
  6
CONTINUOUS
 66
1
 70
0
  0
VERTEX
  8
0
 62
9
  6
CONTINUOUS
 10
41.547842556
 20
211.7609480674
  0
VERTEX
  8
0
 62
9
  6
CONTINUOUS
 10
41.5315174624
 20
211.8179808673
  0
VERTEX
  8
0
 62
9
  6
CONTINUOUS
 10
41.5170787166
 20
211.8823971139
  0
VERTEX
  8
0
 62
9
  6
CONTINUOUS
 10
41.5061946947
 20
211.9467536024
  0
VERTEX
  8
0
 62
9
  6
CONTINUOUS
 10
41.5024991411
 20
211.976561377
  0
VERTEX
  8
0
 62
9
  6
CONTINUOUS
 10
41.4991355006
 20
212.0271243699
  0
VERTEX
  8
0
 62
9
  6
CONTINUOUS
 10
41.5013998956
 20
212.0609045781
  0
VERTEX
  8
0
 62
9
  6
CONTINUOUS
 10
41.5090306778
 20
212.0739987468
  0
SEQEND
  0
LINE
  8
0
 62
9
  6
CONTINUOUS
 10
41.4892286946
 20
212.1720185638
 11
41.5090306748
 21
212.0739987618
  0
LINE
  8
DEFAULT_2
 62
8
  6
HIDDEN
 10
35.9172444547
 20
211.2962370371
 11
35.9106780766
 21
211.286375362
  0
POLYLINE
  8
DEFAULT_2
 62
8
  6
HIDDEN
 66
1
 70
0
  0
VERTEX
  8
DEFAULT_2
 62
8
  6
HIDDEN
 10
35.910679488
 20
214.6418173323
  0
VERTEX
  8
DEFAULT_2
 62
8
  6
HIDDEN
 10
35.9172472273
 20
214.6319553873
  0
VERTEX
  8
DEFAULT_2
 62
8
  6
HIDDEN
 10
35.9268772287
 20
214.6233321481
  0
SEQEND
  0
POLYLINE
  8
0
 62
9
  6
CONTINUOUS
 66
1
 70
0
  0
VERTEX
  8
0
 62
9
  6
CONTINUOUS
 10
36.918440316
 20
214.9013198981
  0
VERTEX
  8
0
 62
9
  6
CONTINUOUS
 10
36.9679577669
 20
214.9531823318
  0
VERTEX
  8
0
 62
9
  6
CONTINUOUS
 10
37.0110775235
 20
215.0071818826
  0
VERTEX
  8
0
 62
9
  6
CONTINUOUS
 10
37.0422285223
 20
215.0563418194
  0
VERTEX
  8
0
 62
9
  6
CONTINUOUS
 10
37.0573860608
 20
215.0943106885
  0
SEQEND
  0
LINE
  8
0
 62
7
  6
CONTINUOUS
 10
27.9100207738
 20
214.9140977717
 11
27.4100207738
 21
214.4140977717
  0
LINE
  8
0
 62
7
  6
CONTINUOUS
 10
27.9100207738
 20
211.0140977717
 11
27.4100207738
 21
211.5140977717
  0
POLYLINE
  8
0
 62
9
  6
CONTINUOUS
 66
1
 70
0
  0
VERTEX
  8
0
 62
9
  6
CONTINUOUS
 10
36.918440316
 20
211.0268756454
  0
VERTEX
  8
0
 62
9
  6
CONTINUOUS
 10
36.9679579567
 20
210.9750130986
  0
VERTEX
  8
0
 62
9
  6
CONTINUOUS
 10
37.0110779086
 20
210.9210133875
  0
VERTEX
  8
0
 62
9
  6
CONTINUOUS
 10
37.0422290643
 20
210.871853287
  0
VERTEX
  8
0
 62
9
  6
CONTINUOUS
 10
37.0573866876
 20
210.8338842931
  0
SEQEND
  0
POLYLINE
  8
0
 62
9
  6
CONTINUOUS
 66
1
 70
0
  0
VERTEX
  8
0
 62
9
  6
CONTINUOUS
 10
36.5016012316
 20
211.0268756454
  0
VERTEX
  8
0
 62
9
  6
CONTINUOUS
 10
36.4520835875
 20
210.9750130967
  0
VERTEX
  8
0
 62
9
  6
CONTINUOUS
 10
36.4089636325
 20
210.9210133832
  0
VERTEX
  8
0
 62
9
  6
CONTINUOUS
 10
36.3778124746
 20
210.8718532803
  0
VERTEX
  8
0
 62
9
  6
CONTINUOUS
 10
36.3626548504
 20
210.8338842844
  0
SEQEND
  0
LINE
  8
0
 62
7
  6
CONTINUOUS
 10
36.3626548702
 20
215.4237322097
 11
35.9076823239
 21
214.9842805527
  0
LINE
  8
0
 62
7
  6
CONTINUOUS
 10
37.5123592237
 20
210.9439149907
 11
37.0573866775
 21
210.5044633338
  0
LINE
  8
0
 62
9
  6
CONTINUOUS
 10
36.3626548702
 20
215.0943112414
 11
35.9076823239
 21
214.6703745866
  0
LINE
  8
0
 62
9
  6
CONTINUOUS
 10
36.5016012316
 20
214.9013198981
 11
36.2108349866
 21
214.6327659551
  0
LINE
  8
0
 62
9
  6
CONTINUOUS
 10
36.2108349866
 20
211.2954295883
 11
36.5016012316
 21
211.0268756454
  0
LINE
  8
0
 62
9
  6
CONTINUOUS
 10
35.9076823239
 20
211.2578209563
 11
36.3626548702
 21
210.8338843021
  0
LINE
  8
0
 62
7
  6
CONTINUOUS
 10
36.3626548702
 20
210.5044633338
 11
35.9076823239
 21
210.9439149907
  0
LINE
  8
0
 62
7
  6
CONTINUOUS
 10
37.5123592237
 20
214.9842805527
 11
37.0573866775
 21
215.4237322097
  0
POLYLINE
  8
0
 62
9
  6
CONTINUOUS
 66
1
 70
0
  0
VERTEX
  8
0
 62
9
  6
CONTINUOUS
 10
37.2092065611
 20
211.2954295883
  0
VERTEX
  8
0
 62
9
  6
CONTINUOUS
 10
37.2582693476
 20
211.2443232112
  0
VERTEX
  8
0
 62
9
  6
CONTINUOUS
 10
37.3011428779
 20
211.1910351067
  0
VERTEX
  8
0
 62
9
  6
CONTINUOUS
 10
37.3324191688
 20
211.1422870248
  0
VERTEX
  8
0
 62
9
  6
CONTINUOUS
 10
37.3481529378
 20
211.104228224
  0
SEQEND
  0
POLYLINE
  8
0
 62
9
  6
CONTINUOUS
 66
1
 70
0
  0
VERTEX
  8
0
 62
9
  6
CONTINUOUS
 10
36.2108349866
 20
214.6327659551
  0
VERTEX
  8
0
 62
9
  6
CONTINUOUS
 10
36.1617722485
 20
214.68387226
  0
VERTEX
  8
0
 62
9
  6
CONTINUOUS
 10
36.1188987224
 20
214.7371603391
  0
VERTEX
  8
0
 62
9
  6
CONTINUOUS
 10
36.0876224037
 20
214.7859084522
  0
VERTEX
  8
0
 62
9
  6
CONTINUOUS
 10
36.0718886135
 20
214.8239673162
  0
SEQEND
  0
POLYLINE
  8
0
 62
9
  6
CONTINUOUS
 66
1
 70
0
  0
VERTEX
  8
0
 62
9
  6
CONTINUOUS
 10
36.5016012316
 20
214.9013198981
  0
VERTEX
  8
0
 62
9
  6
CONTINUOUS
 10
36.4520835922
 20
214.953182444
  0
VERTEX
  8
0
 62
9
  6
CONTINUOUS
 10
36.408963642
 20
215.0071821536
  0
VERTEX
  8
0
 62
9
  6
CONTINUOUS
 10
36.3778124878
 20
215.0563422526
  0
VERTEX
  8
0
 62
9
  6
CONTINUOUS
 10
36.3626548655
 20
215.0943112455
  0
SEQEND
  0
LINE
  8
0
 62
9
  6
CONTINUOUS
 10
37.0573866775
 20
210.8338843021
 11
37.5123592237
 21
211.2578209561
  0
LINE
  8
0
 62
9
  6
CONTINUOUS
 10
36.918440316
 20
211.0268756454
 11
37.2092065611
 21
211.2954295883
  0
POLYLINE
  8
0
 62
9
  6
CONTINUOUS
 66
1
 70
0
  0
VERTEX
  8
0
 62
9
  6
CONTINUOUS
 10
36.3626548702
 20
210.8338843021
  0
VERTEX
  8
0
 62
9
  6
CONTINUOUS
 10
36.4651837416
 20
210.7634690838
  0
VERTEX
  8
0
 62
9
  6
CONTINUOUS
 10
36.5835319323
 20
210.7193493623
  0
VERTEX
  8
0
 62
9
  6
CONTINUOUS
 10
36.7100203137
 20
210.7043269622
  0
VERTEX
  8
0
 62
9
  6
CONTINUOUS
 10
36.8365088359
 20
210.7193492681
  0
VERTEX
  8
0
 62
9
  6
CONTINUOUS
 10
36.9548578534
 20
210.7634692287
  0
VERTEX
  8
0
 62
9
  6
CONTINUOUS
 10
37.0573866775
 20
210.8338843021
  0
SEQEND
  0
POLYLINE
  8
0
 62
9
  6
CONTINUOUS
 66
1
 70
0
  0
VERTEX
  8
0
 62
9
  6
CONTINUOUS
 10
36.5016012316
 20
211.0268756454
  0
VERTEX
  8
0
 62
9
  6
CONTINUOUS
 10
36.5631331037
 20
210.9831884482
  0
VERTEX
  8
0
 62
9
  6
CONTINUOUS
 10
36.6341538038
 20
210.955854784
  0
VERTEX
  8
0
 62
9
  6
CONTINUOUS
 10
36.7100533248
 20
210.9465596515
  0
VERTEX
  8
0
 62
9
  6
CONTINUOUS
 10
36.7859475701
 20
210.9558698545
  0
VERTEX
  8
0
 62
9
  6
CONTINUOUS
 10
36.8569540429
 20
210.9832132285
  0
VERTEX
  8
0
 62
9
  6
CONTINUOUS
 10
36.918440316
 20
211.0268756454
  0
SEQEND
  0
LINE
  8
0
 62
9
  6
CONTINUOUS
 10
37.2092065611
 20
214.6327659551
 11
36.918440316
 21
214.9013198981
  0
LINE
  8
0
 62
9
  6
CONTINUOUS
 10
37.5123592237
 20
214.6703745872
 11
37.0573866775
 21
215.0943112414
  0
POLYLINE
  8
0
 62
9
  6
CONTINUOUS
 66
1
 70
0
  0
VERTEX
  8
0
 62
9
  6
CONTINUOUS
 10
37.5123592237
 20
211.2578209463
  0
VERTEX
  8
0
 62
9
  6
CONTINUOUS
 10
37.5616974379
 20
211.289127079
  0
VERTEX
  8
0
 62
9
  6
CONTINUOUS
 10
37.618609028
 20
211.3092690503
  0
SEQEND
  0
POLYLINE
  8
0
 62
9
  6
CONTINUOUS
 66
1
 70
0
  0
VERTEX
  8
0
 62
9
  6
CONTINUOUS
 10
35.9076823239
 20
214.6703745924
  0
VERTEX
  8
0
 62
9
  6
CONTINUOUS
 10
35.8451719399
 20
214.6331237888
  0
VERTEX
  8
0
 62
9
  6
CONTINUOUS
 10
35.8096016237
 20
214.6209837447
  0
VERTEX
  8
0
 62
9
  6
CONTINUOUS
 10
35.7339993721
 20
214.6110971518
  0
SEQEND
  0
LINE
  8
DEFAULT_2
 62
8
  6
HIDDEN
 10
37.4806477207
 20
214.6161014679
 11
37.493167738
 21
214.6233346492
  0
POLYLINE
  8
DEFAULT_2
 62
8
  6
HIDDEN
 66
1
 70
0
  0
VERTEX
  8
DEFAULT_2
 62
8
  6
HIDDEN
 10
37.4931653873
 20
211.3048626201
  0
VERTEX
  8
DEFAULT_2
 62
8
  6
HIDDEN
 10
37.4806436541
 20
211.3120960178
  0
VERTEX
  8
DEFAULT_2
 62
8
  6
HIDDEN
 10
37.4655007463
 20
211.3178530117
  0
VERTEX
  8
DEFAULT_2
 62
8
  6
HIDDEN
 10
37.4480440857
 20
211.3221163008
  0
SEQEND
  0
POLYLINE
  8
0
 62
9
  6
CONTINUOUS
 66
1
 70
0
  0
VERTEX
  8
0
 62
9
  6
CONTINUOUS
 10
35.9076823239
 20
211.2578209497
  0
VERTEX
  8
0
 62
9
  6
CONTINUOUS
 10
35.8451719427
 20
211.2950717526
  0
VERTEX
  8
0
 62
9
  6
CONTINUOUS
 10
35.8096016234
 20
211.3072117982
  0
VERTEX
  8
0
 62
9
  6
CONTINUOUS
 10
35.7339993721
 20
211.3170983914
  0
SEQEND
  0
POLYLINE
  8
DEFAULT_2
 62
8
  6
HIDDEN
 66
1
 70
0
  0
VERTEX
  8
DEFAULT_2
 62
8
  6
HIDDEN
 10
37.5123592237
 20
214.6703745972
  0
VERTEX
  8
DEFAULT_2
 62
8
  6
HIDDEN
 10
37.5616974383
 20
214.6390684643
  0
VERTEX
  8
DEFAULT_2
 62
8
  6
HIDDEN
 10
37.618609028
 20
214.6189264931
  0
SEQEND
  0
POLYLINE
  8
0
 62
9
  6
CONTINUOUS
 66
1
 70
0
  0
VERTEX
  8
0
 62
9
  6
CONTINUOUS
 10
37.0573866775
 20
215.0943112414
  0
VERTEX
  8
0
 62
9
  6
CONTINUOUS
 10
36.9548578534
 20
215.1647263148
  0
VERTEX
  8
0
 62
9
  6
CONTINUOUS
 10
36.8365088359
 20
215.2088462754
  0
VERTEX
  8
0
 62
9
  6
CONTINUOUS
 10
36.7100203137
 20
215.2238685813
  0
VERTEX
  8
0
 62
9
  6
CONTINUOUS
 10
36.5835319323
 20
215.2088461811
  0
VERTEX
  8
0
 62
9
  6
CONTINUOUS
 10
36.4651837416
 20
215.1647264597
  0
VERTEX
  8
0
 62
9
  6
CONTINUOUS
 10
36.3626548702
 20
215.0943112414
  0
SEQEND
  0
POLYLINE
  8
0
 62
9
  6
CONTINUOUS
 66
1
 70
0
  0
VERTEX
  8
0
 62
9
  6
CONTINUOUS
 10
36.918440316
 20
214.9013198981
  0
VERTEX
  8
0
 62
9
  6
CONTINUOUS
 10
36.8569540429
 20
214.9449823151
  0
VERTEX
  8
0
 62
9
  6
CONTINUOUS
 10
36.7859475701
 20
214.972325689
  0
VERTEX
  8
0
 62
9
  6
CONTINUOUS
 10
36.7100533248
 20
214.9816358919
  0
VERTEX
  8
0
 62
9
  6
CONTINUOUS
 10
36.6341538038
 20
214.9723407595
  0
VERTEX
  8
0
 62
9
  6
CONTINUOUS
 10
36.5631331037
 20
214.9450070952
  0
VERTEX
  8
0
 62
9
  6
CONTINUOUS
 10
36.5016012316
 20
214.9013198981
  0
SEQEND
  0
POLYLINE
  8
DEFAULT_2
 62
8
  6
HIDDEN
 66
1
 70
0
  0
VERTEX
  8
DEFAULT_2
 62
8
  6
HIDDEN
 10
37.5123592237
 20
211.257820949
  0
VERTEX
  8
DEFAULT_2
 62
8
  6
HIDDEN
 10
37.5748696007
 20
211.2950717505
  0
VERTEX
  8
DEFAULT_2
 62
8
  6
HIDDEN
 10
37.6104399213
 20
211.3072117972
  0
VERTEX
  8
DEFAULT_2
 62
8
  6
HIDDEN
 10
37.6860421756
 20
211.3170983914
  0
SEQEND
  0
LINE
  8
DEFAULT_2
 62
8
  6
HIDDEN
 10
35.9393929663
 20
211.312093717
 11
35.9268728904
 21
211.3048603125
  0
POLYLINE
  8
0
 62
9
  6
CONTINUOUS
 66
1
 70
0
  0
VERTEX
  8
0
 62
9
  6
CONTINUOUS
 10
37.5123592237
 20
214.6703745945
  0
VERTEX
  8
0
 62
9
  6
CONTINUOUS
 10
37.5748696007
 20
214.633123793
  0
VERTEX
  8
0
 62
9
  6
CONTINUOUS
 10
37.6104399213
 20
214.6209837463
  0
VERTEX
  8
0
 62
9
  6
CONTINUOUS
 10
37.6860421756
 20
214.611097152
  0
SEQEND
  0
POLYLINE
  8
DEFAULT_2
 62
8
  6
HIDDEN
 66
1
 70
0
  0
VERTEX
  8
DEFAULT_2
 62
8
  6
HIDDEN
 10
37.6186089983
 20
214.6189265504
  0
VERTEX
  8
DEFAULT_2
 62
8
  6
HIDDEN
 10
37.6059906791
 20
214.6131313947
  0
VERTEX
  8
DEFAULT_2
 62
8
  6
HIDDEN
 10
37.5755067306
 20
214.5935352306
  0
VERTEX
  8
DEFAULT_2
 62
8
  6
HIDDEN
 10
37.5246584507
 20
214.5637406162
  0
VERTEX
  8
DEFAULT_2
 62
8
  6
HIDDEN
 10
37.4894961698
 20
214.5491615493
  0
VERTEX
  8
DEFAULT_2
 62
8
  6
HIDDEN
 10
37.3982142716
 20
214.5258275412
  0
VERTEX
  8
DEFAULT_2
 62
8
  6
HIDDEN
 10
37.2782836117
 20
214.5129999537
  0
VERTEX
  8
DEFAULT_2
 62
8
  6
HIDDEN
 10
37.2092047496
 20
214.5112158371
  0
SEQEND
  0
POLYLINE
  8
0
 62
9
  6
CONTINUOUS
 66
1
 70
0
  0
VERTEX
  8
0
 62
9
  6
CONTINUOUS
 10
37.6186089983
 20
211.3092689931
  0
VERTEX
  8
0
 62
9
  6
CONTINUOUS
 10
37.6059906791
 20
211.3150641488
  0
VERTEX
  8
0
 62
9
  6
CONTINUOUS
 10
37.5755067306
 20
211.3346603128
  0
VERTEX
  8
0
 62
9
  6
CONTINUOUS
 10
37.5246584507
 20
211.3644549272
  0
VERTEX
  8
0
 62
9
  6
CONTINUOUS
 10
37.4894961698
 20
211.3790339942
  0
VERTEX
  8
0
 62
9
  6
CONTINUOUS
 10
37.3982142716
 20
211.4023680023
  0
VERTEX
  8
0
 62
9
  6
CONTINUOUS
 10
37.2782836117
 20
211.4151955897
  0
VERTEX
  8
0
 62
9
  6
CONTINUOUS
 10
37.2092047496
 20
211.4169797064
  0
SEQEND
  0
POLYLINE
  8
DEFAULT_2
 62
8
  6
HIDDEN
 66
1
 70
0
  0
VERTEX
  8
DEFAULT_2
 62
8
  6
HIDDEN
 10
33.2721989916
 20
214.1672475736
  0
VERTEX
  8
DEFAULT_2
 62
8
  6
HIDDEN
 10
33.136938012
 20
214.1205218424
  0
VERTEX
  8
DEFAULT_2
 62
8
  6
HIDDEN
 10
32.9995318679
 20
214.0336663056
  0
VERTEX
  8
DEFAULT_2
 62
8
  6
HIDDEN
 10
32.8742075658
 20
213.9026411833
  0
VERTEX
  8
DEFAULT_2
 62
8
  6
HIDDEN
 10
32.7795170665
 20
213.7364889597
  0
VERTEX
  8
DEFAULT_2
 62
8
  6
HIDDEN
 10
32.7262555522
 20
213.5532400442
  0
VERTEX
  8
DEFAULT_2
 62
8
  6
HIDDEN
 10
32.7150791978
 20
213.3661452596
  0
VERTEX
  8
DEFAULT_2
 62
8
  6
HIDDEN
 10
32.7246473363
 20
213.2741004018
  0
VERTEX
  8
DEFAULT_2
 62
8
  6
HIDDEN
 10
32.7725078193
 20
213.0983158313
  0
VERTEX
  8
DEFAULT_2
 62
8
  6
HIDDEN
 10
32.8563913522
 20
212.9398681093
  0
VERTEX
  8
DEFAULT_2
 62
8
  6
HIDDEN
 10
32.9713264537
 20
212.8080798545
  0
VERTEX
  8
DEFAULT_2
 62
8
  6
HIDDEN
 10
33.1077310811
 20
212.7118135813
  0
VERTEX
  8
DEFAULT_2
 62
8
  6
HIDDEN
 10
33.257424845
 20
212.6538479762
  0
VERTEX
  8
DEFAULT_2
 62
8
  6
HIDDEN
 10
33.4100207738
 20
212.6350213749
  0
SEQEND
  0
POLYLINE
  8
0
 62
9
  6
CONTINUOUS
 66
1
 70
0
  0
VERTEX
  8
0
 62
9
  6
CONTINUOUS
 10
36.2108349637
 20
214.6327662691
  0
VERTEX
  8
0
 62
9
  6
CONTINUOUS
 10
36.1896156895
 20
214.6265271352
  0
VERTEX
  8
0
 62
9
  6
CONTINUOUS
 10
36.1453177148
 20
214.6157218912
  0
VERTEX
  8
0
 62
9
  6
CONTINUOUS
 10
36.1077566192
 20
214.6087891252
  0
VERTEX
  8
0
 62
9
  6
CONTINUOUS
 10
36.0758914045
 20
214.6045876913
  0
VERTEX
  8
0
 62
9
  6
CONTINUOUS
 10
36.0481669116
 20
214.6023569649
  0
VERTEX
  8
0
 62
9
  6
CONTINUOUS
 10
36.023794097
 20
214.601702974
  0
VERTEX
  8
0
 62
9
  6
CONTINUOUS
 10
36.0017848433
 20
214.6024179885
  0
VERTEX
  8
0
 62
9
  6
CONTINUOUS
 10
35.9814796632
 20
214.6045023337
  0
VERTEX
  8
0
 62
9
  6
CONTINUOUS
 10
35.9719886225
 20
214.6060809453
  0
VERTEX
  8
0
 62
9
  6
CONTINUOUS
 10
35.9545340008
 20
214.6103446244
  0
VERTEX
  8
0
 62
9
  6
CONTINUOUS
 10
35.9393929663
 20
214.6161018265
  0
VERTEX
  8
0
 62
9
  6
CONTINUOUS
 10
35.9268728903
 20
214.623335231
  0
VERTEX
  8
0
 62
9
  6
CONTINUOUS
 10
35.9172444547
 20
214.6319585064
  0
VERTEX
  8
0
 62
9
  6
CONTINUOUS
 10
35.9106780766
 20
214.6418201815
  0
VERTEX
  8
0
 62
9
  6
CONTINUOUS
 10
35.9072235341
 20
214.6527033355
  0
VERTEX
  8
0
 62
9
  6
CONTINUOUS
 10
35.9068038828
 20
214.6643487655
  0
VERTEX
  8
0
 62
9
  6
CONTINUOUS
 10
35.907682379
 20
214.6703746334
  0
SEQEND
  0
POLYLINE
  8
0
 62
9
  6
CONTINUOUS
 66
1
 70
0
  0
VERTEX
  8
0
 62
9
  6
CONTINUOUS
 10
33.2721989916
 20
211.7609479699
  0
VERTEX
  8
0
 62
9
  6
CONTINUOUS
 10
33.136938012
 20
211.8076737011
  0
VERTEX
  8
0
 62
9
  6
CONTINUOUS
 10
32.9995318679
 20
211.8945292378
  0
VERTEX
  8
0
 62
9
  6
CONTINUOUS
 10
32.8742075658
 20
212.0255543602
  0
VERTEX
  8
0
 62
9
  6
CONTINUOUS
 10
32.7795170665
 20
212.1917065837
  0
VERTEX
  8
0
 62
9
  6
CONTINUOUS
 10
32.7262555522
 20
212.3749554993
  0
VERTEX
  8
0
 62
9
  6
CONTINUOUS
 10
32.7150791978
 20
212.5620502838
  0
VERTEX
  8
0
 62
9
  6
CONTINUOUS
 10
32.7246473362
 20
212.6540951416
  0
VERTEX
  8
0
 62
9
  6
CONTINUOUS
 10
32.7725078193
 20
212.8298797121
  0
VERTEX
  8
0
 62
9
  6
CONTINUOUS
 10
32.8563913522
 20
212.9883274341
  0
VERTEX
  8
0
 62
9
  6
CONTINUOUS
 10
32.9713264537
 20
213.120115689
  0
VERTEX
  8
0
 62
9
  6
CONTINUOUS
 10
33.1077310811
 20
213.2163819622
  0
VERTEX
  8
0
 62
9
  6
CONTINUOUS
 10
33.257424845
 20
213.2743475672
  0
VERTEX
  8
0
 62
9
  6
CONTINUOUS
 10
33.4100207738
 20
213.2931741685
  0
SEQEND
  0
POLYLINE
  8
DEFAULT_2
 62
8
  6
HIDDEN
 66
1
 70
0
  0
VERTEX
  8
DEFAULT_2
 62
8
  6
HIDDEN
 10
35.9393991067
 20
214.6160989469
  0
VERTEX
  8
DEFAULT_2
 62
8
  6
HIDDEN
 10
35.9545420881
 20
214.6103421278
  0
VERTEX
  8
DEFAULT_2
 62
8
  6
HIDDEN
 10
35.9719987557
 20
214.6060789876
  0
SEQEND
  0
POLYLINE
  8
0
 62
9
  6
CONTINUOUS
 66
1
 70
0
  0
VERTEX
  8
0
 62
9
  6
CONTINUOUS
 10
37.2092065888
 20
211.29542927
  0
VERTEX
  8
0
 62
9
  6
CONTINUOUS
 10
37.2304243852
 20
211.3016679965
  0
VERTEX
  8
0
 62
9
  6
CONTINUOUS
 10
37.2747204462
 20
211.3124729338
  0
VERTEX
  8
0
 62
9
  6
CONTINUOUS
 10
37.3122834556
 20
211.3194061902
  0
VERTEX
  8
0
 62
9
  6
CONTINUOUS
 10
37.3441491393
 20
211.3236077534
  0
VERTEX
  8
0
 62
9
  6
CONTINUOUS
 10
37.3718733691
 20
211.3258385206
  0
VERTEX
  8
0
 62
9
  6
CONTINUOUS
 10
37.3962447426
 20
211.3264925853
  0
VERTEX
  8
0
 62
9
  6
CONTINUOUS
 10
37.4182603746
 20
211.3257773212
  0
VERTEX
  8
0
 62
9
  6
CONTINUOUS
 10
37.4385590059
 20
211.3236936233
  0
VERTEX
  8
0
 62
9
  6
CONTINUOUS
 10
37.4480512176
 20
211.3221149176
  0
VERTEX
  8
0
 62
9
  6
CONTINUOUS
 10
37.4655068209
 20
211.3178511197
  0
VERTEX
  8
0
 62
9
  6
CONTINUOUS
 10
37.4806477207
 20
211.3120940755
  0
VERTEX
  8
0
 62
9
  6
CONTINUOUS
 10
37.493167738
 20
211.3048608943
  0
VERTEX
  8
0
 62
9
  6
CONTINUOUS
 10
37.5027962594
 20
211.2962378711
  0
VERTEX
  8
0
 62
9
  6
CONTINUOUS
 10
37.5093628946
 20
211.2863763719
  0
VERTEX
  8
0
 62
9
  6
CONTINUOUS
 10
37.5128176818
 20
211.2754937512
  0
VERTEX
  8
0
 62
9
  6
CONTINUOUS
 10
37.5132376701
 20
211.2638473644
  0
VERTEX
  8
0
 62
9
  6
CONTINUOUS
 10
37.5123591397
 20
211.2578208703
  0
SEQEND
  0
POLYLINE
  8
DEFAULT_2
 62
8
  6
HIDDEN
 66
1
 70
0
  0
VERTEX
  8
DEFAULT_2
 62
8
  6
HIDDEN
 10
36.1896156895
 20
211.3016684082
  0
VERTEX
  8
DEFAULT_2
 62
8
  6
HIDDEN
 10
36.1453177148
 20
211.3124736523
  0
VERTEX
  8
DEFAULT_2
 62
8
  6
HIDDEN
 10
36.1077566192
 20
211.3194064183
  0
SEQEND
  0
POLYLINE
  8
DEFAULT_2
 62
8
  6
HIDDEN
 66
1
 70
0
  0
VERTEX
  8
DEFAULT_2
 62
8
  6
HIDDEN
 10
37.2304243852
 20
214.626527547
  0
VERTEX
  8
DEFAULT_2
 62
8
  6
HIDDEN
 10
37.2747204462
 20
214.6157226097
  0
VERTEX
  8
DEFAULT_2
 62
8
  6
HIDDEN
 10
37.3122834556
 20
214.6087893532
  0
SEQEND
  0
POLYLINE
  8
0
 62
9
  6
CONTINUOUS
 66
1
 70
0
  0
VERTEX
  8
0
 62
9
  6
CONTINUOUS
 10
35.7541983796
 20
211.3739782448
  0
VERTEX
  8
0
 62
9
  6
CONTINUOUS
 10
34.4287345818
 20
211.5385816649
  0
VERTEX
  8
0
 62
9
  6
CONTINUOUS
 10
33.2721989916
 20
211.7609479699
  0
SEQEND
  0
POLYLINE
  8
DEFAULT_2
 62
8
  6
HIDDEN
 66
1
 70
0
  0
VERTEX
  8
DEFAULT_2
 62
8
  6
HIDDEN
 10
41.547842556
 20
214.1672475736
  0
VERTEX
  8
DEFAULT_2
 62
8
  6
HIDDEN
 10
40.3326701446
 20
214.3989155535
  0
VERTEX
  8
DEFAULT_2
 62
8
  6
HIDDEN
 10
38.933117312
 20
214.5654752855
  0
VERTEX
  8
DEFAULT_2
 62
8
  6
HIDDEN
 10
37.6860421756
 20
214.6252408438
  0
SEQEND
  0
POLYLINE
  8
DEFAULT_2
 62
8
  6
HIDDEN
 66
1
 70
0
  0
VERTEX
  8
DEFAULT_2
 62
8
  6
HIDDEN
 10
36.0758914045
 20
211.3236078521
  0
VERTEX
  8
DEFAULT_2
 62
8
  6
HIDDEN
 10
36.0481669116
 20
211.3258385786
  0
VERTEX
  8
DEFAULT_2
 62
8
  6
HIDDEN
 10
36.023794097
 20
211.3264925695
  0
VERTEX
  8
DEFAULT_2
 62
8
  6
HIDDEN
 10
36.0017848433
 20
211.3257775549
  0
VERTEX
  8
DEFAULT_2
 62
8
  6
HIDDEN
 10
35.9814796632
 20
211.3236932097
  0
VERTEX
  8
DEFAULT_2
 62
8
  6
HIDDEN
 10
35.9719886225
 20
211.3221145982
  0
VERTEX
  8
DEFAULT_2
 62
8
  6
HIDDEN
 10
35.9545340008
 20
211.3178509191
  0
SEQEND
  0
POLYLINE
  8
DEFAULT_2
 62
8
  6
HIDDEN
 66
1
 70
0
  0
VERTEX
  8
DEFAULT_2
 62
8
  6
HIDDEN
 10
37.4385520854
 20
211.3236946399
  0
VERTEX
  8
DEFAULT_2
 62
8
  6
HIDDEN
 10
37.418244212
 20
211.3257783993
  0
VERTEX
  8
DEFAULT_2
 62
8
  6
HIDDEN
 10
37.3962334965
 20
211.3264926183
  0
SEQEND
  0
POLYLINE
  8
DEFAULT_2
 62
8
  6
HIDDEN
 66
1
 70
0
  0
VERTEX
  8
DEFAULT_2
 62
8
  6
HIDDEN
 10
35.9814907412
 20
214.6045007118
  0
VERTEX
  8
DEFAULT_2
 62
8
  6
HIDDEN
 10
36.0017985198
 20
214.6024170604
  0
VERTEX
  8
DEFAULT_2
 62
8
  6
HIDDEN
 10
36.0238091822
 20
214.6017029191
  0
SEQEND
  0
POLYLINE
  8
0
 62
9
  6
CONTINUOUS
 66
1
 70
0
  0
VERTEX
  8
0
 62
9
  6
CONTINUOUS
 10
41.4100207738
 20
213.2931741685
  0
VERTEX
  8
0
 62
9
  6
CONTINUOUS
 10
41.5631933607
 20
213.274203259
  0
VERTEX
  8
0
 62
9
  6
CONTINUOUS
 10
41.7127955726
 20
213.2161217531
  0
VERTEX
  8
0
 62
9
  6
CONTINUOUS
 10
41.8489921319
 20
213.1198654646
  0
VERTEX
  8
0
 62
9
  6
CONTINUOUS
 10
41.9637493325
 20
212.9881821958
  0
VERTEX
  8
0
 62
9
  6
CONTINUOUS
 10
42.0474707312
 20
212.8300384801
  0
VERTEX
  8
0
 62
9
  6
CONTINUOUS
 10
42.0953624387
 20
212.654294763
  0
VERTEX
  8
0
 62
9
  6
CONTINUOUS
 10
42.1049491849
 20
212.5623190503
  0
VERTEX
  8
0
 62
9
  6
CONTINUOUS
 10
42.0938782711
 20
212.3754945271
  0
VERTEX
  8
0
 62
9
  6
CONTINUOUS
 10
42.0407849876
 20
212.1923268125
  0
VERTEX
  8
0
 62
9
  6
CONTINUOUS
 10
41.9462408995
 20
212.0261011438
  0
VERTEX
  8
0
 62
9
  6
CONTINUOUS
 10
41.8210152712
 20
211.8949405125
  0
VERTEX
  8
0
 62
9
  6
CONTINUOUS
 10
41.6835388388
 20
211.8078800461
  0
VERTEX
  8
0
 62
9
  6
CONTINUOUS
 10
41.547842556
 20
211.7609479699
  0
SEQEND
  0
POLYLINE
  8
0
 62
9
  6
CONTINUOUS
 66
1
 70
0
  0
VERTEX
  8
0
 62
9
  6
CONTINUOUS
 10
36.2108393476
 20
211.4338851678
  0
VERTEX
  8
0
 62
9
  6
CONTINUOUS
 10
36.0687287909
 20
211.4313159214
  0
VERTEX
  8
0
 62
9
  6
CONTINUOUS
 10
35.9571576835
 20
211.4172906414
  0
VERTEX
  8
0
 62
9
  6
CONTINUOUS
 10
35.8774926241
 20
211.3988702805
  0
VERTEX
  8
0
 62
9
  6
CONTINUOUS
 10
35.8239356676
 20
211.3844478098
  0
VERTEX
  8
0
 62
9
  6
CONTINUOUS
 10
35.7859294234
 20
211.3767734219
  0
VERTEX
  8
0
 62
9
  6
CONTINUOUS
 10
35.7541983355
 20
211.3739781996
  0
SEQEND
  0
POLYLINE
  8
DEFAULT_2
 62
8
  6
HIDDEN
 66
1
 70
0
  0
VERTEX
  8
DEFAULT_2
 62
8
  6
HIDDEN
 10
36.210840222
 20
211.5126954304
  0
VERTEX
  8
DEFAULT_2
 62
8
  6
HIDDEN
 10
36.1825119937
 20
211.5125251256
  0
VERTEX
  8
DEFAULT_2
 62
8
  6
HIDDEN
 10
36.1222038417
 20
211.510560357
  0
VERTEX
  8
DEFAULT_2
 62
8
  6
HIDDEN
 10
36.0696283291
 20
211.5064233903
  0
VERTEX
  8
DEFAULT_2
 62
8
  6
HIDDEN
 10
36.0238103591
 20
211.5005052058
  0
VERTEX
  8
DEFAULT_2
 62
8
  6
HIDDEN
 10
35.9828857876
 20
211.4930496031
  0
VERTEX
  8
DEFAULT_2
 62
8
  6
HIDDEN
 10
35.9459522396
 20
211.4842487388
  0
VERTEX
  8
DEFAULT_2
 62
8
  6
HIDDEN
 10
35.911685529
 20
211.4739929317
  0
VERTEX
  8
DEFAULT_2
 62
8
  6
HIDDEN
 10
35.8791317354
 20
211.461985883
  0
VERTEX
  8
DEFAULT_2
 62
8
  6
HIDDEN
 10
35.8635388392
 20
211.4552932716
  0
VERTEX
  8
DEFAULT_2
 62
8
  6
HIDDEN
 10
35.8340668181
 20
211.4405644971
  0
VERTEX
  8
DEFAULT_2
 62
8
  6
HIDDEN
 10
35.8073756402
 20
211.4241535004
  0
VERTEX
  8
DEFAULT_2
 62
8
  6
HIDDEN
 10
35.7840569967
 20
211.4062624011
  0
VERTEX
  8
DEFAULT_2
 62
8
  6
HIDDEN
 10
35.7646990328
 20
211.3872049266
  0
VERTEX
  8
DEFAULT_2
 62
8
  6
HIDDEN
 10
35.7497902068
 20
211.3673604608
  0
VERTEX
  8
DEFAULT_2
 62
8
  6
HIDDEN
 10
35.7396964407
 20
211.3471544588
  0
VERTEX
  8
DEFAULT_2
 62
8
  6
HIDDEN
 10
35.7346298145
 20
211.3270158921
  0
VERTEX
  8
DEFAULT_2
 62
8
  6
HIDDEN
 10
35.7339993721
 20
211.3170984064
  0
SEQEND
  0
LINE
  8
0
 62
7
  6
CONTINUOUS
 10
204.2553212784
 20
211.0140977717
 11
37.6860421756
 21
211.0140977717
  0
LINE
  8
0
 62
7
  6
CONTINUOUS
 10
35.7339993721
 20
211.0140977717
 11
27.9100207738
 21
211.0140977717
  0
LINE
  8
0
 62
9
  6
CONTINUOUS
 10
36.2108349866
 20
211.2954295883
 11
37.2092065611
 21
211.2954295883
  0
LINE
  8
DEFAULT_2
 62
8
  6
HIDDEN
 10
37.2091942791
 20
211.5126954727
 11
36.210840222
 21
211.5126954304
  0
LINE
  8
DEFAULT_2
 62
8
  6
HIDDEN
 10
33.4100207738
 20
212.6350213749
 11
41.4100207738
 21
212.6350213749
  0
LINE
  8
0
 62
7
  6
CONTINUOUS
 10
41.4100207738
 20
212.8640977717
 11
33.4100207738
 21
212.8640977717
  0
LINE
  8
DEFAULT_1
 62
2
  6
CENTER
 10
372.052734375
 20
212.9640977717
 11
22.4100207738
 21
212.9640977717
  0
LINE
  8
0
 62
7
  6
CONTINUOUS
 10
33.4100207738
 20
213.0640977717
 11
41.4100207738
 21
213.0640977717
  0
LINE
  8
0
 62
9
  6
CONTINUOUS
 10
33.4100207738
 20
213.2931741685
 11
41.4100207738
 21
213.2931741685
  0
POLYLINE
  8
0
 62
9
  6
CONTINUOUS
 66
1
 70
0
  0
VERTEX
  8
0
 62
9
  6
CONTINUOUS
 10
37.2092047496
 20
211.416979653
  0
VERTEX
  8
0
 62
9
  6
CONTINUOUS
 10
36.876266192
 20
211.4199357375
  0
VERTEX
  8
0
 62
9
  6
CONTINUOUS
 10
36.5434656076
 20
211.425570926
  0
VERTEX
  8
0
 62
9
  6
CONTINUOUS
 10
36.2108393476
 20
211.4338850948
  0
SEQEND
  0
POLYLINE
  8
DEFAULT_2
 62
8
  6
HIDDEN
 66
1
 70
0
  0
VERTEX
  8
DEFAULT_2
 62
8
  6
HIDDEN
 10
36.2108393476
 20
214.4943103757
  0
VERTEX
  8
DEFAULT_2
 62
8
  6
HIDDEN
 10
36.0687287908
 20
214.496879622
  0
VERTEX
  8
DEFAULT_2
 62
8
  6
HIDDEN
 10
35.9571576835
 20
214.5109049021
  0
VERTEX
  8
DEFAULT_2
 62
8
  6
HIDDEN
 10
35.8774926241
 20
214.529325263
  0
VERTEX
  8
DEFAULT_2
 62
8
  6
HIDDEN
 10
35.8239356676
 20
214.5437477336
  0
VERTEX
  8
DEFAULT_2
 62
8
  6
HIDDEN
 10
35.7859294234
 20
214.5514221216
  0
VERTEX
  8
DEFAULT_2
 62
8
  6
HIDDEN
 10
35.7541983356
 20
214.5542173439
  0
SEQEND
  0
POLYLINE
  8
0
 62
9
  6
CONTINUOUS
 66
1
 70
0
  0
VERTEX
  8
0
 62
9
  6
CONTINUOUS
 10
37.6860421756
 20
211.3029546997
  0
VERTEX
  8
0
 62
9
  6
CONTINUOUS
 10
37.6606851535
 20
211.3034238324
  0
VERTEX
  8
0
 62
9
  6
CONTINUOUS
 10
37.6473302408
 20
211.3045864568
  0
VERTEX
  8
0
 62
9
  6
CONTINUOUS
 10
37.618609028
 20
211.3092690503
  0
SEQEND
  0
POLYLINE
  8
DEFAULT_2
 62
8
  6
HIDDEN
 66
1
 70
0
  0
VERTEX
  8
DEFAULT_2
 62
8
  6
HIDDEN
 10
37.3962447426
 20
214.6017029582
  0
VERTEX
  8
DEFAULT_2
 62
8
  6
HIDDEN
 10
37.4182603746
 20
214.6024182223
  0
VERTEX
  8
DEFAULT_2
 62
8
  6
HIDDEN
 10
37.4385590059
 20
214.6045019202
  0
SEQEND
  0
POLYLINE
  8
DEFAULT_2
 62
8
  6
HIDDEN
 66
1
 70
0
  0
VERTEX
  8
DEFAULT_2
 62
8
  6
HIDDEN
 10
37.6860421756
 20
214.6252408438
  0
VERTEX
  8
DEFAULT_2
 62
8
  6
HIDDEN
 10
37.6606851535
 20
214.624771711
  0
VERTEX
  8
DEFAULT_2
 62
8
  6
HIDDEN
 10
37.6473302408
 20
214.6236090867
  0
VERTEX
  8
DEFAULT_2
 62
8
  6
HIDDEN
 10
37.618609028
 20
214.6189264931
  0
SEQEND
  0
POLYLINE
  8
DEFAULT_2
 62
8
  6
HIDDEN
 66
1
 70
0
  0
VERTEX
  8
DEFAULT_2
 62
8
  6
HIDDEN
 10
37.2092047496
 20
214.5112158905
  0
VERTEX
  8
DEFAULT_2
 62
8
  6
HIDDEN
 10
36.876266192
 20
214.508259806
  0
VERTEX
  8
DEFAULT_2
 62
8
  6
HIDDEN
 10
36.5434656076
 20
214.5026246175
  0
VERTEX
  8
DEFAULT_2
 62
8
  6
HIDDEN
 10
36.2108393476
 20
214.4943104487
  0
SEQEND
  0
LINE
  8
0
 62
9
  6
CONTINUOUS
 10
37.2092013983
 20
214.4155001135
 11
36.2108473468
 21
214.4155000702
  0
LINE
  8
0
 62
9
  6
CONTINUOUS
 10
37.2092065611
 20
214.6327659551
 11
36.2108349866
 21
214.6327659551
  0
LINE
  8
0
 62
7
  6
CONTINUOUS
 10
204.2553212784
 20
214.9140977717
 11
37.6860421756
 21
214.9140977717
  0
LINE
  8
0
 62
7
  6
CONTINUOUS
 10
35.7339993721
 20
214.9140977717
 11
27.9100207738
 21
214.9140977717
  0
POLYLINE
  8
0
 62
9
  6
CONTINUOUS
 66
1
 70
0
  0
VERTEX
  8
0
 62
9
  6
CONTINUOUS
 10
36.2108473468
 20
214.4155000702
  0
VERTEX
  8
0
 62
9
  6
CONTINUOUS
 10
36.1825119937
 20
214.4156704178
  0
VERTEX
  8
0
 62
9
  6
CONTINUOUS
 10
36.1222038417
 20
214.4176351865
  0
VERTEX
  8
0
 62
9
  6
CONTINUOUS
 10
36.0696283291
 20
214.4217721532
  0
VERTEX
  8
0
 62
9
  6
CONTINUOUS
 10
36.0238103591
 20
214.4276903376
  0
VERTEX
  8
0
 62
9
  6
CONTINUOUS
 10
35.9828857876
 20
214.4351459404
  0
VERTEX
  8
0
 62
9
  6
CONTINUOUS
 10
35.9459522396
 20
214.4439468047
  0
VERTEX
  8
0
 62
9
  6
CONTINUOUS
 10
35.911685529
 20
214.4542026118
  0
VERTEX
  8
0
 62
9
  6
CONTINUOUS
 10
35.8791317354
 20
214.4662096605
  0
VERTEX
  8
0
 62
9
  6
CONTINUOUS
 10
35.8635388392
 20
214.4729022718
  0
VERTEX
  8
0
 62
9
  6
CONTINUOUS
 10
35.8340668181
 20
214.4876310463
  0
VERTEX
  8
0
 62
9
  6
CONTINUOUS
 10
35.8073756402
 20
214.5040420431
  0
VERTEX
  8
0
 62
9
  6
CONTINUOUS
 10
35.7840569967
 20
214.5219331424
  0
VERTEX
  8
0
 62
9
  6
CONTINUOUS
 10
35.7646990328
 20
214.5409906168
  0
VERTEX
  8
0
 62
9
  6
CONTINUOUS
 10
35.7497902068
 20
214.5608350827
  0
VERTEX
  8
0
 62
9
  6
CONTINUOUS
 10
35.7396964407
 20
214.5810410847
  0
VERTEX
  8
0
 62
9
  6
CONTINUOUS
 10
35.7346298145
 20
214.6011796513
  0
VERTEX
  8
0
 62
9
  6
CONTINUOUS
 10
35.7339993721
 20
214.611097137
  0
SEQEND
  0
POLYLINE
  8
DEFAULT_2
 62
8
  6
HIDDEN
 66
1
 70
0
  0
VERTEX
  8
DEFAULT_2
 62
8
  6
HIDDEN
 10
35.7541983791
 20
214.5542172986
  0
VERTEX
  8
DEFAULT_2
 62
8
  6
HIDDEN
 10
34.4287345818
 20
214.3896138786
  0
VERTEX
  8
DEFAULT_2
 62
8
  6
HIDDEN
 10
33.2721989916
 20
214.1672475736
  0
SEQEND
  0
POLYLINE
  8
DEFAULT_2
 62
8
  6
HIDDEN
 66
1
 70
0
  0
VERTEX
  8
DEFAULT_2
 62
8
  6
HIDDEN
 10
41.4100207738
 20
212.6350213749
  0
VERTEX
  8
DEFAULT_2
 62
8
  6
HIDDEN
 10
41.5631933607
 20
212.6539922845
  0
VERTEX
  8
DEFAULT_2
 62
8
  6
HIDDEN
 10
41.7127955726
 20
212.7120737903
  0
VERTEX
  8
DEFAULT_2
 62
8
  6
HIDDEN
 10
41.8489921319
 20
212.8083300788
  0
VERTEX
  8
DEFAULT_2
 62
8
  6
HIDDEN
 10
41.9637493325
 20
212.9400133477
  0
VERTEX
  8
DEFAULT_2
 62
8
  6
HIDDEN
 10
42.0474707312
 20
213.0981570633
  0
VERTEX
  8
DEFAULT_2
 62
8
  6
HIDDEN
 10
42.0953624387
 20
213.2739007805
  0
VERTEX
  8
DEFAULT_2
 62
8
  6
HIDDEN
 10
42.1049491849
 20
213.3658764932
  0
VERTEX
  8
DEFAULT_2
 62
8
  6
HIDDEN
 10
42.0938782711
 20
213.5527010164
  0
VERTEX
  8
DEFAULT_2
 62
8
  6
HIDDEN
 10
42.0407849876
 20
213.7358687309
  0
VERTEX
  8
DEFAULT_2
 62
8
  6
HIDDEN
 10
41.9462408995
 20
213.9020943997
  0
VERTEX
  8
DEFAULT_2
 62
8
  6
HIDDEN
 10
41.8210152712
 20
214.033255031
  0
VERTEX
  8
DEFAULT_2
 62
8
  6
HIDDEN
 10
41.6835388388
 20
214.1203154973
  0
VERTEX
  8
DEFAULT_2
 62
8
  6
HIDDEN
 10
41.547842556
 20
214.1672475736
  0
SEQEND
  0
POLYLINE
  8
DEFAULT_2
 62
8
  6
HIDDEN
 66
1
 70
0
  0
VERTEX
  8
DEFAULT_2
 62
8
  6
HIDDEN
 10
36.0481854779
 20
214.6023579461
  0
VERTEX
  8
DEFAULT_2
 62
8
  6
HIDDEN
 10
36.0759142741
 20
214.6045901051
  0
VERTEX
  8
DEFAULT_2
 62
8
  6
HIDDEN
 10
36.1077849022
 20
214.6087935729
  0
VERTEX
  8
DEFAULT_2
 62
8
  6
HIDDEN
 10
36.1453553979
 20
214.6157298798
  0
VERTEX
  8
DEFAULT_2
 62
8
  6
HIDDEN
 10
36.1896518574
 20
214.6265371549
  0
SEQEND
  0
POLYLINE
  8
0
 62
9
  6
CONTINUOUS
 66
1
 70
0
  0
VERTEX
  8
0
 62
9
  6
CONTINUOUS
 10
41.547842556
 20
211.7609479699
  0
VERTEX
  8
0
 62
9
  6
CONTINUOUS
 10
40.3326701446
 20
211.5292799899
  0
VERTEX
  8
0
 62
9
  6
CONTINUOUS
 10
38.933117312
 20
211.3627202579
  0
VERTEX
  8
0
 62
9
  6
CONTINUOUS
 10
37.6860421756
 20
211.3029546997
  0
SEQEND
  0
POLYLINE
  8
DEFAULT_2
 62
8
  6
HIDDEN
 66
1
 70
0
  0
VERTEX
  8
DEFAULT_2
 62
8
  6
HIDDEN
 10
37.3122574353
 20
211.319402099
  0
VERTEX
  8
DEFAULT_2
 62
8
  6
HIDDEN
 10
37.2746867048
 20
211.3124657822
  0
VERTEX
  8
DEFAULT_2
 62
8
  6
HIDDEN
 10
37.2303898808
 20
211.3016584406
  0
SEQEND
  0
LINE
  8
DEFAULT_2
 62
8
  6
HIDDEN
 10
37.4480512176
 20
214.6060806259
 11
37.4655068209
 21
214.6103444237
  0
LINE
  8
0
 62
2
  6
CONTINUOUS
 10
204.2553212784
 20
211.0140977717
 11
204.2553212784
 21
214.9140977717
  0
LINE
  8
0
 62
2
  6
CONTINUOUS
 10
224.2553212784
 20
214.9140977717
 11
224.2553212784
 21
211.0140977717
  0
LINE
  8
0
 62
7
  6
CONTINUOUS
 10
362.5713867884
 20
211.0140977717
 11
224.2553212784
 21
211.0140977717
  0
LINE
  8
0
 62
7
  6
CONTINUOUS
 10
362.5713867884
 20
214.9140977717
 11
224.2553212784
 21
214.9140977717
  0
LINE
  8
0
 62
7
  6
CONTINUOUS
 10
363.0713867884
 20
211.5140977717
 11
362.5713867884
 21
211.0140977717
  0
LINE
  8
0
 62
7
  6
CONTINUOUS
 10
363.0713867884
 20
214.4140977717
 11
362.5713867884
 21
214.9140977717
  0
LINE
  8
0
 62
7
  6
CONTINUOUS
 10
362.5713867884
 20
214.9140977717
 11
362.5713867884
 21
211.0140977717
  0
LINE
  8
0
 62
7
  6
CONTINUOUS
 10
363.0713867884
 20
214.4140977717
 11
363.0713867884
 21
211.5140977717
  0
POLYLINE
  8
0
 62
9
  6
CONTINUOUS
 66
1
 70
0
  0
VERTEX
  8
0
 62
9
  6
CONTINUOUS
 10
384.536557626
 20
214.8239678768
  0
VERTEX
  8
0
 62
9
  6
CONTINUOUS
 10
384.4786796068
 20
214.7859084546
  0
VERTEX
  8
0
 62
9
  6
CONTINUOUS
 10
384.4375557208
 20
214.7371603425
  0
VERTEX
  8
0
 62
9
  6
CONTINUOUS
 10
384.4183723441
 20
214.6838722634
  0
VERTEX
  8
0
 62
9
  6
CONTINUOUS
 10
384.4235493449
 20
214.6327661895
  0
SEQEND
  0
POLYLINE
  8
0
 62
9
  6
CONTINUOUS
 66
1
 70
0
  0
VERTEX
  8
0
 62
9
  6
CONTINUOUS
 10
384.5899037323
 20
214.6703746449
  0
VERTEX
  8
0
 62
9
  6
CONTINUOUS
 10
384.582523152
 20
214.6643477292
  0
VERTEX
  8
0
 62
9
  6
CONTINUOUS
 10
384.5677687677
 20
214.6527005815
  0
VERTEX
  8
0
 62
9
  6
CONTINUOUS
 10
384.5531582728
 20
214.6418173323
  0
VERTEX
  8
0
 62
9
  6
CONTINUOUS
 10
384.5388662677
 20
214.6319553873
  0
VERTEX
  8
0
 62
9
  6
CONTINUOUS
 10
384.5250782434
 20
214.6233321481
  0
VERTEX
  8
0
 62
9
  6
CONTINUOUS
 10
384.5119610721
 20
214.6160989469
  0
VERTEX
  8
0
 62
9
  6
CONTINUOUS
 10
384.499655294
 20
214.6103421278
  0
VERTEX
  8
0
 62
9
  6
CONTINUOUS
 10
384.4882458177
 20
214.6060789876
  0
VERTEX
  8
0
 62
9
  6
CONTINUOUS
 10
384.4828952622
 20
214.6045007118
  0
VERTEX
  8
0
 62
9
  6
CONTINUOUS
 10
384.4729184572
 20
214.6024170604
  0
VERTEX
  8
0
 62
9
  6
CONTINUOUS
 10
384.4638354495
 20
214.6017029191
  0
VERTEX
  8
0
 62
9
  6
CONTINUOUS
 10
384.4553621226
 20
214.6023579461
  0
VERTEX
  8
0
 62
9
  6
CONTINUOUS
 10
384.4473056606
 20
214.6045901051
  0
VERTEX
  8
0
 62
9
  6
CONTINUOUS
 10
384.4397022129
 20
214.6087935729
  0
VERTEX
  8
0
 62
9
  6
CONTINUOUS
 10
384.4325565282
 20
214.6157298798
  0
VERTEX
  8
0
 62
9
  6
CONTINUOUS
 10
384.4260871213
 20
214.6265371549
  0
VERTEX
  8
0
 62
9
  6
CONTINUOUS
 10
384.4235493551
 20
214.6327662708
  0
SEQEND
  0
LINE
  8
DEFAULT_2
 62
8
  6
HIDDEN
 10
384.6501326944
 20
214.6252409161
 11
384.6229799807
 21
214.6051247742
  0
POLYLINE
  8
0
 62
9
  6
CONTINUOUS
 66
1
 70
0
  0
VERTEX
  8
0
 62
9
  6
CONTINUOUS
 10
384.4308150487
 20
214.496879622
  0
VERTEX
  8
0
 62
9
  6
CONTINUOUS
 10
384.4900679859
 20
214.529325263
  0
VERTEX
  8
0
 62
9
  6
CONTINUOUS
 10
384.519071036
 20
214.5437477336
  0
VERTEX
  8
0
 62
9
  6
CONTINUOUS
 10
384.5363481417
 20
214.5514221216
  0
VERTEX
  8
0
 62
9
  6
CONTINUOUS
 10
384.5427322317
 20
214.5542172388
  0
SEQEND
  0
POLYLINE
  8
DEFAULT_2
 62
8
  6
HIDDEN
 66
1
 70
0
  0
VERTEX
  8
DEFAULT_2
 62
8
  6
HIDDEN
 10
383.9230622052
 20
212.9760882626
  0
VERTEX
  8
DEFAULT_2
 62
8
  6
HIDDEN
 10
383.9175910801
 20
213.0611812042
  0
VERTEX
  8
DEFAULT_2
 62
8
  6
HIDDEN
 10
383.921607458
 20
213.1633711874
  0
VERTEX
  8
DEFAULT_2
 62
8
  6
HIDDEN
 10
383.9397353271
 20
213.276933499
  0
VERTEX
  8
DEFAULT_2
 62
8
  6
HIDDEN
 10
383.9550924815
 20
213.3363662927
  0
VERTEX
  8
DEFAULT_2
 62
8
  6
HIDDEN
 10
383.9992710988
 20
213.4570881815
  0
VERTEX
  8
DEFAULT_2
 62
8
  6
HIDDEN
 10
384.0606799352
 20
213.5754473526
  0
VERTEX
  8
DEFAULT_2
 62
8
  6
HIDDEN
 10
384.1337121168
 20
213.6828584482
  0
VERTEX
  8
DEFAULT_2
 62
8
  6
HIDDEN
 10
384.2046024712
 20
213.7676126069
  0
VERTEX
  8
DEFAULT_2
 62
8
  6
HIDDEN
 10
384.2590440051
 20
213.8238699472
  0
VERTEX
  8
DEFAULT_2
 62
8
  6
HIDDEN
 10
384.2911237138
 20
213.8541967816
  0
SEQEND
  0
POLYLINE
  8
DEFAULT_2
 62
8
  6
HIDDEN
 66
1
 70
0
  0
VERTEX
  8
DEFAULT_2
 62
8
  6
HIDDEN
 10
384.136878961
 20
214.167247542
  0
VERTEX
  8
DEFAULT_2
 62
8
  6
HIDDEN
 10
384.1065528546
 20
214.1102146255
  0
VERTEX
  8
DEFAULT_2
 62
8
  6
HIDDEN
 10
384.0975537052
 20
214.0457982419
  0
VERTEX
  8
DEFAULT_2
 62
8
  6
HIDDEN
 10
384.1109213533
 20
213.9814416366
  0
VERTEX
  8
DEFAULT_2
 62
8
  6
HIDDEN
 10
384.1256081049
 20
213.9516338233
  0
SEQEND
  0
LINE
  8
DEFAULT_2
 62
8
  6
HIDDEN
 10
384.6229799807
 20
214.6051247742
 11
384.5809505561
 21
214.5525168879
  0
POLYLINE
  8
DEFAULT_2
 62
8
  6
HIDDEN
 66
1
 70
0
  0
VERTEX
  8
DEFAULT_2
 62
8
  6
HIDDEN
 10
384.6225215584
 20
214.6189265994
  0
VERTEX
  8
DEFAULT_2
 62
8
  6
HIDDEN
 10
384.5788239295
 20
214.5684437985
  0
VERTEX
  8
DEFAULT_2
 62
8
  6
HIDDEN
 10
384.5537419916
 20
214.5039516093
  0
VERTEX
  8
DEFAULT_2
 62
8
  6
HIDDEN
 10
384.5505016142
 20
214.4337445977
  0
VERTEX
  8
DEFAULT_2
 62
8
  6
HIDDEN
 10
384.5695195468
 20
214.3668523332
  0
VERTEX
  8
DEFAULT_2
 62
8
  6
HIDDEN
 10
384.6083498204
 20
214.3118780639
  0
VERTEX
  8
DEFAULT_2
 62
8
  6
HIDDEN
 10
384.6619983316
 20
214.2758922229
  0
VERTEX
  8
DEFAULT_2
 62
8
  6
HIDDEN
 10
384.7206694474
 20
214.2635390271
  0
SEQEND
  0
POLYLINE
  8
DEFAULT_2
 62
8
  6
HIDDEN
 66
1
 70
0
  0
VERTEX
  8
DEFAULT_2
 62
8
  6
HIDDEN
 10
384.5427326304
 20
214.554216865
  0
VERTEX
  8
DEFAULT_2
 62
8
  6
HIDDEN
 10
384.4942277073
 20
214.5043798363
  0
VERTEX
  8
DEFAULT_2
 62
8
  6
HIDDEN
 10
384.4664845974
 20
214.4404429021
  0
VERTEX
  8
DEFAULT_2
 62
8
  6
HIDDEN
 10
384.4630597678
 20
214.3706023228
  0
VERTEX
  8
DEFAULT_2
 62
8
  6
HIDDEN
 10
384.4843922543
 20
214.3038111648
  0
VERTEX
  8
DEFAULT_2
 62
8
  6
HIDDEN
 10
384.5277473798
 20
214.2486315797
  0
VERTEX
  8
DEFAULT_2
 62
8
  6
HIDDEN
 10
384.5875673204
 20
214.212137198
  0
VERTEX
  8
DEFAULT_2
 62
8
  6
HIDDEN
 10
384.6561835797
 20
214.1990063389
  0
SEQEND
  0
POLYLINE
  8
DEFAULT_2
 62
8
  6
HIDDEN
 66
1
 70
0
  0
VERTEX
  8
DEFAULT_2
 62
8
  6
HIDDEN
 10
384.6225215896
 20
214.6189265504
  0
VERTEX
  8
DEFAULT_2
 62
8
  6
HIDDEN
 10
384.6066367528
 20
214.6131313947
  0
VERTEX
  8
DEFAULT_2
 62
8
  6
HIDDEN
 10
384.5629125828
 20
214.5935352306
  0
VERTEX
  8
DEFAULT_2
 62
8
  6
HIDDEN
 10
384.5093028046
 20
214.5637406162
  0
VERTEX
  8
DEFAULT_2
 62
8
  6
HIDDEN
 10
384.4856138857
 20
214.5491615493
  0
VERTEX
  8
DEFAULT_2
 62
8
  6
HIDDEN
 10
384.4493778006
 20
214.5258275412
  0
VERTEX
  8
DEFAULT_2
 62
8
  6
HIDDEN
 10
384.4306163135
 20
214.5129999537
  0
VERTEX
  8
DEFAULT_2
 62
8
  6
HIDDEN
 10
384.4284203796
 20
214.5112158371
  0
SEQEND
  0
LINE
  8
0
 62
9
  6
CONTINUOUS
 10
384.4229415951
 20
214.4943103757
 11
384.4308150487
 21
214.496879622
  0
POLYLINE
  8
DEFAULT_2
 62
8
  6
HIDDEN
 66
1
 70
0
  0
VERTEX
  8
DEFAULT_2
 62
8
  6
HIDDEN
 10
386.6927812755
 20
211.3029544387
  0
VERTEX
  8
DEFAULT_2
 62
8
  6
HIDDEN
 10
386.696001961
 20
211.3034238324
  0
VERTEX
  8
DEFAULT_2
 62
8
  6
HIDDEN
 10
386.7011617399
 20
211.3045864568
  0
VERTEX
  8
DEFAULT_2
 62
8
  6
HIDDEN
 10
386.7203928126
 20
211.3092690503
  0
SEQEND
  0
LINE
  8
DEFAULT_2
 62
8
  6
HIDDEN
 10
383.9426136751
 20
212.8640977717
 11
383.9397785116
 21
212.8763565303
  0
POLYLINE
  8
DEFAULT_2
 62
8
  6
HIDDEN
 66
1
 70
0
  0
VERTEX
  8
DEFAULT_2
 62
8
  6
HIDDEN
 10
383.9230801384
 20
212.9759262167
  0
VERTEX
  8
DEFAULT_2
 62
8
  6
HIDDEN
 10
383.9321982735
 20
212.9137206959
  0
VERTEX
  8
DEFAULT_2
 62
8
  6
HIDDEN
 10
383.9397991694
 20
212.8762639817
  0
SEQEND
  0
POLYLINE
  8
DEFAULT_2
 62
8
  6
HIDDEN
 66
1
 70
0
  0
VERTEX
  8
DEFAULT_2
 62
8
  6
HIDDEN
 10
384.4284205603
 20
214.5112158448
  0
VERTEX
  8
DEFAULT_2
 62
8
  6
HIDDEN
 10
384.4223872675
 20
214.4790354554
  0
VERTEX
  8
DEFAULT_2
 62
8
  6
HIDDEN
 10
384.4266618007
 20
214.4139219591
  0
VERTEX
  8
DEFAULT_2
 62
8
  6
HIDDEN
 10
384.452076783
 20
214.3538200881
  0
VERTEX
  8
DEFAULT_2
 62
8
  6
HIDDEN
 10
384.4719162124
 20
214.3277731726
  0
VERTEX
  8
DEFAULT_2
 62
8
  6
HIDDEN
 10
384.5231060823
 20
214.2873015814
  0
VERTEX
  8
DEFAULT_2
 62
8
  6
HIDDEN
 10
384.584745545
 20
214.2658774944
  0
VERTEX
  8
DEFAULT_2
 62
8
  6
HIDDEN
 10
384.6173737006
 20
214.2631418522
  0
SEQEND
  0
POLYLINE
  8
DEFAULT_2
 62
8
  6
HIDDEN
 66
1
 70
0
  0
VERTEX
  8
DEFAULT_2
 62
8
  6
HIDDEN
 10
384.4227859755
 20
214.4938879751
  0
VERTEX
  8
DEFAULT_2
 62
8
  6
HIDDEN
 10
384.413807414
 20
214.4613051248
  0
VERTEX
  8
DEFAULT_2
 62
8
  6
HIDDEN
 10
384.4133510921
 20
214.393063824
  0
VERTEX
  8
DEFAULT_2
 62
8
  6
HIDDEN
 10
384.4363908889
 20
214.3287871702
  0
VERTEX
  8
DEFAULT_2
 62
8
  6
HIDDEN
 10
384.4559506664
 20
214.3006244775
  0
VERTEX
  8
DEFAULT_2
 62
8
  6
HIDDEN
 10
384.5081715651
 20
214.2565387691
  0
VERTEX
  8
DEFAULT_2
 62
8
  6
HIDDEN
 10
384.5723555555
 20
214.233023299
  0
VERTEX
  8
DEFAULT_2
 62
8
  6
HIDDEN
 10
384.606525709
 20
214.2299827843
  0
SEQEND
  0
LINE
  8
0
 62
7
  6
CONTINUOUS
 10
384.4227859755
 20
214.4938879751
 11
384.4157239164
 21
214.4707314205
  0
POLYLINE
  8
DEFAULT_2
 62
8
  6
HIDDEN
 66
1
 70
0
  0
VERTEX
  8
DEFAULT_2
 62
8
  6
HIDDEN
 10
384.5809505561
 20
214.5525168879
  0
VERTEX
  8
DEFAULT_2
 62
8
  6
HIDDEN
 10
384.5592139262
 20
214.488779701
  0
VERTEX
  8
DEFAULT_2
 62
8
  6
HIDDEN
 10
384.5603370242
 20
214.4214400979
  0
VERTEX
  8
DEFAULT_2
 62
8
  6
HIDDEN
 10
384.569536772
 20
214.3889136926
  0
VERTEX
  8
DEFAULT_2
 62
8
  6
HIDDEN
 10
384.6038526035
 20
214.3309562747
  0
SEQEND
  0
LINE
  8
0
 62
7
  6
CONTINUOUS
 10
384.4229431559
 20
214.4943097921
 11
384.4227859755
 21
214.4938879751
  0
POLYLINE
  8
DEFAULT_2
 62
8
  6
HIDDEN
 66
1
 70
0
  0
VERTEX
  8
DEFAULT_2
 62
8
  6
HIDDEN
 10
384.2911237138
 20
213.8541967816
  0
VERTEX
  8
DEFAULT_2
 62
8
  6
HIDDEN
 10
384.4836611614
 20
214.0606275365
  0
VERTEX
  8
DEFAULT_2
 62
8
  6
HIDDEN
 10
384.6706046014
 20
214.2090370662
  0
SEQEND
  0
LINE
  8
DEFAULT_2
 62
8
  6
HIDDEN
 10
384.6561835797
 20
214.1990061815
 11
384.4746299339
 21
214.0523340768
  0
LINE
  8
DEFAULT_2
 62
8
  6
HIDDEN
 10
384.6706046014
 20
214.2090370662
 11
384.752788943
 21
214.2622917686
  0
POLYLINE
  8
DEFAULT_2
 62
8
  6
HIDDEN
 66
1
 70
0
  0
VERTEX
  8
DEFAULT_2
 62
8
  6
HIDDEN
 10
384.413066759
 20
214.4484733424
  0
VERTEX
  8
DEFAULT_2
 62
8
  6
HIDDEN
 10
384.4101169746
 20
214.4237640299
  0
VERTEX
  8
DEFAULT_2
 62
8
  6
HIDDEN
 10
384.4162365546
 20
214.3743529762
  0
VERTEX
  8
DEFAULT_2
 62
8
  6
HIDDEN
 10
384.4329536784
 20
214.3305211171
  0
VERTEX
  8
DEFAULT_2
 62
8
  6
HIDDEN
 10
384.4559585642
 20
214.2957095939
  0
VERTEX
  8
DEFAULT_2
 62
8
  6
HIDDEN
 10
384.4818374268
 20
214.2693423867
  0
VERTEX
  8
DEFAULT_2
 62
8
  6
HIDDEN
 10
384.5075344379
 20
214.2505422332
  0
VERTEX
  8
DEFAULT_2
 62
8
  6
HIDDEN
 10
384.5303267241
 20
214.2380296722
  0
VERTEX
  8
DEFAULT_2
 62
8
  6
HIDDEN
 10
384.549050279
 20
214.2299249179
  0
VERTEX
  8
DEFAULT_2
 62
8
  6
HIDDEN
 10
384.5637815313
 20
214.2245926296
  0
VERTEX
  8
DEFAULT_2
 62
8
  6
HIDDEN
 10
384.5749095659
 20
214.2209936948
  0
VERTEX
  8
DEFAULT_2
 62
8
  6
HIDDEN
 10
384.5815487479
 20
214.2189224566
  0
VERTEX
  8
DEFAULT_2
 62
8
  6
HIDDEN
 10
384.5821977824
 20
214.2187157863
  0
SEQEND
  0
LINE
  8
0
 62
7
  6
CONTINUOUS
 10
384.4157239164
 20
214.4707314205
 11
384.413066759
 21
214.4484733424
  0
POLYLINE
  8
DEFAULT_2
 62
8
  6
HIDDEN
 66
1
 70
0
  0
VERTEX
  8
DEFAULT_2
 62
8
  6
HIDDEN
 10
384.6173737006
 20
214.2631418534
  0
VERTEX
  8
DEFAULT_2
 62
8
  6
HIDDEN
 10
384.6157118882
 20
214.257343614
  0
VERTEX
  8
DEFAULT_2
 62
8
  6
HIDDEN
 10
384.6122718109
 20
214.2462907606
  0
VERTEX
  8
DEFAULT_2
 62
8
  6
HIDDEN
 10
384.606525709
 20
214.2299830498
  0
SEQEND
  0
POLYLINE
  8
DEFAULT_2
 62
8
  6
HIDDEN
 66
1
 70
0
  0
VERTEX
  8
DEFAULT_2
 62
8
  6
HIDDEN
 10
386.6999252271
 20
211.664097781
  0
VERTEX
  8
DEFAULT_2
 62
8
  6
HIDDEN
 10
386.7125421092
 20
211.664152989
  0
VERTEX
  8
DEFAULT_2
 62
8
  6
HIDDEN
 10
386.7239756855
 20
211.6645742345
  0
VERTEX
  8
DEFAULT_2
 62
8
  6
HIDDEN
 10
386.7255407379
 20
211.6650536901
  0
SEQEND
  0
LINE
  8
DEFAULT_2
 62
8
  6
HIDDEN
 10
385.6714572193
 20
211.6640977717
 11
386.6997938286
 21
211.6640977717
  0
LINE
  8
DEFAULT_2
 62
8
  6
HIDDEN
 10
386.6222054563
 20
211.6646570976
 11
386.6193492857
 21
211.6646724683
  0
LINE
  8
DEFAULT_2
 62
8
  6
HIDDEN
 10
386.682861327
 20
211.6641444068
 11
386.6222449911
 21
211.6646565164
  0
POLYLINE
  8
DEFAULT_2
 62
8
  6
HIDDEN
 66
1
 70
0
  0
VERTEX
  8
DEFAULT_2
 62
8
  6
HIDDEN
 10
386.6313618402
 20
211.6645224958
  0
VERTEX
  8
DEFAULT_2
 62
8
  6
HIDDEN
 10
386.6173449219
 20
211.6647345096
  0
VERTEX
  8
DEFAULT_2
 62
8
  6
HIDDEN
 10
386.610091701
 20
211.6648823883
  0
VERTEX
  8
DEFAULT_2
 62
8
  6
HIDDEN
 10
386.6058258191
 20
211.6650063087
  0
VERTEX
  8
DEFAULT_2
 62
8
  6
HIDDEN
 10
386.6050922056
 20
211.6650347281
  0
SEQEND
  0
LINE
  8
DEFAULT_2
 62
8
  6
HIDDEN
 10
386.5990677126
 20
211.6651131614
 11
386.610091701
 21
211.6648823883
  0
LINE
  8
DEFAULT_2
 62
8
  6
HIDDEN
 10
386.6173449219
 20
211.6647345096
 11
386.6193492857
 21
211.6646725664
  0
POLYLINE
  8
0
 62
9
  6
CONTINUOUS
 66
1
 70
0
  0
VERTEX
  8
0
 62
9
  6
CONTINUOUS
 10
384.3258037887
 20
214.9013198981
  0
VERTEX
  8
0
 62
9
  6
CONTINUOUS
 10
384.3206765582
 20
214.9531824468
  0
VERTEX
  8
0
 62
9
  6
CONTINUOUS
 10
384.3404934664
 20
215.0071821603
  0
VERTEX
  8
0
 62
9
  6
CONTINUOUS
 10
384.3826941643
 20
215.0563422632
  0
VERTEX
  8
0
 62
9
  6
CONTINUOUS
 10
384.4418263123
 20
215.0943112591
  0
SEQEND
  0
POLYLINE
  8
0
 62
9
  6
CONTINUOUS
 66
1
 70
0
  0
VERTEX
  8
0
 62
9
  6
CONTINUOUS
 10
384.3258037887
 20
211.0268756454
  0
VERTEX
  8
0
 62
9
  6
CONTINUOUS
 10
384.3206765632
 20
210.9750130995
  0
VERTEX
  8
0
 62
9
  6
CONTINUOUS
 10
384.3404934745
 20
210.9210133899
  0
VERTEX
  8
0
 62
9
  6
CONTINUOUS
 10
384.3826941733
 20
210.8718532908
  0
VERTEX
  8
0
 62
9
  6
CONTINUOUS
 10
384.4418263201
 20
210.833884298
  0
SEQEND
  0
POLYLINE
  8
0
 62
9
  6
CONTINUOUS
 66
1
 70
0
  0
VERTEX
  8
0
 62
9
  6
CONTINUOUS
 10
384.4235494302
 20
211.2954295883
  0
VERTEX
  8
0
 62
9
  6
CONTINUOUS
 10
384.4183723444
 20
211.2443232835
  0
VERTEX
  8
0
 62
9
  6
CONTINUOUS
 10
384.4375557203
 20
211.1910352044
  0
VERTEX
  8
0
 62
9
  6
CONTINUOUS
 10
384.4786796064
 20
211.1422870912
  0
VERTEX
  8
0
 62
9
  6
CONTINUOUS
 10
384.5365564707
 20
211.1042282273
  0
SEQEND
  0
POLYLINE
  8
DEFAULT_2
 62
8
  6
HIDDEN
 66
1
 70
0
  0
VERTEX
  8
DEFAULT_2
 62
8
  6
HIDDEN
 10
386.6050922056
 20
211.6650347281
  0
VERTEX
  8
DEFAULT_2
 62
8
  6
HIDDEN
 10
386.6053664229
 20
211.6650186943
  0
VERTEX
  8
DEFAULT_2
 62
8
  6
HIDDEN
 10
386.6106273769
 20
211.6646038279
  0
VERTEX
  8
DEFAULT_2
 62
8
  6
HIDDEN
 10
386.6236445404
 20
211.6628538276
  0
VERTEX
  8
DEFAULT_2
 62
8
  6
HIDDEN
 10
386.6417019672
 20
211.6588653443
  0
VERTEX
  8
DEFAULT_2
 62
8
  6
HIDDEN
 10
386.6613921705
 20
211.6523714441
  0
VERTEX
  8
DEFAULT_2
 62
8
  6
HIDDEN
 10
386.681469971
 20
211.6432055067
  0
VERTEX
  8
DEFAULT_2
 62
8
  6
HIDDEN
 10
386.7011840421
 20
211.6312912318
  0
VERTEX
  8
DEFAULT_2
 62
8
  6
HIDDEN
 10
386.7201084929
 20
211.6164860829
  0
VERTEX
  8
DEFAULT_2
 62
8
  6
HIDDEN
 10
386.7377441661
 20
211.5987157625
  0
VERTEX
  8
DEFAULT_2
 62
8
  6
HIDDEN
 10
386.753546837
 20
211.5779738254
  0
VERTEX
  8
DEFAULT_2
 62
8
  6
HIDDEN
 10
386.7669614718
 20
211.5542645611
  0
VERTEX
  8
DEFAULT_2
 62
8
  6
HIDDEN
 10
386.7773536698
 20
211.5276584822
  0
VERTEX
  8
DEFAULT_2
 62
8
  6
HIDDEN
 10
386.7839901626
 20
211.4983483135
  0
VERTEX
  8
DEFAULT_2
 62
8
  6
HIDDEN
 10
386.7860460897
 20
211.4666370501
  0
VERTEX
  8
DEFAULT_2
 62
8
  6
HIDDEN
 10
386.7825830178
 20
211.4330400288
  0
VERTEX
  8
DEFAULT_2
 62
8
  6
HIDDEN
 10
386.7725792535
 20
211.3983985677
  0
VERTEX
  8
DEFAULT_2
 62
8
  6
HIDDEN
 10
386.7550090936
 20
211.3639823803
  0
VERTEX
  8
DEFAULT_2
 62
8
  6
HIDDEN
 10
386.7289270674
 20
211.3315448854
  0
VERTEX
  8
DEFAULT_2
 62
8
  6
HIDDEN
 10
386.6927812966
 20
211.3029543524
  0
SEQEND
  0
LINE
  8
DEFAULT_2
 62
8
  6
HIDDEN
 10
386.6237949488
 20
211.6629792838
 11
386.5901254955
 21
211.6659035656
  0
POLYLINE
  8
DEFAULT_2
 62
8
  6
HIDDEN
 66
1
 70
0
  0
VERTEX
  8
DEFAULT_2
 62
8
  6
HIDDEN
 10
386.5901254955
 20
211.6659037748
  0
VERTEX
  8
DEFAULT_2
 62
8
  6
HIDDEN
 10
386.5936202716
 20
211.6653602967
  0
VERTEX
  8
DEFAULT_2
 62
8
  6
HIDDEN
 10
386.5990677126
 20
211.6651131614
  0
SEQEND
  0
LINE
  8
DEFAULT_2
 62
8
  6
HIDDEN
 10
385.6714572193
 20
212.0739987618
 11
387.0517907247
 21
212.0739987618
  0
POLYLINE
  8
DEFAULT_2
 62
8
  6
HIDDEN
 66
1
 70
0
  0
VERTEX
  8
DEFAULT_2
 62
8
  6
HIDDEN
 10
386.7607166561
 20
211.7094797571
  0
VERTEX
  8
DEFAULT_2
 62
8
  6
HIDDEN
 10
386.7604935367
 20
211.7095521208
  0
VERTEX
  8
DEFAULT_2
 62
8
  6
HIDDEN
 10
386.764217458
 20
211.7081866376
  0
VERTEX
  8
DEFAULT_2
 62
8
  6
HIDDEN
 10
386.7766025009
 20
211.702698303
  0
VERTEX
  8
DEFAULT_2
 62
8
  6
HIDDEN
 10
386.7971668661
 20
211.690682532
  0
VERTEX
  8
DEFAULT_2
 62
8
  6
HIDDEN
 10
386.8213057114
 20
211.6712157424
  0
VERTEX
  8
DEFAULT_2
 62
8
  6
HIDDEN
 10
386.844884155
 20
211.6440733706
  0
VERTEX
  8
DEFAULT_2
 62
8
  6
HIDDEN
 10
386.8645848193
 20
211.6095005866
  0
VERTEX
  8
DEFAULT_2
 62
8
  6
HIDDEN
 10
386.8774017808
 20
211.5686534026
  0
VERTEX
  8
DEFAULT_2
 62
8
  6
HIDDEN
 10
386.8807764197
 20
211.5215983067
  0
VERTEX
  8
DEFAULT_2
 62
8
  6
HIDDEN
 10
386.8710841219
 20
211.4700277089
  0
VERTEX
  8
DEFAULT_2
 62
8
  6
HIDDEN
 10
386.8485683821
 20
211.4239199104
  0
VERTEX
  8
DEFAULT_2
 62
8
  6
HIDDEN
 10
386.8186133054
 20
211.3888886683
  0
VERTEX
  8
DEFAULT_2
 62
8
  6
HIDDEN
 10
386.800181164
 20
211.3739775222
  0
SEQEND
  0
LINE
  8
DEFAULT_2
 62
8
  6
HIDDEN
 10
386.6871577686
 20
211.640161338
 11
386.6237949488
 21
211.6629792838
  0
LINE
  8
0
 62
9
  6
CONTINUOUS
 10
384.4418263225
 20
210.8338843021
 11
384.5899037533
 21
211.2578209569
  0
LINE
  8
0
 62
7
  6
CONTINUOUS
 10
384.296571157
 20
210.9465596499
 11
384.4235494302
 21
211.2954295883
  0
POLYLINE
  8
0
 62
9
  6
CONTINUOUS
 66
1
 70
0
  0
VERTEX
  8
0
 62
9
  6
CONTINUOUS
 10
384.4235493555
 20
211.2954292744
  0
VERTEX
  8
0
 62
9
  6
CONTINUOUS
 10
384.4260917135
 20
211.3016684082
  0
VERTEX
  8
0
 62
9
  6
CONTINUOUS
 10
384.4325628545
 20
211.3124736523
  0
VERTEX
  8
0
 62
9
  6
CONTINUOUS
 10
384.4397082793
 20
211.3194064183
  0
VERTEX
  8
0
 62
9
  6
CONTINUOUS
 10
384.4473117022
 20
211.3236078521
  0
VERTEX
  8
0
 62
9
  6
CONTINUOUS
 10
384.455368033
 20
211.3258385786
  0
VERTEX
  8
0
 62
9
  6
CONTINUOUS
 10
384.4638411635
 20
211.3264925695
  0
VERTEX
  8
0
 62
9
  6
CONTINUOUS
 10
384.4729246087
 20
211.3257775549
  0
VERTEX
  8
0
 62
9
  6
CONTINUOUS
 10
384.4829012278
 20
211.3236932097
  0
VERTEX
  8
0
 62
9
  6
CONTINUOUS
 10
384.4882518197
 20
211.3221145982
  0
VERTEX
  8
0
 62
9
  6
CONTINUOUS
 10
384.4996611758
 20
211.3178509191
  0
VERTEX
  8
0
 62
9
  6
CONTINUOUS
 10
384.5119667118
 20
211.312093717
  0
VERTEX
  8
0
 62
9
  6
CONTINUOUS
 10
384.5250835027
 20
211.3048603125
  0
VERTEX
  8
0
 62
9
  6
CONTINUOUS
 10
384.5388710493
 20
211.2962370371
  0
VERTEX
  8
0
 62
9
  6
CONTINUOUS
 10
384.5531622907
 20
211.286375362
  0
VERTEX
  8
0
 62
9
  6
CONTINUOUS
 10
384.5677723992
 20
211.275492208
  0
VERTEX
  8
0
 62
9
  6
CONTINUOUS
 10
384.5825244672
 20
211.263846778
  0
VERTEX
  8
0
 62
9
  6
CONTINUOUS
 10
384.5899037365
 20
211.2578209101
  0
SEQEND
  0
POLYLINE
  8
DEFAULT_2
 62
8
  6
HIDDEN
 66
1
 70
0
  0
VERTEX
  8
DEFAULT_2
 62
8
  6
HIDDEN
 10
384.1256083709
 20
213.9516341665
  0
VERTEX
  8
DEFAULT_2
 62
8
  6
HIDDEN
 10
384.1688632372
 20
213.9010711736
  0
VERTEX
  8
DEFAULT_2
 62
8
  6
HIDDEN
 10
384.2262451507
 20
213.8672909654
  0
VERTEX
  8
DEFAULT_2
 62
8
  6
HIDDEN
 10
384.2911237138
 20
213.8541967966
  0
SEQEND
  0
POLYLINE
  8
DEFAULT_2
 62
8
  6
HIDDEN
 66
1
 70
0
  0
VERTEX
  8
DEFAULT_2
 62
8
  6
HIDDEN
 10
384.606525709
 20
214.2299830498
  0
VERTEX
  8
DEFAULT_2
 62
8
  6
HIDDEN
 10
384.6093330326
 20
214.2226092543
  0
VERTEX
  8
DEFAULT_2
 62
8
  6
HIDDEN
 10
384.6215283169
 20
214.2164978686
  0
VERTEX
  8
DEFAULT_2
 62
8
  6
HIDDEN
 10
384.6371049132
 20
214.2114077631
  0
VERTEX
  8
DEFAULT_2
 62
8
  6
HIDDEN
 10
384.6503574108
 20
214.2069761913
  0
VERTEX
  8
DEFAULT_2
 62
8
  6
HIDDEN
 10
384.6572773985
 20
214.2029562728
  0
VERTEX
  8
DEFAULT_2
 62
8
  6
HIDDEN
 10
384.6561835797
 20
214.1990061815
  0
SEQEND
  0
LINE
  8
0
 62
7
  6
CONTINUOUS
 10
384.4235494302
 20
214.6327659551
 11
384.296571157
 21
214.9816358935
  0
LINE
  8
0
 62
9
  6
CONTINUOUS
 10
384.5899037542
 20
214.6703745872
 11
384.4418263225
 21
215.0943112414
  0
LINE
  8
0
 62
9
  6
CONTINUOUS
 10
384.3855972392
 20
210.7043269622
 11
384.4418263225
 21
210.8338843021
  0
LINE
  8
DEFAULT_2
 62
8
  6
HIDDEN
 10
386.739061835
 20
211.5972392687
 11
386.6871577686
 21
211.640161338
  0
LINE
  8
0
 62
9
  6
CONTINUOUS
 10
384.4418263225
 20
215.0943112414
 11
384.3855972392
 21
215.2238685813
  0
POLYLINE
  8
DEFAULT_2
 62
8
  6
HIDDEN
 66
1
 70
0
  0
VERTEX
  8
DEFAULT_2
 62
8
  6
HIDDEN
 10
385.5714572193
 20
212.1720185638
  0
VERTEX
  8
DEFAULT_2
 62
8
  6
HIDDEN
 10
385.579069266
 20
212.1345080096
  0
VERTEX
  8
DEFAULT_2
 62
8
  6
HIDDEN
 10
385.6007465411
 20
212.1027080971
  0
VERTEX
  8
DEFAULT_2
 62
8
  6
HIDDEN
 10
385.633188876
 20
212.081460075
  0
VERTEX
  8
DEFAULT_2
 62
8
  6
HIDDEN
 10
385.6714572193
 20
212.0739987618
  0
SEQEND
  0
LINE
  8
DEFAULT_2
 62
8
  6
HIDDEN
 10
385.5714572193
 20
211.7640977717
 11
385.5714572193
 21
212.9078477717
  0
LINE
  8
DEFAULT_1
 62
2
  6
CENTER
 10
385.6714572193
 20
212.9640977717
 11
385.6714572193
 21
207.9639977717
  0
LINE
  8
DEFAULT_1
 62
2
  6
CENTER
 10
385.6714572193
 20
212.9640977717
 11
385.6714572193
 21
217.9641977717
  0
LINE
  8
DEFAULT_1
 62
2
  6
CENTER
 10
385.6714572193
 20
205.3640977717
 11
385.6714572193
 21
207.9639977717
  0
LINE
  8
DEFAULT_1
 62
2
  6
CENTER
 10
385.6714572193
 20
217.9641977717
 11
385.6714572193
 21
220.5640977717
  0
LINE
  8
DEFAULT_2
 62
8
  6
HIDDEN
 10
385.5794734596
 20
212.9284246077
 11
385.5714572193
 21
212.9078477717
  0
LINE
  8
0
 62
9
  6
CONTINUOUS
 10
384.5899037625
 20
211.257820951
 11
384.6274777933
 21
211.3170983916
  0
LINE
  8
0
 62
9
  6
CONTINUOUS
 10
386.753010676
 20
214.6703745924
 11
386.7154366452
 21
214.6110971518
  0
POLYLINE
  8
DEFAULT_2
 62
8
  6
HIDDEN
 66
1
 70
0
  0
VERTEX
  8
DEFAULT_2
 62
8
  6
HIDDEN
 10
385.5794734813
 20
212.9284246357
  0
VERTEX
  8
DEFAULT_2
 62
8
  6
HIDDEN
 10
385.6017068962
 20
212.9468861614
  0
VERTEX
  8
DEFAULT_2
 62
8
  6
HIDDEN
 10
385.6341894964
 20
212.9596277715
  0
SEQEND
  0
POLYLINE
  8
DEFAULT_2
 62
8
  6
HIDDEN
 66
1
 70
0
  0
VERTEX
  8
DEFAULT_2
 62
8
  6
HIDDEN
 10
385.7087249493
 20
212.9685677737
  0
VERTEX
  8
DEFAULT_2
 62
8
  6
HIDDEN
 10
385.741207454
 20
212.9813093314
  0
VERTEX
  8
DEFAULT_2
 62
8
  6
HIDDEN
 10
385.7634409789
 20
212.9997709358
  0
SEQEND
  0
LINE
  8
DEFAULT_2
 62
8
  6
HIDDEN
 10
385.7087249421
 20
212.9685677719
 11
385.6341894892
 21
212.9596277698
  0
LINE
  8
DEFAULT_2
 62
8
  6
HIDDEN
 10
385.5714572193
 20
212.8640977717
 11
383.9426136751
 21
212.8640977717
  0
LINE
  8
DEFAULT_1
 62
2
  6
CENTER
 10
385.6714572193
 20
212.9640977717
 11
380.6713572193
 21
212.9640977717
  0
LINE
  8
DEFAULT_1
 62
2
  6
CENTER
 10
392.6214572193
 20
212.9640977717
 11
390.6715572193
 21
212.9640977717
  0
LINE
  8
DEFAULT_1
 62
2
  6
CENTER
 10
380.6713572193
 20
212.9640977717
 11
378.7214572193
 21
212.9640977717
  0
LINE
  8
DEFAULT_1
 62
2
  6
CENTER
 10
385.6714572193
 20
212.9640977717
 11
390.6715572193
 21
212.9640977717
  0
LINE
  8
0
 62
9
  6
CONTINUOUS
 10
384.5899037647
 20
214.6703745938
 11
384.6274777936
 21
214.611097152
  0
LINE
  8
0
 62
9
  6
CONTINUOUS
 10
386.7530106738
 20
211.2578209497
 11
386.7154366449
 21
211.3170983914
  0
LINE
  8
DEFAULT_2
 62
8
  6
HIDDEN
 10
385.7714572193
 20
214.1640977717
 11
385.7714572193
 21
213.0203477717
  0
LINE
  8
DEFAULT_2
 62
8
  6
HIDDEN
 10
385.7714572193
 20
213.0203477717
 11
385.7634409572
 21
212.9997709078
  0
LINE
  8
DEFAULT_2
 62
8
  6
HIDDEN
 10
385.7714572193
 20
213.0640977717
 11
387.4003007634
 21
213.0640977717
  0
LINE
  8
0
 62
9
  6
CONTINUOUS
 10
386.901088116
 20
215.0943112414
 11
386.7530106852
 21
214.6703745866
  0
LINE
  8
0
 62
9
  6
CONTINUOUS
 10
386.9573171993
 20
215.2238685813
 11
386.901088116
 21
215.0943112414
  0
LINE
  8
DEFAULT_2
 62
8
  6
HIDDEN
 10
384.6038526035
 20
214.3309562747
 11
384.6557566699
 21
214.2880342054
  0
LINE
  8
0
 62
9
  6
CONTINUOUS
 10
386.901088116
 20
210.8338843021
 11
386.9573171993
 21
210.7043269622
  0
LINE
  8
0
 62
9
  6
CONTINUOUS
 10
386.7530106843
 20
211.2578209563
 11
386.901088116
 21
210.8338843021
  0
POLYLINE
  8
DEFAULT_2
 62
8
  6
HIDDEN
 66
1
 70
0
  0
VERTEX
  8
DEFAULT_2
 62
8
  6
HIDDEN
 10
385.7714572193
 20
213.7561769797
  0
VERTEX
  8
DEFAULT_2
 62
8
  6
HIDDEN
 10
385.7638451725
 20
213.7936875339
  0
VERTEX
  8
DEFAULT_2
 62
8
  6
HIDDEN
 10
385.7421678974
 20
213.8254874463
  0
VERTEX
  8
DEFAULT_2
 62
8
  6
HIDDEN
 10
385.7097255625
 20
213.8467354685
  0
VERTEX
  8
DEFAULT_2
 62
8
  6
HIDDEN
 10
385.6714572193
 20
213.8541967816
  0
SEQEND
  0
LINE
  8
0
 62
7
  6
CONTINUOUS
 10
387.0463432815
 20
214.9816358935
 11
386.9193650083
 21
214.6327659551
  0
POLYLINE
  8
0
 62
9
  6
CONTINUOUS
 66
1
 70
0
  0
VERTEX
  8
0
 62
9
  6
CONTINUOUS
 10
386.919365083
 20
214.6327662691
  0
VERTEX
  8
0
 62
9
  6
CONTINUOUS
 10
386.916822725
 20
214.6265271352
  0
VERTEX
  8
0
 62
9
  6
CONTINUOUS
 10
386.910351584
 20
214.6157218912
  0
VERTEX
  8
0
 62
9
  6
CONTINUOUS
 10
386.9032061592
 20
214.6087891252
  0
VERTEX
  8
0
 62
9
  6
CONTINUOUS
 10
386.8956027363
 20
214.6045876913
  0
VERTEX
  8
0
 62
9
  6
CONTINUOUS
 10
386.8875464055
 20
214.6023569649
  0
VERTEX
  8
0
 62
9
  6
CONTINUOUS
 10
386.879073275
 20
214.601702974
  0
VERTEX
  8
0
 62
9
  6
CONTINUOUS
 10
386.8699898298
 20
214.6024179885
  0
VERTEX
  8
0
 62
9
  6
CONTINUOUS
 10
386.8600132107
 20
214.6045023337
  0
VERTEX
  8
0
 62
9
  6
CONTINUOUS
 10
386.8546626188
 20
214.6060809453
  0
VERTEX
  8
0
 62
9
  6
CONTINUOUS
 10
386.8432532627
 20
214.6103446244
  0
VERTEX
  8
0
 62
9
  6
CONTINUOUS
 10
386.8309477267
 20
214.6161018265
  0
VERTEX
  8
0
 62
9
  6
CONTINUOUS
 10
386.8178309358
 20
214.623335231
  0
VERTEX
  8
0
 62
9
  6
CONTINUOUS
 10
386.8040433892
 20
214.6319585064
  0
VERTEX
  8
0
 62
9
  6
CONTINUOUS
 10
386.7897521478
 20
214.6418201815
  0
VERTEX
  8
0
 62
9
  6
CONTINUOUS
 10
386.7751420393
 20
214.6527033355
  0
VERTEX
  8
0
 62
9
  6
CONTINUOUS
 10
386.7603899713
 20
214.6643487655
  0
VERTEX
  8
0
 62
9
  6
CONTINUOUS
 10
386.753010702
 20
214.6703746334
  0
SEQEND
  0
POLYLINE
  8
DEFAULT_2
 62
8
  6
HIDDEN
 66
1
 70
0
  0
VERTEX
  8
DEFAULT_2
 62
8
  6
HIDDEN
 10
387.2173063336
 20
211.9765617201
  0
VERTEX
  8
DEFAULT_2
 62
8
  6
HIDDEN
 10
387.1740513853
 20
212.0271247315
  0
VERTEX
  8
DEFAULT_2
 62
8
  6
HIDDEN
 10
387.11666937
 20
212.0609048645
  0
VERTEX
  8
DEFAULT_2
 62
8
  6
HIDDEN
 10
387.0517907247
 20
212.0739988623
  0
SEQEND
  0
POLYLINE
  8
DEFAULT_2
 62
8
  6
HIDDEN
 66
1
 70
0
  0
VERTEX
  8
DEFAULT_2
 62
8
  6
HIDDEN
 10
386.7363887295
 20
211.6982124936
  0
VERTEX
  8
DEFAULT_2
 62
8
  6
HIDDEN
 10
386.7335814059
 20
211.7055862892
  0
VERTEX
  8
DEFAULT_2
 62
8
  6
HIDDEN
 10
386.7213861216
 20
211.7116976749
  0
VERTEX
  8
DEFAULT_2
 62
8
  6
HIDDEN
 10
386.7058095253
 20
211.7167877804
  0
VERTEX
  8
DEFAULT_2
 62
8
  6
HIDDEN
 10
386.6925570277
 20
211.7212193522
  0
VERTEX
  8
DEFAULT_2
 62
8
  6
HIDDEN
 10
386.68563704
 20
211.7252392706
  0
VERTEX
  8
DEFAULT_2
 62
8
  6
HIDDEN
 10
386.6867308588
 20
211.729189362
  0
SEQEND
  0
LINE
  8
0
 62
7
  6
CONTINUOUS
 10
386.9193650083
 20
211.2954295883
 11
387.0463432815
 21
210.9465596499
  0
LINE
  8
DEFAULT_2
 62
8
  6
HIDDEN
 10
385.6714572193
 20
213.8541967816
 11
384.2911237138
 21
213.8541967816
  0
POLYLINE
  8
DEFAULT_2
 62
8
  6
HIDDEN
 66
1
 70
0
  0
VERTEX
  8
DEFAULT_2
 62
8
  6
HIDDEN
 10
384.5821977824
 20
214.2187157863
  0
VERTEX
  8
DEFAULT_2
 62
8
  6
HIDDEN
 10
384.5824209018
 20
214.2186434227
  0
VERTEX
  8
DEFAULT_2
 62
8
  6
HIDDEN
 10
384.5786969805
 20
214.2200089059
  0
VERTEX
  8
DEFAULT_2
 62
8
  6
HIDDEN
 10
384.5663119376
 20
214.2254972404
  0
VERTEX
  8
DEFAULT_2
 62
8
  6
HIDDEN
 10
384.5457475724
 20
214.2375130115
  0
VERTEX
  8
DEFAULT_2
 62
8
  6
HIDDEN
 10
384.5216087271
 20
214.256979801
  0
VERTEX
  8
DEFAULT_2
 62
8
  6
HIDDEN
 10
384.4980302836
 20
214.2841221729
  0
VERTEX
  8
DEFAULT_2
 62
8
  6
HIDDEN
 10
384.4783296192
 20
214.3186949568
  0
VERTEX
  8
DEFAULT_2
 62
8
  6
HIDDEN
 10
384.4655126577
 20
214.3595421408
  0
VERTEX
  8
DEFAULT_2
 62
8
  6
HIDDEN
 10
384.4621380188
 20
214.4065972367
  0
VERTEX
  8
DEFAULT_2
 62
8
  6
HIDDEN
 10
384.4718303166
 20
214.4581678346
  0
VERTEX
  8
DEFAULT_2
 62
8
  6
HIDDEN
 10
384.4943460564
 20
214.5042756331
  0
VERTEX
  8
DEFAULT_2
 62
8
  6
HIDDEN
 10
384.5243011331
 20
214.5393068752
  0
VERTEX
  8
DEFAULT_2
 62
8
  6
HIDDEN
 10
384.5427332745
 20
214.5542180212
  0
SEQEND
  0
POLYLINE
  8
0
 62
9
  6
CONTINUOUS
 66
1
 70
0
  0
VERTEX
  8
0
 62
9
  6
CONTINUOUS
 10
386.9193650083
 20
214.6327659551
  0
VERTEX
  8
0
 62
9
  6
CONTINUOUS
 10
386.9245420941
 20
214.68387226
  0
VERTEX
  8
0
 62
9
  6
CONTINUOUS
 10
386.9053587182
 20
214.7371603391
  0
VERTEX
  8
0
 62
9
  6
CONTINUOUS
 10
386.8642348321
 20
214.7859084522
  0
VERTEX
  8
0
 62
9
  6
CONTINUOUS
 10
386.8063579678
 20
214.8239673162
  0
SEQEND
  0
LINE
  8
DEFAULT_2
 62
8
  6
HIDDEN
 10
384.6557566699
 20
214.2880342054
 11
384.7191194897
 21
214.2652162596
  0
POLYLINE
  8
0
 62
9
  6
CONTINUOUS
 66
1
 70
0
  0
VERTEX
  8
0
 62
9
  6
CONTINUOUS
 10
387.0171106498
 20
211.0268756454
  0
VERTEX
  8
0
 62
9
  6
CONTINUOUS
 10
387.0222378803
 20
210.9750130967
  0
VERTEX
  8
0
 62
9
  6
CONTINUOUS
 10
387.0024209721
 20
210.9210133832
  0
VERTEX
  8
0
 62
9
  6
CONTINUOUS
 10
386.9602202742
 20
210.8718532803
  0
VERTEX
  8
0
 62
9
  6
CONTINUOUS
 10
386.9010881262
 20
210.8338842844
  0
SEQEND
  0
POLYLINE
  8
0
 62
9
  6
CONTINUOUS
 66
1
 70
0
  0
VERTEX
  8
0
 62
9
  6
CONTINUOUS
 10
387.0171106498
 20
214.9013198981
  0
VERTEX
  8
0
 62
9
  6
CONTINUOUS
 10
387.0222378753
 20
214.953182444
  0
VERTEX
  8
0
 62
9
  6
CONTINUOUS
 10
387.002420964
 20
215.0071821536
  0
VERTEX
  8
0
 62
9
  6
CONTINUOUS
 10
386.9602202652
 20
215.0563422526
  0
VERTEX
  8
0
 62
9
  6
CONTINUOUS
 10
386.9010881184
 20
215.0943112455
  0
SEQEND
  0
POLYLINE
  8
DEFAULT_2
 62
8
  6
HIDDEN
 66
1
 70
0
  0
VERTEX
  8
DEFAULT_2
 62
8
  6
HIDDEN
 10
384.6429892114
 20
214.2640977625
  0
VERTEX
  8
DEFAULT_2
 62
8
  6
HIDDEN
 10
384.6303723293
 20
214.2640425545
  0
VERTEX
  8
DEFAULT_2
 62
8
  6
HIDDEN
 10
384.618938753
 20
214.263621309
  0
VERTEX
  8
DEFAULT_2
 62
8
  6
HIDDEN
 10
384.6173737006
 20
214.2631418534
  0
SEQEND
  0
LINE
  8
DEFAULT_2
 62
8
  6
HIDDEN
 10
385.6714572193
 20
214.2640977717
 11
384.6431206099
 21
214.2640977717
  0
LINE
  8
DEFAULT_2
 62
8
  6
HIDDEN
 10
384.7207089822
 20
214.2635384459
 11
384.7235651528
 21
214.2635230752
  0
LINE
  8
DEFAULT_2
 62
8
  6
HIDDEN
 10
384.6600531115
 20
214.2640511366
 11
384.7206694474
 21
214.2635390271
  0
POLYLINE
  8
DEFAULT_2
 62
8
  6
HIDDEN
 66
1
 70
0
  0
VERTEX
  8
DEFAULT_2
 62
8
  6
HIDDEN
 10
384.7115525983
 20
214.2636730477
  0
VERTEX
  8
DEFAULT_2
 62
8
  6
HIDDEN
 10
384.7255695166
 20
214.2634610339
  0
VERTEX
  8
DEFAULT_2
 62
8
  6
HIDDEN
 10
384.7328227375
 20
214.2633131552
  0
VERTEX
  8
DEFAULT_2
 62
8
  6
HIDDEN
 10
384.7370886194
 20
214.2631892348
  0
VERTEX
  8
DEFAULT_2
 62
8
  6
HIDDEN
 10
384.7378222329
 20
214.2631608153
  0
SEQEND
  0
LINE
  8
DEFAULT_2
 62
8
  6
HIDDEN
 10
384.7438467259
 20
214.263082382
 11
384.7328227375
 21
214.2633131552
  0
LINE
  8
DEFAULT_2
 62
8
  6
HIDDEN
 10
384.7255695166
 20
214.2634610339
 11
384.7235651528
 21
214.263522977
  0
POLYLINE
  8
DEFAULT_2
 62
8
  6
HIDDEN
 66
1
 70
0
  0
VERTEX
  8
DEFAULT_2
 62
8
  6
HIDDEN
 10
384.7378222329
 20
214.2631608153
  0
VERTEX
  8
DEFAULT_2
 62
8
  6
HIDDEN
 10
384.7375480156
 20
214.2631768492
  0
VERTEX
  8
DEFAULT_2
 62
8
  6
HIDDEN
 10
384.7322870616
 20
214.2635917155
  0
VERTEX
  8
DEFAULT_2
 62
8
  6
HIDDEN
 10
384.7192698981
 20
214.2653417158
  0
VERTEX
  8
DEFAULT_2
 62
8
  6
HIDDEN
 10
384.7012124713
 20
214.2693301992
  0
VERTEX
  8
DEFAULT_2
 62
8
  6
HIDDEN
 10
384.6815222679
 20
214.2758240994
  0
VERTEX
  8
DEFAULT_2
 62
8
  6
HIDDEN
 10
384.6614444675
 20
214.2849900367
  0
VERTEX
  8
DEFAULT_2
 62
8
  6
HIDDEN
 10
384.6417303964
 20
214.2969043117
  0
VERTEX
  8
DEFAULT_2
 62
8
  6
HIDDEN
 10
384.6228059456
 20
214.3117094605
  0
VERTEX
  8
DEFAULT_2
 62
8
  6
HIDDEN
 10
384.6051702724
 20
214.3294797809
  0
VERTEX
  8
DEFAULT_2
 62
8
  6
HIDDEN
 10
384.5893676014
 20
214.3502217181
  0
VERTEX
  8
DEFAULT_2
 62
8
  6
HIDDEN
 10
384.5759529667
 20
214.3739309824
  0
VERTEX
  8
DEFAULT_2
 62
8
  6
HIDDEN
 10
384.5655607687
 20
214.4005370613
  0
VERTEX
  8
DEFAULT_2
 62
8
  6
HIDDEN
 10
384.5589242759
 20
214.42984723
  0
VERTEX
  8
DEFAULT_2
 62
8
  6
HIDDEN
 10
384.5568683489
 20
214.4615584934
  0
VERTEX
  8
DEFAULT_2
 62
8
  6
HIDDEN
 10
384.5603314208
 20
214.4951555147
  0
VERTEX
  8
DEFAULT_2
 62
8
  6
HIDDEN
 10
384.5703351851
 20
214.5297969757
  0
VERTEX
  8
DEFAULT_2
 62
8
  6
HIDDEN
 10
384.5879053449
 20
214.5642131631
  0
VERTEX
  8
DEFAULT_2
 62
8
  6
HIDDEN
 10
384.6139873711
 20
214.596650658
  0
VERTEX
  8
DEFAULT_2
 62
8
  6
HIDDEN
 10
384.6501331419
 20
214.625241191
  0
SEQEND
  0
LINE
  8
DEFAULT_2
 62
8
  6
HIDDEN
 10
384.7191194897
 20
214.2652162596
 11
384.752788943
 21
214.2622919779
  0
POLYLINE
  8
DEFAULT_2
 62
8
  6
HIDDEN
 66
1
 70
0
  0
VERTEX
  8
DEFAULT_2
 62
8
  6
HIDDEN
 10
384.752788943
 20
214.2622917686
  0
VERTEX
  8
DEFAULT_2
 62
8
  6
HIDDEN
 10
384.7492941669
 20
214.2628352468
  0
VERTEX
  8
DEFAULT_2
 62
8
  6
HIDDEN
 10
384.7438467259
 20
214.263082382
  0
SEQEND
  0
LINE
  8
0
 62
7
  6
CONTINUOUS
 10
386.9271905221
 20
211.457464123
 11
386.9298476795
 21
211.479722201
  0
POLYLINE
  8
DEFAULT_2
 62
8
  6
HIDDEN
 66
1
 70
0
  0
VERTEX
  8
DEFAULT_2
 62
8
  6
HIDDEN
 10
386.9298476795
 20
211.479722201
  0
VERTEX
  8
DEFAULT_2
 62
8
  6
HIDDEN
 10
386.9327974639
 20
211.5044315136
  0
VERTEX
  8
DEFAULT_2
 62
8
  6
HIDDEN
 10
386.9266778839
 20
211.5538425673
  0
VERTEX
  8
DEFAULT_2
 62
8
  6
HIDDEN
 10
386.9099607601
 20
211.5976744264
  0
VERTEX
  8
DEFAULT_2
 62
8
  6
HIDDEN
 10
386.8869558743
 20
211.6324859496
  0
VERTEX
  8
DEFAULT_2
 62
8
  6
HIDDEN
 10
386.8610770117
 20
211.6588531568
  0
VERTEX
  8
DEFAULT_2
 62
8
  6
HIDDEN
 10
386.8353800006
 20
211.6776533103
  0
VERTEX
  8
DEFAULT_2
 62
8
  6
HIDDEN
 10
386.8125877144
 20
211.6901658712
  0
VERTEX
  8
DEFAULT_2
 62
8
  6
HIDDEN
 10
386.7938641595
 20
211.6982706256
  0
VERTEX
  8
DEFAULT_2
 62
8
  6
HIDDEN
 10
386.7791329072
 20
211.7036029138
  0
VERTEX
  8
DEFAULT_2
 62
8
  6
HIDDEN
 10
386.7680048726
 20
211.7072018486
  0
VERTEX
  8
DEFAULT_2
 62
8
  6
HIDDEN
 10
386.7613656906
 20
211.7092730869
  0
VERTEX
  8
DEFAULT_2
 62
8
  6
HIDDEN
 10
386.7607166561
 20
211.7094797571
  0
SEQEND
  0
POLYLINE
  8
DEFAULT_2
 62
8
  6
HIDDEN
 66
1
 70
0
  0
VERTEX
  8
DEFAULT_2
 62
8
  6
HIDDEN
 10
386.9144938782
 20
211.4169796987
  0
VERTEX
  8
DEFAULT_2
 62
8
  6
HIDDEN
 10
386.920527171
 20
211.449160088
  0
VERTEX
  8
DEFAULT_2
 62
8
  6
HIDDEN
 10
386.9162526378
 20
211.5142735844
  0
VERTEX
  8
DEFAULT_2
 62
8
  6
HIDDEN
 10
386.8908376555
 20
211.5743754554
  0
VERTEX
  8
DEFAULT_2
 62
8
  6
HIDDEN
 10
386.8709982261
 20
211.6004223709
  0
VERTEX
  8
DEFAULT_2
 62
8
  6
HIDDEN
 10
386.8198083562
 20
211.640893962
  0
VERTEX
  8
DEFAULT_2
 62
8
  6
HIDDEN
 10
386.7581688935
 20
211.6623180491
  0
VERTEX
  8
DEFAULT_2
 62
8
  6
HIDDEN
 10
386.7255407379
 20
211.6650536912
  0
SEQEND
  0
POLYLINE
  8
DEFAULT_2
 62
8
  6
HIDDEN
 66
1
 70
0
  0
VERTEX
  8
DEFAULT_2
 62
8
  6
HIDDEN
 10
386.7255407379
 20
211.6650536901
  0
VERTEX
  8
DEFAULT_2
 62
8
  6
HIDDEN
 10
386.7272025503
 20
211.6708519295
  0
VERTEX
  8
DEFAULT_2
 62
8
  6
HIDDEN
 10
386.7306426276
 20
211.6819047829
  0
VERTEX
  8
DEFAULT_2
 62
8
  6
HIDDEN
 10
386.7363887295
 20
211.6982124936
  0
SEQEND
  0
POLYLINE
  8
DEFAULT_2
 62
8
  6
HIDDEN
 66
1
 70
0
  0
VERTEX
  8
DEFAULT_2
 62
8
  6
HIDDEN
 10
386.7619638824
 20
211.3756786556
  0
VERTEX
  8
DEFAULT_2
 62
8
  6
HIDDEN
 10
386.7837005123
 20
211.4394158425
  0
VERTEX
  8
DEFAULT_2
 62
8
  6
HIDDEN
 10
386.7825774143
 20
211.5067554456
  0
VERTEX
  8
DEFAULT_2
 62
8
  6
HIDDEN
 10
386.7733776665
 20
211.5392818509
  0
VERTEX
  8
DEFAULT_2
 62
8
  6
HIDDEN
 10
386.739061835
 20
211.5972392687
  0
SEQEND
  0
POLYLINE
  8
DEFAULT_2
 62
8
  6
HIDDEN
 66
1
 70
0
  0
VERTEX
  8
DEFAULT_2
 62
8
  6
HIDDEN
 10
387.4212971454
 20
212.7647245552
  0
VERTEX
  8
DEFAULT_2
 62
8
  6
HIDDEN
 10
387.4253217445
 20
212.867110923
  0
VERTEX
  8
DEFAULT_2
 62
8
  6
HIDDEN
 10
387.4198343002
 20
212.9522693267
  0
VERTEX
  8
DEFAULT_2
 62
8
  6
HIDDEN
 10
387.410716165
 20
213.0144748476
  0
VERTEX
  8
DEFAULT_2
 62
8
  6
HIDDEN
 10
387.4031152691
 20
213.0519315617
  0
VERTEX
  8
DEFAULT_2
 62
8
  6
HIDDEN
 10
387.4003007634
 20
213.0640977717
  0
SEQEND
  0
POLYLINE
  8
DEFAULT_2
 62
8
  6
HIDDEN
 66
1
 70
0
  0
VERTEX
  8
DEFAULT_2
 62
8
  6
HIDDEN
 10
387.4213069805
 20
212.7648243561
  0
VERTEX
  8
DEFAULT_2
 62
8
  6
HIDDEN
 10
387.4031791114
 20
212.6512620444
  0
VERTEX
  8
DEFAULT_2
 62
8
  6
HIDDEN
 10
387.387821957
 20
212.5918292507
  0
VERTEX
  8
DEFAULT_2
 62
8
  6
HIDDEN
 10
387.3436433397
 20
212.471107362
  0
VERTEX
  8
DEFAULT_2
 62
8
  6
HIDDEN
 10
387.2822345033
 20
212.3527481909
  0
VERTEX
  8
DEFAULT_2
 62
8
  6
HIDDEN
 10
387.2092023217
 20
212.2453370952
  0
VERTEX
  8
DEFAULT_2
 62
8
  6
HIDDEN
 10
387.1383119673
 20
212.1605829366
  0
VERTEX
  8
DEFAULT_2
 62
8
  6
HIDDEN
 10
387.0838704334
 20
212.1043255962
  0
SEQEND
  0
POLYLINE
  8
DEFAULT_2
 62
8
  6
HIDDEN
 66
1
 70
0
  0
VERTEX
  8
DEFAULT_2
 62
8
  6
HIDDEN
 10
386.920128463
 20
211.4343075684
  0
VERTEX
  8
DEFAULT_2
 62
8
  6
HIDDEN
 10
386.9291070245
 20
211.4668904186
  0
VERTEX
  8
DEFAULT_2
 62
8
  6
HIDDEN
 10
386.9295633464
 20
211.5351317195
  0
VERTEX
  8
DEFAULT_2
 62
8
  6
HIDDEN
 10
386.9065235496
 20
211.5994083733
  0
VERTEX
  8
DEFAULT_2
 62
8
  6
HIDDEN
 10
386.8869637721
 20
211.627571066
  0
VERTEX
  8
DEFAULT_2
 62
8
  6
HIDDEN
 10
386.8347428734
 20
211.6716567744
  0
VERTEX
  8
DEFAULT_2
 62
8
  6
HIDDEN
 10
386.770558883
 20
211.6951722444
  0
VERTEX
  8
DEFAULT_2
 62
8
  6
HIDDEN
 10
386.7363887295
 20
211.6982127592
  0
SEQEND
  0
LINE
  8
0
 62
7
  6
CONTINUOUS
 10
386.920128463
 20
211.4343075684
 11
386.9271905221
 21
211.457464123
  0
LINE
  8
0
 62
7
  6
CONTINUOUS
 10
386.9199712826
 20
211.4338857514
 11
386.920128463
 21
211.4343075684
  0
POLYLINE
  8
DEFAULT_2
 62
8
  6
HIDDEN
 66
1
 70
0
  0
VERTEX
  8
DEFAULT_2
 62
8
  6
HIDDEN
 10
387.0517907247
 20
212.0739987618
  0
VERTEX
  8
DEFAULT_2
 62
8
  6
HIDDEN
 10
386.8592532771
 20
211.867568007
  0
VERTEX
  8
DEFAULT_2
 62
8
  6
HIDDEN
 10
386.6723098371
 20
211.7191584773
  0
SEQEND
  0
LINE
  8
DEFAULT_2
 62
8
  6
HIDDEN
 10
387.0517907247
 20
212.0739987618
 11
387.0837323773
 21
212.1041914995
  0
LINE
  8
DEFAULT_2
 62
8
  6
HIDDEN
 10
386.6867308588
 20
211.729189362
 11
386.8682845046
 21
211.8758614667
  0
LINE
  8
DEFAULT_2
 62
8
  6
HIDDEN
 10
386.6723098371
 20
211.7191584773
 11
386.5901254955
 21
211.6659037748
  0
POLYLINE
  8
DEFAULT_2
 62
8
  6
HIDDEN
 66
1
 70
0
  0
VERTEX
  8
DEFAULT_2
 62
8
  6
HIDDEN
 10
387.2060353934
 20
211.7609480674
  0
VERTEX
  8
DEFAULT_2
 62
8
  6
HIDDEN
 10
387.2363613682
 20
211.8179808673
  0
VERTEX
  8
DEFAULT_2
 62
8
  6
HIDDEN
 10
387.2453604459
 20
211.8823971139
  0
VERTEX
  8
DEFAULT_2
 62
8
  6
HIDDEN
 10
387.2319927959
 20
211.9467536024
  0
VERTEX
  8
DEFAULT_2
 62
8
  6
HIDDEN
 10
387.2173060676
 20
211.976561377
  0
SEQEND
  0
LINE
  8
DEFAULT_2
 62
8
  6
HIDDEN
 10
386.7199344579
 20
211.3230707693
 11
386.7619638824
 21
211.3756786556
  0
POLYLINE
  8
DEFAULT_2
 62
8
  6
HIDDEN
 66
1
 70
0
  0
VERTEX
  8
DEFAULT_2
 62
8
  6
HIDDEN
 10
386.7203928801
 20
211.309268944
  0
VERTEX
  8
DEFAULT_2
 62
8
  6
HIDDEN
 10
386.764090509
 20
211.3597517449
  0
VERTEX
  8
DEFAULT_2
 62
8
  6
HIDDEN
 10
386.7891724469
 20
211.4242439342
  0
VERTEX
  8
DEFAULT_2
 62
8
  6
HIDDEN
 10
386.7924128243
 20
211.4944509458
  0
VERTEX
  8
DEFAULT_2
 62
8
  6
HIDDEN
 10
386.7733948917
 20
211.5613432103
  0
VERTEX
  8
DEFAULT_2
 62
8
  6
HIDDEN
 10
386.7345646181
 20
211.6163174795
  0
VERTEX
  8
DEFAULT_2
 62
8
  6
HIDDEN
 10
386.6809161069
 20
211.6523033205
  0
VERTEX
  8
DEFAULT_2
 62
8
  6
HIDDEN
 10
386.6222449911
 20
211.6646565164
  0
SEQEND
  0
POLYLINE
  8
DEFAULT_2
 62
8
  6
HIDDEN
 66
1
 70
0
  0
VERTEX
  8
DEFAULT_2
 62
8
  6
HIDDEN
 10
386.8001818081
 20
211.3739786784
  0
VERTEX
  8
DEFAULT_2
 62
8
  6
HIDDEN
 10
386.8486867312
 20
211.4238157071
  0
VERTEX
  8
DEFAULT_2
 62
8
  6
HIDDEN
 10
386.8764298411
 20
211.4877526414
  0
VERTEX
  8
DEFAULT_2
 62
8
  6
HIDDEN
 10
386.8798546707
 20
211.5575932206
  0
VERTEX
  8
DEFAULT_2
 62
8
  6
HIDDEN
 10
386.8585221842
 20
211.6243843787
  0
VERTEX
  8
DEFAULT_2
 62
8
  6
HIDDEN
 10
386.8151670587
 20
211.6795639638
  0
VERTEX
  8
DEFAULT_2
 62
8
  6
HIDDEN
 10
386.7553471181
 20
211.7160583455
  0
VERTEX
  8
DEFAULT_2
 62
8
  6
HIDDEN
 10
386.6867308588
 20
211.7291892045
  0
SEQEND
  0
LINE
  8
DEFAULT_2
 62
8
  6
HIDDEN
 10
386.6927817441
 20
211.3029546274
 11
386.7199344579
 21
211.3230707693
  0
POLYLINE
  8
0
 62
9
  6
CONTINUOUS
 66
1
 70
0
  0
VERTEX
  8
0
 62
9
  6
CONTINUOUS
 10
386.9120993898
 20
211.4313159214
  0
VERTEX
  8
0
 62
9
  6
CONTINUOUS
 10
386.8528464526
 20
211.3988702805
  0
VERTEX
  8
0
 62
9
  6
CONTINUOUS
 10
386.8238434026
 20
211.3844478098
  0
VERTEX
  8
0
 62
9
  6
CONTINUOUS
 10
386.8065662968
 20
211.3767734219
  0
VERTEX
  8
0
 62
9
  6
CONTINUOUS
 10
386.8001822067
 20
211.3739783046
  0
SEQEND
  0
POLYLINE
  8
DEFAULT_2
 62
8
  6
HIDDEN
 66
1
 70
0
  0
VERTEX
  8
DEFAULT_2
 62
8
  6
HIDDEN
 10
386.7203928489
 20
211.3092689931
  0
VERTEX
  8
DEFAULT_2
 62
8
  6
HIDDEN
 10
386.7362776857
 20
211.3150641488
  0
VERTEX
  8
DEFAULT_2
 62
8
  6
HIDDEN
 10
386.7800018557
 20
211.3346603128
  0
VERTEX
  8
DEFAULT_2
 62
8
  6
HIDDEN
 10
386.8336116339
 20
211.3644549272
  0
VERTEX
  8
DEFAULT_2
 62
8
  6
HIDDEN
 10
386.8573005528
 20
211.3790339942
  0
VERTEX
  8
DEFAULT_2
 62
8
  6
HIDDEN
 10
386.8935366379
 20
211.4023680023
  0
VERTEX
  8
DEFAULT_2
 62
8
  6
HIDDEN
 10
386.912298125
 20
211.4151955897
  0
VERTEX
  8
DEFAULT_2
 62
8
  6
HIDDEN
 10
386.9144940589
 20
211.4169797064
  0
SEQEND
  0
LINE
  8
0
 62
9
  6
CONTINUOUS
 10
386.9199728434
 20
211.4338851678
 11
386.9120993898
 21
211.4313159214
  0
POLYLINE
  8
DEFAULT_2
 62
8
  6
HIDDEN
 66
1
 70
0
  0
VERTEX
  8
DEFAULT_2
 62
8
  6
HIDDEN
 10
384.650133163
 20
214.6252411048
  0
VERTEX
  8
DEFAULT_2
 62
8
  6
HIDDEN
 10
384.6469124775
 20
214.624771711
  0
VERTEX
  8
DEFAULT_2
 62
8
  6
HIDDEN
 10
384.6417526986
 20
214.6236090867
  0
VERTEX
  8
DEFAULT_2
 62
8
  6
HIDDEN
 10
384.6225216259
 20
214.6189264931
  0
SEQEND
  0
POLYLINE
  8
0
 62
9
  6
CONTINUOUS
 66
1
 70
0
  0
VERTEX
  8
0
 62
9
  6
CONTINUOUS
 10
386.7530107062
 20
211.2578208986
  0
VERTEX
  8
0
 62
9
  6
CONTINUOUS
 10
386.7603912865
 20
211.2638478142
  0
VERTEX
  8
0
 62
9
  6
CONTINUOUS
 10
386.7751456708
 20
211.275494962
  0
VERTEX
  8
0
 62
9
  6
CONTINUOUS
 10
386.7897561657
 20
211.2863782112
  0
VERTEX
  8
0
 62
9
  6
CONTINUOUS
 10
386.8040481708
 20
211.2962401562
  0
VERTEX
  8
0
 62
9
  6
CONTINUOUS
 10
386.8178361951
 20
211.3048633954
  0
VERTEX
  8
0
 62
9
  6
CONTINUOUS
 10
386.8309533664
 20
211.3120965966
  0
VERTEX
  8
0
 62
9
  6
CONTINUOUS
 10
386.8432591445
 20
211.3178534156
  0
VERTEX
  8
0
 62
9
  6
CONTINUOUS
 10
386.8546686208
 20
211.3221165558
  0
VERTEX
  8
0
 62
9
  6
CONTINUOUS
 10
386.8600191763
 20
211.3236948316
  0
VERTEX
  8
0
 62
9
  6
CONTINUOUS
 10
386.8699959813
 20
211.3257784831
  0
VERTEX
  8
0
 62
9
  6
CONTINUOUS
 10
386.879078989
 20
211.3264926244
  0
VERTEX
  8
0
 62
9
  6
CONTINUOUS
 10
386.8875523159
 20
211.3258375974
  0
VERTEX
  8
0
 62
9
  6
CONTINUOUS
 10
386.8956087779
 20
211.3236054384
  0
VERTEX
  8
0
 62
9
  6
CONTINUOUS
 10
386.9032122256
 20
211.3194019705
  0
VERTEX
  8
0
 62
9
  6
CONTINUOUS
 10
386.9103579103
 20
211.3124656636
  0
VERTEX
  8
0
 62
9
  6
CONTINUOUS
 10
386.9168273172
 20
211.3016583886
  0
VERTEX
  8
0
 62
9
  6
CONTINUOUS
 10
386.9193650834
 20
211.2954292727
  0
SEQEND
  0
POLYLINE
  8
0
 62
9
  6
CONTINUOUS
 66
1
 70
0
  0
VERTEX
  8
0
 62
9
  6
CONTINUOUS
 10
386.8063568125
 20
211.1042276667
  0
VERTEX
  8
0
 62
9
  6
CONTINUOUS
 10
386.8642348317
 20
211.1422870889
  0
VERTEX
  8
0
 62
9
  6
CONTINUOUS
 10
386.9053587177
 20
211.191035201
  0
VERTEX
  8
0
 62
9
  6
CONTINUOUS
 10
386.9245420944
 20
211.2443232801
  0
VERTEX
  8
0
 62
9
  6
CONTINUOUS
 10
386.9193650936
 20
211.295429354
  0
SEQEND
  0
LINE
  8
0
 62
7
  6
CONTINUOUS
 10
21.6707798982
 20
71.2602749488
 11
21.6707798982
 21
42.2602739952
  0
LINE
  8
0
 62
7
  6
CONTINUOUS
 10
26.6707798982
 20
37.2602739952
 11
26.6707798982
 21
76.2602749488
  0
LINE
  8
0
 62
7
  6
CONTINUOUS
 10
26.6707798982
 20
76.2602749488
 11
21.6707798982
 21
71.2602749488
  0
LINE
  8
0
 62
7
  6
CONTINUOUS
 10
26.6707798982
 20
37.2602739952
 11
21.6707798982
 21
42.2602739952
  0
LINE
  8
DEFAULT_2
 62
8
  6
HIDDEN
 10
81.6707798982
 20
53.4174174092
 11
81.6707798982
 21
55.7602744571
  0
LINE
  8
0
 62
9
  6
CONTINUOUS
 10
81.6707798982
 20
57.7602744869
 11
81.6707798982
 21
60.1031315348
  0
POLYLINE
  8
0
 62
9
  6
CONTINUOUS
 66
1
 70
0
  0
VERTEX
  8
0
 62
9
  6
CONTINUOUS
 10
163.0569645906
 20
44.6575871131
  0
VERTEX
  8
0
 62
9
  6
CONTINUOUS
 10
150.4832646395
 20
42.26960093
  0
VERTEX
  8
0
 62
9
  6
CONTINUOUS
 10
136.5653416658
 20
40.6381180904
  0
VERTEX
  8
0
 62
9
  6
CONTINUOUS
 10
124.4310185457
 20
40.0662997386
  0
SEQEND
  0
LINE
  8
0
 62
9
  6
CONTINUOUS
 10
80.6807133699
 20
47.8592845819
 11
80.878696158
 21
48.8394823692
  0
POLYLINE
  8
0
 62
9
  6
CONTINUOUS
 66
1
 70
0
  0
VERTEX
  8
0
 62
9
  6
CONTINUOUS
 10
80.2846714998
 20
44.6575871131
  0
VERTEX
  8
0
 62
9
  6
CONTINUOUS
 10
80.4521367098
 20
45.239274802
  0
VERTEX
  8
0
 62
9
  6
CONTINUOUS
 10
80.6002232576
 20
45.89748651
  0
VERTEX
  8
0
 62
9
  6
CONTINUOUS
 10
80.7116124178
 20
46.5558603427
  0
VERTEX
  8
0
 62
9
  6
CONTINUOUS
 10
80.7493779207
 20
46.8609932086
  0
VERTEX
  8
0
 62
9
  6
CONTINUOUS
 10
80.7834050203
 20
47.3788371704
  0
VERTEX
  8
0
 62
9
  6
CONTINUOUS
 10
80.7596013094
 20
47.7249869726
  0
VERTEX
  8
0
 62
9
  6
CONTINUOUS
 10
80.6807133699
 20
47.8592851779
  0
SEQEND
  0
POLYLINE
  8
DEFAULT_2
 62
8
  6
HIDDEN
 66
1
 70
0
  0
VERTEX
  8
DEFAULT_2
 62
8
  6
HIDDEN
 10
79.7115513826
 20
65.3604307792
  0
VERTEX
  8
DEFAULT_2
 62
8
  6
HIDDEN
 10
78.7252995516
 20
64.8005744836
  0
VERTEX
  8
DEFAULT_2
 62
8
  6
HIDDEN
 10
77.8232762361
 20
63.953510227
  0
VERTEX
  8
DEFAULT_2
 62
8
  6
HIDDEN
 10
77.1418950106
 20
62.8790500781
  0
VERTEX
  8
DEFAULT_2
 62
8
  6
HIDDEN
 10
76.7587468172
 20
61.6940227172
  0
VERTEX
  8
DEFAULT_2
 62
8
  6
HIDDEN
 10
76.6784092928
 20
60.4844132087
  0
VERTEX
  8
DEFAULT_2
 62
8
  6
HIDDEN
 10
76.7472264315
 20
59.8893454692
  0
VERTEX
  8
DEFAULT_2
 62
8
  6
HIDDEN
 10
77.0914647127
 20
58.752924653
  0
VERTEX
  8
DEFAULT_2
 62
8
  6
HIDDEN
 10
77.6947209383
 20
57.7286852918
  0
VERTEX
  8
DEFAULT_2
 62
8
  6
HIDDEN
 10
78.52106066
 20
56.8771245166
  0
SEQEND
  0
POLYLINE
  8
DEFAULT_2
 62
8
  6
HIDDEN
 66
1
 70
0
  0
VERTEX
  8
DEFAULT_2
 62
8
  6
HIDDEN
 10
80.2846714998
 20
68.8629618308
  0
VERTEX
  8
DEFAULT_2
 62
8
  6
HIDDEN
 10
78.9278599764
 20
68.3936515472
  0
VERTEX
  8
DEFAULT_2
 62
8
  6
HIDDEN
 10
77.5470921541
 20
67.5202670715
  0
VERTEX
  8
DEFAULT_2
 62
8
  6
HIDDEN
 10
76.2842747713
 20
66.1988422296
  0
VERTEX
  8
DEFAULT_2
 62
8
  6
HIDDEN
 10
75.3303715731
 20
64.5227083585
  0
VERTEX
  8
DEFAULT_2
 62
8
  6
HIDDEN
 10
74.7939488436
 20
62.6740810296
  0
VERTEX
  8
DEFAULT_2
 62
8
  6
HIDDEN
 10
74.6814915682
 20
60.7870876811
  0
VERTEX
  8
DEFAULT_2
 62
8
  6
HIDDEN
 10
74.7778508211
 20
59.8587787173
  0
VERTEX
  8
DEFAULT_2
 62
8
  6
HIDDEN
 10
75.2597233797
 20
58.0859524033
  0
VERTEX
  8
DEFAULT_2
 62
8
  6
HIDDEN
 10
76.1042210604
 20
56.4881406187
  0
VERTEX
  8
DEFAULT_2
 62
8
  6
HIDDEN
 10
77.2611424471
 20
55.1596899352
  0
VERTEX
  8
DEFAULT_2
 62
8
  6
HIDDEN
 10
78.6332890535
 20
54.1900298021
  0
VERTEX
  8
DEFAULT_2
 62
8
  6
HIDDEN
 10
80.1380345369
 20
53.6067119262
  0
VERTEX
  8
DEFAULT_2
 62
8
  6
HIDDEN
 10
81.6707798982
 20
53.4174174092
  0
SEQEND
  0
POLYLINE
  8
0
 62
7
  6
CONTINUOUS
 66
1
 70
0
  0
VERTEX
  8
0
 62
7
  6
CONTINUOUS
 10
162.6609227205
 20
47.8592845819
  0
VERTEX
  8
0
 62
7
  6
CONTINUOUS
 10
150.2073857332
 20
45.7367029808
  0
VERTEX
  8
0
 62
7
  6
CONTINUOUS
 10
136.4226719881
 20
44.2865899227
  0
VERTEX
  8
0
 62
7
  6
CONTINUOUS
 10
124.4046208406
 20
43.7783280036
  0
SEQEND
  0
LINE
  8
0
 62
7
  6
CONTINUOUS
 10
167.0523144398
 20
37.2602739952
 11
124.4310185457
 21
37.2602739952
  0
LINE
  8
0
 62
7
  6
CONTINUOUS
 10
104.9106022859
 20
37.2602739952
 11
26.6707798982
 21
37.2602739952
  0
POLYLINE
  8
0
 62
7
  6
CONTINUOUS
 66
1
 70
0
  0
VERTEX
  8
0
 62
7
  6
CONTINUOUS
 10
104.9106022859
 20
37.2602739952
  0
VERTEX
  8
0
 62
7
  6
CONTINUOUS
 10
105.66659899
 20
37.1432200096
  0
VERTEX
  8
0
 62
7
  6
CONTINUOUS
 10
106.022357657
 20
36.9994857929
  0
VERTEX
  8
0
 62
7
  6
CONTINUOUS
 10
106.647433951
 20
36.5584459922
  0
SEQEND
  0
POLYLINE
  8
0
 62
9
  6
CONTINUOUS
 66
1
 70
0
  0
VERTEX
  8
0
 62
9
  6
CONTINUOUS
 10
80.2846714998
 20
44.6575871131
  0
VERTEX
  8
0
 62
9
  6
CONTINUOUS
 10
78.9278599764
 20
45.1268973968
  0
VERTEX
  8
0
 62
9
  6
CONTINUOUS
 10
77.5470921541
 20
46.0002818725
  0
VERTEX
  8
0
 62
9
  6
CONTINUOUS
 10
76.2842747713
 20
47.3217067144
  0
VERTEX
  8
0
 62
9
  6
CONTINUOUS
 10
75.3303715731
 20
48.9978405855
  0
VERTEX
  8
0
 62
9
  6
CONTINUOUS
 10
74.7939488436
 20
50.8464679143
  0
VERTEX
  8
0
 62
9
  6
CONTINUOUS
 10
74.6814915682
 20
52.7334612629
  0
VERTEX
  8
0
 62
9
  6
CONTINUOUS
 10
74.7778508211
 20
53.6617702267
  0
VERTEX
  8
0
 62
9
  6
CONTINUOUS
 10
75.2597233797
 20
55.4345965407
  0
VERTEX
  8
0
 62
9
  6
CONTINUOUS
 10
76.1042210604
 20
57.0324083253
  0
VERTEX
  8
0
 62
9
  6
CONTINUOUS
 10
77.2611424471
 20
58.3608590088
  0
VERTEX
  8
0
 62
9
  6
CONTINUOUS
 10
78.6332890535
 20
59.3305191419
  0
VERTEX
  8
0
 62
9
  6
CONTINUOUS
 10
80.1380345369
 20
59.9138370178
  0
VERTEX
  8
0
 62
9
  6
CONTINUOUS
 10
81.6707798982
 20
60.1031315348
  0
SEQEND
  0
POLYLINE
  8
DEFAULT_2
 62
8
  6
HIDDEN
 66
1
 70
0
  0
VERTEX
  8
DEFAULT_2
 62
8
  6
HIDDEN
 10
80.2846714998
 20
68.8629618308
  0
VERTEX
  8
DEFAULT_2
 62
8
  6
HIDDEN
 10
80.4521367098
 20
68.281274142
  0
VERTEX
  8
DEFAULT_2
 62
8
  6
HIDDEN
 10
80.6002232576
 20
67.623062434
  0
VERTEX
  8
DEFAULT_2
 62
8
  6
HIDDEN
 10
80.7116124178
 20
66.9646886013
  0
VERTEX
  8
DEFAULT_2
 62
8
  6
HIDDEN
 10
80.7493779207
 20
66.6595557353
  0
VERTEX
  8
DEFAULT_2
 62
8
  6
HIDDEN
 10
80.7834050203
 20
66.1417117736
  0
VERTEX
  8
DEFAULT_2
 62
8
  6
HIDDEN
 10
80.7596013094
 20
65.7955619714
  0
VERTEX
  8
DEFAULT_2
 62
8
  6
HIDDEN
 10
80.6807133699
 20
65.661263766
  0
SEQEND
  0
LINE
  8
DEFAULT_2
 62
8
  6
HIDDEN
 10
80.878696158
 20
64.6810665748
 11
80.6807133699
 21
65.6612643621
  0
LINE
  8
0
 62
7
  6
CONTINUOUS
 10
111.1971470857
 20
81.3566198966
 11
106.647433951
 21
76.9621029518
  0
LINE
  8
0
 62
9
  6
CONTINUOUS
 10
108.2895085359
 20
75.3589740417
 11
106.647433951
 21
73.8230422161
  0
LINE
  8
DEFAULT_2
 62
8
  6
HIDDEN
 10
108.2895085359
 20
75.3589728496
 11
111.1971470857
 21
78.0624094627
  0
POLYLINE
  8
0
 62
9
  6
CONTINUOUS
 66
1
 70
0
  0
VERTEX
  8
0
 62
9
  6
CONTINUOUS
 10
106.647433951
 20
73.8230422161
  0
VERTEX
  8
0
 62
9
  6
CONTINUOUS
 10
106.022357657
 20
73.4505346439
  0
VERTEX
  8
0
 62
9
  6
CONTINUOUS
 10
105.66659899
 20
73.3291342876
  0
VERTEX
  8
0
 62
9
  6
CONTINUOUS
 10
104.9106022859
 20
73.2302680633
  0
SEQEND
  0
LINE
  8
DEFAULT_2
 62
8
  6
HIDDEN
 10
80.6807133699
 20
65.6612643621
 11
79.7115513826
 21
65.3604307792
  0
POLYLINE
  8
0
 62
9
  6
CONTINUOUS
 66
1
 70
0
  0
VERTEX
  8
0
 62
9
  6
CONTINUOUS
 10
109.678973868
 20
73.4469595573
  0
VERTEX
  8
0
 62
9
  6
CONTINUOUS
 10
109.4667241121
 20
73.3845677993
  0
VERTEX
  8
0
 62
9
  6
CONTINUOUS
 10
109.0237614656
 20
73.2765153072
  0
VERTEX
  8
0
 62
9
  6
CONTINUOUS
 10
108.6481663729
 20
73.2071879528
  0
VERTEX
  8
0
 62
9
  6
CONTINUOUS
 10
108.3294865633
 20
73.1651738307
  0
VERTEX
  8
0
 62
9
  6
CONTINUOUS
 10
108.052234366
 20
73.1428661964
  0
VERTEX
  8
0
 62
9
  6
CONTINUOUS
 10
107.8085515047
 20
73.1363263748
  0
VERTEX
  8
0
 62
9
  6
CONTINUOUS
 10
107.5884434725
 20
73.143476548
  0
VERTEX
  8
0
 62
9
  6
CONTINUOUS
 10
107.385425284
 20
73.1643202922
  0
VERTEX
  8
0
 62
9
  6
CONTINUOUS
 10
107.290515616
 20
73.1801059864
  0
VERTEX
  8
0
 62
9
  6
CONTINUOUS
 10
107.1159550691
 20
73.2227435729
  0
VERTEX
  8
0
 62
9
  6
CONTINUOUS
 10
106.9645115877
 20
73.2803145072
  0
VERTEX
  8
0
 62
9
  6
CONTINUOUS
 10
106.8393132234
 20
73.352649512
  0
VERTEX
  8
0
 62
9
  6
CONTINUOUS
 10
106.7430302645
 20
73.4388819358
  0
VERTEX
  8
0
 62
9
  6
CONTINUOUS
 10
106.6774174715
 20
73.5374990127
  0
VERTEX
  8
0
 62
9
  6
CONTINUOUS
 10
106.6428563143
 20
73.6463299415
  0
VERTEX
  8
0
 62
9
  6
CONTINUOUS
 10
106.6386601473
 20
73.7627843044
  0
VERTEX
  8
0
 62
9
  6
CONTINUOUS
 10
106.647433951
 20
73.8230434082
  0
SEQEND
  0
POLYLINE
  8
0
 62
9
  6
CONTINUOUS
 66
1
 70
0
  0
VERTEX
  8
0
 62
9
  6
CONTINUOUS
 10
109.678973868
 20
41.4311102054
  0
VERTEX
  8
0
 62
9
  6
CONTINUOUS
 10
108.3043095613
 20
41.4060273788
  0
VERTEX
  8
0
 62
9
  6
CONTINUOUS
 10
107.2063633943
 20
41.2671402118
  0
VERTEX
  8
0
 62
9
  6
CONTINUOUS
 10
106.41168566
 20
41.0761728904
  0
VERTEX
  8
0
 62
9
  6
CONTINUOUS
 10
106.117267325
 20
40.9881964347
  0
VERTEX
  8
0
 62
9
  6
CONTINUOUS
 10
105.6813237215
 20
40.8639755866
  0
VERTEX
  8
0
 62
9
  6
CONTINUOUS
 10
105.3560063387
 20
40.8023300788
  0
VERTEX
  8
0
 62
9
  6
CONTINUOUS
 10
105.0620457674
 20
40.7825019977
  0
SEQEND
  0
LINE
  8
0
 62
7
  6
CONTINUOUS
 10
124.4046208406
 20
43.7783280036
 11
123.461017325
 21
43.768015208
  0
POLYLINE
  8
DEFAULT_2
 62
8
  6
HIDDEN
 66
1
 70
0
  0
VERTEX
  8
DEFAULT_2
 62
8
  6
HIDDEN
 10
109.678973868
 20
42.2462514064
  0
VERTEX
  8
DEFAULT_2
 62
8
  6
HIDDEN
 10
109.395694449
 20
42.2445479057
  0
VERTEX
  8
DEFAULT_2
 62
8
  6
HIDDEN
 10
108.7926671053
 20
42.2248998306
  0
VERTEX
  8
DEFAULT_2
 62
8
  6
HIDDEN
 10
108.2668492342
 20
42.1835306308
  0
VERTEX
  8
DEFAULT_2
 62
8
  6
HIDDEN
 10
107.8087040926
 20
42.124349179
  0
VERTEX
  8
DEFAULT_2
 62
8
  6
HIDDEN
 10
107.3994633699
 20
42.0497933052
  0
VERTEX
  8
DEFAULT_2
 62
8
  6
HIDDEN
 10
107.0301243807
 20
41.961784663
  0
VERTEX
  8
DEFAULT_2
 62
8
  6
HIDDEN
 10
106.6874882723
 20
41.859226527
  0
VERTEX
  8
DEFAULT_2
 62
8
  6
HIDDEN
 10
106.3619420076
 20
41.7391553543
  0
VERTEX
  8
DEFAULT_2
 62
8
  6
HIDDEN
 10
106.2059971834
 20
41.6722288749
  0
VERTEX
  8
DEFAULT_2
 62
8
  6
HIDDEN
 10
105.9112736727
 20
41.5249422214
  0
VERTEX
  8
DEFAULT_2
 62
8
  6
HIDDEN
 10
105.644321158
 20
41.3608315608
  0
VERTEX
  8
DEFAULT_2
 62
8
  6
HIDDEN
 10
105.4111668611
 20
41.181921067
  0
VERTEX
  8
DEFAULT_2
 62
8
  6
HIDDEN
 10
105.2176091219
 20
40.9913459442
  0
VERTEX
  8
DEFAULT_2
 62
8
  6
HIDDEN
 10
105.0685307527
 20
40.7929018161
  0
VERTEX
  8
DEFAULT_2
 62
8
  6
HIDDEN
 10
104.9675938631
 20
40.5908408782
  0
VERTEX
  8
DEFAULT_2
 62
8
  6
HIDDEN
 10
104.9169346834
 20
40.389455857
  0
VERTEX
  8
DEFAULT_2
 62
8
  6
HIDDEN
 10
104.9106022859
 20
40.2902808807
  0
SEQEND
  0
LINE
  8
0
 62
7
  6
CONTINUOUS
 10
123.461017325
 20
43.768015208
 11
122.3478886629
 21
43.761381211
  0
LINE
  8
0
 62
9
  6
CONTINUOUS
 10
109.678973868
 20
40.073592963
 11
119.6626469637
 21
40.073592963
  0
LINE
  8
DEFAULT_2
 62
8
  6
HIDDEN
 10
119.6625706697
 20
42.2462514064
 11
109.678973868
 21
42.2462514064
  0
LINE
  8
0
 62
7
  6
CONTINUOUS
 10
122.3478886629
 20
43.761381211
 11
121.0857579256
 21
43.7611010692
  0
POLYLINE
  8
0
 62
7
  6
CONTINUOUS
 66
1
 70
0
  0
VERTEX
  8
0
 62
7
  6
CONTINUOUS
 10
121.0857579256
 20
43.7611010692
  0
VERTEX
  8
0
 62
7
  6
CONTINUOUS
 10
119.6818730379
 20
43.7698295734
  0
VERTEX
  8
0
 62
7
  6
CONTINUOUS
 10
116.3842961336
 20
43.8277903221
  0
VERTEX
  8
0
 62
7
  6
CONTINUOUS
 10
113.0881688143
 20
43.9382770679
  0
VERTEX
  8
0
 62
7
  6
CONTINUOUS
 10
109.7937199617
 20
44.101291003
  0
VERTEX
  8
0
 62
7
  6
CONTINUOUS
 10
108.6241337801
 20
44.1718331001
  0
SEQEND
  0
LINE
  8
0
 62
7
  6
CONTINUOUS
 10
108.6241337801
 20
44.1718331001
 11
107.0239445711
 21
44.279113116
  0
LINE
  8
0
 62
7
  6
CONTINUOUS
 10
107.0239445711
 20
44.279113116
 11
106.1863896395
 21
44.340234103
  0
POLYLINE
  8
0
 62
7
  6
CONTINUOUS
 66
1
 70
0
  0
VERTEX
  8
0
 62
7
  6
CONTINUOUS
 10
106.1863896395
 20
44.340234103
  0
VERTEX
  8
0
 62
7
  6
CONTINUOUS
 10
105.2210423494
 20
44.4149222991
  0
VERTEX
  8
0
 62
7
  6
CONTINUOUS
 10
92.3408696199
 20
45.848696532
  0
VERTEX
  8
0
 62
7
  6
CONTINUOUS
 10
80.6807133699
 20
47.8592845819
  0
SEQEND
  0
POLYLINE
  8
0
 62
9
  6
CONTINUOUS
 66
1
 70
0
  0
VERTEX
  8
0
 62
9
  6
CONTINUOUS
 10
105.0620457674
 20
40.7825019977
  0
VERTEX
  8
0
 62
9
  6
CONTINUOUS
 10
92.0576664949
 20
42.3955336235
  0
VERTEX
  8
0
 62
9
  6
CONTINUOUS
 10
80.2846714998
 20
44.6575871131
  0
SEQEND
  0
POLYLINE
  8
0
 62
7
  6
CONTINUOUS
 66
1
 70
0
  0
VERTEX
  8
0
 62
7
  6
CONTINUOUS
 10
80.6807133699
 20
47.8592845819
  0
VERTEX
  8
0
 62
7
  6
CONTINUOUS
 10
79.7115513826
 20
48.1601181648
  0
VERTEX
  8
0
 62
7
  6
CONTINUOUS
 10
78.7252995516
 20
48.7199744604
  0
VERTEX
  8
0
 62
7
  6
CONTINUOUS
 10
77.8232762361
 20
49.567038717
  0
VERTEX
  8
0
 62
7
  6
CONTINUOUS
 10
77.1418950106
 20
50.6414988658
  0
VERTEX
  8
0
 62
7
  6
CONTINUOUS
 10
76.7587468172
 20
51.8265262268
  0
VERTEX
  8
0
 62
7
  6
CONTINUOUS
 10
76.6784092928
 20
53.0361357353
  0
VERTEX
  8
0
 62
7
  6
CONTINUOUS
 10
76.7472264315
 20
53.6312034748
  0
VERTEX
  8
0
 62
7
  6
CONTINUOUS
 10
77.0914647127
 20
54.7676242909
  0
VERTEX
  8
0
 62
7
  6
CONTINUOUS
 10
77.6947209383
 20
55.7918636522
  0
VERTEX
  8
0
 62
7
  6
CONTINUOUS
 10
78.52106066
 20
56.6434244274
  0
VERTEX
  8
0
 62
7
  6
CONTINUOUS
 10
79.5011326815
 20
57.2649998984
  0
VERTEX
  8
0
 62
7
  6
CONTINUOUS
 10
80.5758854891
 20
57.638924273
  0
VERTEX
  8
0
 62
7
  6
CONTINUOUS
 10
81.6707798982
 20
57.7602744869
  0
SEQEND
  0
POLYLINE
  8
0
 62
9
  6
CONTINUOUS
 66
1
 70
0
  0
VERTEX
  8
0
 62
9
  6
CONTINUOUS
 10
106.647433951
 20
39.6975067279
  0
VERTEX
  8
0
 62
9
  6
CONTINUOUS
 10
106.022357657
 20
40.0700143001
  0
VERTEX
  8
0
 62
9
  6
CONTINUOUS
 10
105.66659899
 20
40.1914146564
  0
VERTEX
  8
0
 62
9
  6
CONTINUOUS
 10
104.9106022859
 20
40.2902808807
  0
SEQEND
  0
LINE
  8
DEFAULT_2
 62
8
  6
HIDDEN
 10
78.52106066
 20
56.8771245166
 11
79.5011326815
 21
56.2555490456
  0
POLYLINE
  8
0
 62
9
  6
CONTINUOUS
 66
1
 70
0
  0
VERTEX
  8
0
 62
9
  6
CONTINUOUS
 10
111.1971470857
 20
35.4581394813
  0
VERTEX
  8
0
 62
9
  6
CONTINUOUS
 10
112.2224614168
 20
34.7539868972
  0
VERTEX
  8
0
 62
9
  6
CONTINUOUS
 10
113.4059330965
 20
34.3127909324
  0
VERTEX
  8
0
 62
9
  6
CONTINUOUS
 10
114.6708104158
 20
34.1625657699
  0
VERTEX
  8
0
 62
9
  6
CONTINUOUS
 10
115.9356877352
 20
34.3127885482
  0
VERTEX
  8
0
 62
9
  6
CONTINUOUS
 10
117.1191594148
 20
34.7539892814
  0
VERTEX
  8
0
 62
9
  6
CONTINUOUS
 10
118.1444737459
 20
35.4581394813
  0
SEQEND
  0
POLYLINE
  8
0
 62
9
  6
CONTINUOUS
 66
1
 70
0
  0
VERTEX
  8
0
 62
9
  6
CONTINUOUS
 10
112.5866124178
 20
37.3880532405
  0
VERTEX
  8
0
 62
9
  6
CONTINUOUS
 10
113.2019230867
 20
36.9511809967
  0
VERTEX
  8
0
 62
9
  6
CONTINUOUS
 10
113.9121434236
 20
36.6778436325
  0
VERTEX
  8
0
 62
9
  6
CONTINUOUS
 10
114.6711155916
 20
36.5848937652
  0
VERTEX
  8
0
 62
9
  6
CONTINUOUS
 10
115.4300877596
 20
36.6779962203
  0
VERTEX
  8
0
 62
9
  6
CONTINUOUS
 10
116.1401555086
 20
36.951428952
  0
VERTEX
  8
0
 62
9
  6
CONTINUOUS
 10
116.7550084139
 20
37.3880532405
  0
SEQEND
  0
POLYLINE
  8
0
 62
7
  6
CONTINUOUS
 66
1
 70
0
  0
VERTEX
  8
0
 62
7
  6
CONTINUOUS
 10
78.6708256746
 20
56.760274472
  0
VERTEX
  8
0
 62
7
  6
CONTINUOUS
 10
78.7313267732
 20
56.7155744529
  0
VERTEX
  8
0
 62
7
  6
CONTINUOUS
 10
78.9151951815
 20
56.5881588704
  0
VERTEX
  8
0
 62
7
  6
CONTINUOUS
 10
79.2174717928
 20
56.4035428337
  0
VERTEX
  8
0
 62
7
  6
CONTINUOUS
 10
79.6254155184
 20
56.1977744869
  0
SEQEND
  0
LINE
  8
0
 62
9
  6
CONTINUOUS
 10
106.647433951
 20
39.6975067279
 11
108.2895085359
 21
38.1615760944
  0
LINE
  8
0
 62
7
  6
CONTINUOUS
 10
111.1971470857
 20
32.1639290473
 11
106.647433951
 21
36.5584459922
  0
LINE
  8
0
 62
9
  6
CONTINUOUS
 10
116.7550084139
 20
76.1324957035
 11
117.250156119
 21
76.651120486
  0
POLYLINE
  8
DEFAULT_2
 62
8
  6
HIDDEN
 66
1
 70
0
  0
VERTEX
  8
DEFAULT_2
 62
8
  6
HIDDEN
 10
161.6707798982
 20
53.4174174092
  0
VERTEX
  8
DEFAULT_2
 62
8
  6
HIDDEN
 10
163.2093235994
 20
53.6081495902
  0
VERTEX
  8
DEFAULT_2
 62
8
  6
HIDDEN
 10
164.7130772615
 20
54.1925802848
  0
VERTEX
  8
DEFAULT_2
 62
8
  6
HIDDEN
 10
166.0830876375
 20
55.1620070658
  0
VERTEX
  8
DEFAULT_2
 62
8
  6
HIDDEN
 10
167.2380253816
 20
56.4891486636
  0
VERTEX
  8
DEFAULT_2
 62
8
  6
HIDDEN
 10
168.0809971834
 20
58.0836299083
  0
VERTEX
  8
DEFAULT_2
 62
8
  6
HIDDEN
 10
168.5633275057
 20
59.8559099457
  0
VERTEX
  8
DEFAULT_2
 62
8
  6
HIDDEN
 10
168.6599919344
 20
60.7834589503
  0
VERTEX
  8
DEFAULT_2
 62
8
  6
HIDDEN
 10
168.5487553621
 20
62.6676073692
  0
VERTEX
  8
DEFAULT_2
 62
8
  6
HIDDEN
 10
168.0143162752
 20
64.5153513572
  0
VERTEX
  8
DEFAULT_2
 62
8
  6
HIDDEN
 10
167.0622441316
 20
66.1922428033
  0
VERTEX
  8
DEFAULT_2
 62
8
  6
HIDDEN
 10
165.800571158
 20
67.515371146
  0
VERTEX
  8
DEFAULT_2
 62
8
  6
HIDDEN
 10
164.4188878084
 20
68.3912196777
  0
VERTEX
  8
DEFAULT_2
 62
8
  6
HIDDEN
 10
163.0569645906
 20
68.8629618308
  0
SEQEND
  0
LINE
  8
DEFAULT_2
 62
8
  6
HIDDEN
 10
161.6707798982
 20
55.7602744571
 11
162.7697941805
 21
55.8825394533
  0
LINE
  8
DEFAULT_2
 62
8
  6
HIDDEN
 10
79.5011326815
 20
56.2555490456
 11
80.5758854891
 21
55.881624671
  0
POLYLINE
  8
0
 62
9
  6
CONTINUOUS
 66
1
 70
0
  0
VERTEX
  8
0
 62
9
  6
CONTINUOUS
 10
116.7550084139
 20
37.3880532405
  0
VERTEX
  8
0
 62
9
  6
CONTINUOUS
 10
117.250156119
 20
36.8694272659
  0
VERTEX
  8
0
 62
9
  6
CONTINUOUS
 10
117.6813694979
 20
36.3294306419
  0
VERTEX
  8
0
 62
9
  6
CONTINUOUS
 10
117.9928776766
 20
35.8378306053
  0
VERTEX
  8
0
 62
9
  6
CONTINUOUS
 10
118.1444737459
 20
35.4581394813
  0
SEQEND
  0
LINE
  8
0
 62
9
  6
CONTINUOUS
 10
104.9106022859
 20
37.2602739952
 11
104.9106022859
 21
40.2902820728
  0
LINE
  8
0
 62
9
  6
CONTINUOUS
 10
104.9106022859
 20
73.2302680633
 11
104.9106022859
 21
76.2602749488
  0
LINE
  8
0
 62
9
  6
CONTINUOUS
 10
117.6813694979
 20
77.1911159179
 11
117.9928776766
 21
77.6827159545
  0
LINE
  8
0
 62
9
  6
CONTINUOUS
 10
117.250156119
 20
76.651120486
 11
117.6813694979
 21
77.1911159179
  0
POLYLINE
  8
DEFAULT_2
 62
8
  6
HIDDEN
 66
1
 70
0
  0
VERTEX
  8
DEFAULT_2
 62
8
  6
HIDDEN
 10
123.6013981844
 20
73.3499434612
  0
VERTEX
  8
DEFAULT_2
 62
8
  6
HIDDEN
 10
123.4852787996
 20
73.2708218715
  0
VERTEX
  8
DEFAULT_2
 62
8
  6
HIDDEN
 10
123.1733891512
 20
73.0280783794
  0
VERTEX
  8
DEFAULT_2
 62
8
  6
HIDDEN
 10
122.6547429109
 20
72.7289596221
  0
VERTEX
  8
DEFAULT_2
 62
8
  6
HIDDEN
 10
122.3127171541
 20
72.5966683052
  0
VERTEX
  8
DEFAULT_2
 62
8
  6
HIDDEN
 10
121.4323613191
 20
72.3863199375
  0
VERTEX
  8
DEFAULT_2
 62
8
  6
HIDDEN
 10
120.3058049227
 20
72.2726610324
  0
VERTEX
  8
DEFAULT_2
 62
8
  6
HIDDEN
 10
119.6626469637
 20
72.2567704341
  0
SEQEND
  0
LINE
  8
DEFAULT_2
 62
8
  6
HIDDEN
 10
81.6707798982
 20
53.4174174092
 11
161.6707798982
 21
53.4174174092
  0
LINE
  8
0
 62
7
  6
CONTINUOUS
 10
161.6707798982
 20
55.7602744571
 11
81.6707798982
 21
55.7602744571
  0
LINE
  8
DEFAULT_2
 62
8
  6
HIDDEN
 10
80.5758854891
 20
55.881624671
 11
81.6707798982
 21
55.7602744571
  0
POLYLINE
  8
0
 62
9
  6
CONTINUOUS
 66
1
 70
0
  0
VERTEX
  8
0
 62
9
  6
CONTINUOUS
 10
123.6013981844
 20
40.1706054828
  0
VERTEX
  8
0
 62
9
  6
CONTINUOUS
 10
123.4852787996
 20
40.2497270725
  0
VERTEX
  8
0
 62
9
  6
CONTINUOUS
 10
123.1733891512
 20
40.4924705646
  0
VERTEX
  8
0
 62
9
  6
CONTINUOUS
 10
122.6547429109
 20
40.7915893218
  0
VERTEX
  8
0
 62
9
  6
CONTINUOUS
 10
122.3127171541
 20
40.9238806388
  0
VERTEX
  8
0
 62
9
  6
CONTINUOUS
 10
121.4323613191
 20
41.1342290065
  0
VERTEX
  8
0
 62
9
  6
CONTINUOUS
 10
120.3058049227
 20
41.2478879116
  0
VERTEX
  8
0
 62
9
  6
CONTINUOUS
 10
119.6626469637
 20
41.2637785099
  0
SEQEND
  0
POLYLINE
  8
0
 62
9
  6
CONTINUOUS
 66
1
 70
0
  0
VERTEX
  8
0
 62
9
  6
CONTINUOUS
 10
119.6626469637
 20
40.073592963
  0
VERTEX
  8
0
 62
9
  6
CONTINUOUS
 10
120.153293326
 20
39.5625284336
  0
VERTEX
  8
0
 62
9
  6
CONTINUOUS
 10
120.5820652986
 20
39.0296474121
  0
VERTEX
  8
0
 62
9
  6
CONTINUOUS
 10
120.8947941805
 20
38.5421672485
  0
VERTEX
  8
0
 62
9
  6
CONTINUOUS
 10
121.0521122957
 20
38.1615784786
  0
SEQEND
  0
POLYLINE
  8
0
 62
9
  6
CONTINUOUS
 66
1
 70
0
  0
VERTEX
  8
0
 62
9
  6
CONTINUOUS
 10
106.647433951
 20
39.6975055358
  0
VERTEX
  8
0
 62
9
  6
CONTINUOUS
 10
106.6386601473
 20
39.7577753684
  0
VERTEX
  8
0
 62
9
  6
CONTINUOUS
 10
106.6428563143
 20
39.8742464206
  0
VERTEX
  8
0
 62
9
  6
CONTINUOUS
 10
106.6774174715
 20
39.9830785415
  0
VERTEX
  8
0
 62
9
  6
CONTINUOUS
 10
106.7431065584
 20
40.0816980026
  0
VERTEX
  8
0
 62
9
  6
CONTINUOUS
 10
106.8393895174
 20
40.1679304264
  0
VERTEX
  8
0
 62
9
  6
CONTINUOUS
 10
106.9645878816
 20
40.240263047
  0
VERTEX
  8
0
 62
9
  6
CONTINUOUS
 10
107.1160313631
 20
40.297830405
  0
VERTEX
  8
0
 62
9
  6
CONTINUOUS
 10
107.29059191
 20
40.3404620311
  0
VERTEX
  8
0
 62
9
  6
CONTINUOUS
 10
107.3855015779
 20
40.3562453411
  0
VERTEX
  8
0
 62
9
  6
CONTINUOUS
 10
107.5885960604
 20
40.3770819328
  0
VERTEX
  8
0
 62
9
  6
CONTINUOUS
 10
107.8087040926
 20
40.3842225692
  0
VERTEX
  8
0
 62
9
  6
CONTINUOUS
 10
108.0524632479
 20
40.3776732109
  0
VERTEX
  8
0
 62
9
  6
CONTINUOUS
 10
108.3297154451
 20
40.3553512714
  0
VERTEX
  8
0
 62
9
  6
CONTINUOUS
 10
108.6484715486
 20
40.3133168838
  0
VERTEX
  8
0
 62
9
  6
CONTINUOUS
 10
109.0241429354
 20
40.2439537666
  0
VERTEX
  8
0
 62
9
  6
CONTINUOUS
 10
109.4671055818
 20
40.1358810089
  0
VERTEX
  8
0
 62
9
  6
CONTINUOUS
 10
109.678973868
 20
40.0735893867
  0
SEQEND
  0
POLYLINE
  8
DEFAULT_2
 62
8
  6
HIDDEN
 66
1
 70
0
  0
VERTEX
  8
DEFAULT_2
 62
8
  6
HIDDEN
 10
109.678973868
 20
72.0894327781
  0
VERTEX
  8
DEFAULT_2
 62
8
  6
HIDDEN
 10
109.7001072908
 20
71.7539075038
  0
VERTEX
  8
DEFAULT_2
 62
8
  6
HIDDEN
 10
109.7397801424
 20
71.0626867435
  0
VERTEX
  8
DEFAULT_2
 62
8
  6
HIDDEN
 10
109.7721287752
 20
70.4138043544
  0
VERTEX
  8
DEFAULT_2
 62
8
  6
HIDDEN
 10
109.7843358065
 20
70.1300027988
  0
VERTEX
  8
DEFAULT_2
 62
8
  6
HIDDEN
 10
109.79890795
 20
69.6862581394
  0
VERTEX
  8
DEFAULT_2
 62
8
  6
HIDDEN
 10
109.7991368318
 20
69.4498053215
  0
VERTEX
  8
DEFAULT_2
 62
8
  6
HIDDEN
 10
109.7937199617
 20
69.4192543647
  0
SEQEND
  0
LINE
  8
0
 62
9
  6
CONTINUOUS
 10
106.647433951
 20
36.5584459922
 11
106.647433951
 21
39.6975067279
  0
LINE
  8
0
 62
9
  6
CONTINUOUS
 10
106.647433951
 20
73.8230422161
 11
106.647433951
 21
76.9621029518
  0
LINE
  8
0
 62
9
  6
CONTINUOUS
 10
109.678973868
 20
40.073592963
 11
109.678973868
 21
41.4311102054
  0
LINE
  8
DEFAULT_2
 62
8
  6
HIDDEN
 10
109.678973868
 20
41.4311102054
 11
109.678973868
 21
42.2462514064
  0
LINE
  8
0
 62
9
  6
CONTINUOUS
 10
109.678973868
 20
71.2742975376
 11
109.678973868
 21
73.446955981
  0
LINE
  8
0
 62
9
  6
CONTINUOUS
 10
111.1971470857
 20
32.1639290473
 11
111.1971470857
 21
35.4581394813
  0
LINE
  8
0
 62
9
  6
CONTINUOUS
 10
111.1971470857
 20
78.0624094627
 11
111.1971470857
 21
81.3566198966
  0
POLYLINE
  8
0
 62
9
  6
CONTINUOUS
 66
1
 70
0
  0
VERTEX
  8
0
 62
9
  6
CONTINUOUS
 10
109.678973868
 20
41.4311161659
  0
VERTEX
  8
0
 62
9
  6
CONTINUOUS
 10
109.7001072908
 20
41.7666414401
  0
VERTEX
  8
0
 62
9
  6
CONTINUOUS
 10
109.7397801424
 20
42.4578622005
  0
VERTEX
  8
0
 62
9
  6
CONTINUOUS
 10
109.7721287752
 20
43.1067445896
  0
VERTEX
  8
0
 62
9
  6
CONTINUOUS
 10
109.7843358065
 20
43.3905461452
  0
VERTEX
  8
0
 62
9
  6
CONTINUOUS
 10
109.79890795
 20
43.8342908046
  0
VERTEX
  8
0
 62
9
  6
CONTINUOUS
 10
109.7991368318
 20
44.0707436225
  0
VERTEX
  8
0
 62
9
  6
CONTINUOUS
 10
109.7937199617
 20
44.1012945793
  0
SEQEND
  0
POLYLINE
  8
0
 62
9
  6
CONTINUOUS
 66
1
 70
0
  0
VERTEX
  8
0
 62
9
  6
CONTINUOUS
 10
104.9106022859
 20
40.2902820728
  0
VERTEX
  8
0
 62
9
  6
CONTINUOUS
 10
104.9348637606
 20
40.4856434486
  0
VERTEX
  8
0
 62
9
  6
CONTINUOUS
 10
104.9652287508
 20
40.5845776222
  0
VERTEX
  8
0
 62
9
  6
CONTINUOUS
 10
105.0620457674
 20
40.7825019977
  0
SEQEND
  0
POLYLINE
  8
0
 62
9
  6
CONTINUOUS
 66
1
 70
0
  0
VERTEX
  8
0
 62
9
  6
CONTINUOUS
 10
105.0620457674
 20
40.7825019977
  0
VERTEX
  8
0
 62
9
  6
CONTINUOUS
 10
105.1082798982
 20
40.9960714004
  0
VERTEX
  8
0
 62
9
  6
CONTINUOUS
 10
105.1954075838
 20
41.5370419643
  0
VERTEX
  8
0
 62
9
  6
CONTINUOUS
 10
105.2675816561
 20
42.1774151943
  0
VERTEX
  8
0
 62
9
  6
CONTINUOUS
 10
105.3166386629
 20
42.8451994083
  0
VERTEX
  8
0
 62
9
  6
CONTINUOUS
 10
105.3306767488
 20
43.1657984874
  0
VERTEX
  8
0
 62
9
  6
CONTINUOUS
 10
105.3357884432
 20
43.7352946422
  0
VERTEX
  8
0
 62
9
  6
CONTINUOUS
 10
105.3100773836
 20
44.1570666454
  0
VERTEX
  8
0
 62
9
  6
CONTINUOUS
 10
105.25644274
 20
44.383699002
  0
VERTEX
  8
0
 62
9
  6
CONTINUOUS
 10
105.2210423494
 20
44.4149222991
  0
SEQEND
  0
LINE
  8
0
 62
9
  6
CONTINUOUS
 10
117.9928776766
 20
77.6827159545
 11
118.1444737459
 21
78.0624046943
  0
LINE
  8
0
 62
7
  6
CONTINUOUS
 10
81.6707798982
 20
57.7602744869
 11
161.6707798982
 21
57.7602744869
  0
LINE
  8
0
 62
9
  6
CONTINUOUS
 10
81.6707798982
 20
60.1031315348
 11
161.6707798982
 21
60.1031315348
  0
POLYLINE
  8
DEFAULT_2
 62
8
  6
HIDDEN
 66
1
 70
0
  0
VERTEX
  8
DEFAULT_2
 62
8
  6
HIDDEN
 10
105.0620457674
 20
72.7380469463
  0
VERTEX
  8
DEFAULT_2
 62
8
  6
HIDDEN
 10
105.1082798982
 20
72.5244775436
  0
VERTEX
  8
DEFAULT_2
 62
8
  6
HIDDEN
 10
105.1954075838
 20
71.9835069797
  0
VERTEX
  8
DEFAULT_2
 62
8
  6
HIDDEN
 10
105.2675816561
 20
71.3431337497
  0
VERTEX
  8
DEFAULT_2
 62
8
  6
HIDDEN
 10
105.3166386629
 20
70.6753495357
  0
VERTEX
  8
DEFAULT_2
 62
8
  6
HIDDEN
 10
105.3306767488
 20
70.3547504566
  0
VERTEX
  8
DEFAULT_2
 62
8
  6
HIDDEN
 10
105.3357884432
 20
69.7852543018
  0
VERTEX
  8
DEFAULT_2
 62
8
  6
HIDDEN
 10
105.3100773836
 20
69.3634822986
  0
VERTEX
  8
DEFAULT_2
 62
8
  6
HIDDEN
 10
105.25644274
 20
69.136849942
  0
VERTEX
  8
DEFAULT_2
 62
8
  6
HIDDEN
 10
105.2210423494
 20
69.1056266448
  0
SEQEND
  0
POLYLINE
  8
DEFAULT_2
 62
8
  6
HIDDEN
 66
1
 70
0
  0
VERTEX
  8
DEFAULT_2
 62
8
  6
HIDDEN
 10
104.9106022859
 20
73.2302668712
  0
VERTEX
  8
DEFAULT_2
 62
8
  6
HIDDEN
 10
104.9348637606
 20
73.0349054954
  0
VERTEX
  8
DEFAULT_2
 62
8
  6
HIDDEN
 10
104.9652287508
 20
72.9359713218
  0
VERTEX
  8
DEFAULT_2
 62
8
  6
HIDDEN
 10
105.0620457674
 20
72.7380469463
  0
SEQEND
  0
POLYLINE
  8
0
 62
9
  6
CONTINUOUS
 66
1
 70
0
  0
VERTEX
  8
0
 62
9
  6
CONTINUOUS
 10
121.0521122957
 20
75.3589752338
  0
VERTEX
  8
0
 62
9
  6
CONTINUOUS
 10
120.8947941805
 20
74.9783816955
  0
VERTEX
  8
0
 62
9
  6
CONTINUOUS
 10
120.5820652986
 20
74.4909003398
  0
VERTEX
  8
0
 62
9
  6
CONTINUOUS
 10
120.153293326
 20
73.9580193183
  0
VERTEX
  8
0
 62
9
  6
CONTINUOUS
 10
119.6626469637
 20
73.4469583652
  0
SEQEND
  0
POLYLINE
  8
0
 62
9
  6
CONTINUOUS
 66
1
 70
0
  0
VERTEX
  8
0
 62
9
  6
CONTINUOUS
 10
108.2895085359
 20
38.1615737102
  0
VERTEX
  8
0
 62
9
  6
CONTINUOUS
 10
108.4468266512
 20
38.5421672485
  0
VERTEX
  8
0
 62
9
  6
CONTINUOUS
 10
108.759555533
 20
39.0296486042
  0
VERTEX
  8
0
 62
9
  6
CONTINUOUS
 10
109.1883275057
 20
39.5625296256
  0
VERTEX
  8
0
 62
9
  6
CONTINUOUS
 10
109.678973868
 20
40.0735905788
  0
SEQEND
  0
LINE
  8
DEFAULT_2
 62
8
  6
HIDDEN
 10
105.2210423494
 20
69.1056266448
 11
92.3408696199
 21
67.671852412
  0
LINE
  8
DEFAULT_2
 62
8
  6
HIDDEN
 10
106.1863896395
 20
69.180314841
 11
105.2210423494
 21
69.1056266448
  0
LINE
  8
DEFAULT_2
 62
8
  6
HIDDEN
 10
107.0239445711
 20
69.241435828
 11
106.1863896395
 21
69.180314841
  0
POLYLINE
  8
0
 62
7
  6
CONTINUOUS
 66
1
 70
0
  0
VERTEX
  8
0
 62
7
  6
CONTINUOUS
 10
161.6707798982
 20
57.7602744869
  0
VERTEX
  8
0
 62
7
  6
CONTINUOUS
 10
162.7697941805
 20
57.6380094907
  0
VERTEX
  8
0
 62
7
  6
CONTINUOUS
 10
163.8438603426
 20
57.2633671782
  0
VERTEX
  8
0
 62
7
  6
CONTINUOUS
 10
164.8224064852
 20
56.6419344882
  0
VERTEX
  8
0
 62
7
  6
CONTINUOUS
 10
165.6474492098
 20
55.7911882571
  0
VERTEX
  8
0
 62
7
  6
CONTINUOUS
 10
166.2495610262
 20
54.7690829656
  0
VERTEX
  8
0
 62
7
  6
CONTINUOUS
 10
166.5940281893
 20
53.6330094955
  0
VERTEX
  8
0
 62
7
  6
CONTINUOUS
 10
166.6630742098
 20
53.0384305141
  0
VERTEX
  8
0
 62
7
  6
CONTINUOUS
 10
166.5836522127
 20
51.8306535504
  0
VERTEX
  8
0
 62
7
  6
CONTINUOUS
 10
166.2018773104
 20
50.646210017
  0
VERTEX
  8
0
 62
7
  6
CONTINUOUS
 10
165.5218693758
 20
49.5712915084
  0
VERTEX
  8
0
 62
7
  6
CONTINUOUS
 10
164.6206089998
 20
48.7231293342
  0
VERTEX
  8
0
 62
7
  6
CONTINUOUS
 10
163.6336705232
 20
48.1616845748
  0
VERTEX
  8
0
 62
7
  6
CONTINUOUS
 10
162.6609227205
 20
47.8592845819
  0
SEQEND
  0
POLYLINE
  8
0
 62
9
  6
CONTINUOUS
 66
1
 70
0
  0
VERTEX
  8
0
 62
9
  6
CONTINUOUS
 10
161.6707798982
 20
60.1031315348
  0
VERTEX
  8
0
 62
9
  6
CONTINUOUS
 10
163.2093235994
 20
59.9123993537
  0
VERTEX
  8
0
 62
9
  6
CONTINUOUS
 10
164.7130772615
 20
59.3279686592
  0
VERTEX
  8
0
 62
9
  6
CONTINUOUS
 10
166.0830876375
 20
58.3585418782
  0
VERTEX
  8
0
 62
9
  6
CONTINUOUS
 10
167.2380253816
 20
57.0314002804
  0
VERTEX
  8
0
 62
9
  6
CONTINUOUS
 10
168.0809971834
 20
55.4369190357
  0
VERTEX
  8
0
 62
9
  6
CONTINUOUS
 10
168.5633275057
 20
53.6646389983
  0
VERTEX
  8
0
 62
9
  6
CONTINUOUS
 10
168.6599919344
 20
52.7370899937
  0
VERTEX
  8
0
 62
9
  6
CONTINUOUS
 10
168.5487553621
 20
50.8529415748
  0
VERTEX
  8
0
 62
9
  6
CONTINUOUS
 10
168.0143162752
 20
49.0051975868
  0
VERTEX
  8
0
 62
9
  6
CONTINUOUS
 10
167.0622441316
 20
47.3283061407
  0
VERTEX
  8
0
 62
9
  6
CONTINUOUS
 10
165.800571158
 20
46.005177798
  0
VERTEX
  8
0
 62
9
  6
CONTINUOUS
 10
164.4188878084
 20
45.1293292663
  0
VERTEX
  8
0
 62
9
  6
CONTINUOUS
 10
163.0569645906
 20
44.6575871131
  0
SEQEND
  0
POLYLINE
  8
DEFAULT_2
 62
8
  6
HIDDEN
 66
1
 70
0
  0
VERTEX
  8
DEFAULT_2
 62
8
  6
HIDDEN
 10
124.4310185457
 20
40.2902820728
  0
VERTEX
  8
DEFAULT_2
 62
8
  6
HIDDEN
 10
124.4246861482
 20
40.3894570491
  0
VERTEX
  8
DEFAULT_2
 62
8
  6
HIDDEN
 10
124.3740269686
 20
40.5908659122
  0
VERTEX
  8
DEFAULT_2
 62
8
  6
HIDDEN
 10
124.2730900789
 20
40.7929340026
  0
VERTEX
  8
DEFAULT_2
 62
8
  6
HIDDEN
 10
124.1240117098
 20
40.9913912437
  0
VERTEX
  8
DEFAULT_2
 62
8
  6
HIDDEN
 10
123.9303776766
 20
41.1819747112
  0
VERTEX
  8
DEFAULT_2
 62
8
  6
HIDDEN
 10
123.6971470857
 20
41.3608923576
  0
VERTEX
  8
DEFAULT_2
 62
8
  6
HIDDEN
 10
123.4301945711
 20
41.5250065944
  0
VERTEX
  8
DEFAULT_2
 62
8
  6
HIDDEN
 10
123.1354710604
 20
41.6722956321
  0
VERTEX
  8
DEFAULT_2
 62
8
  6
HIDDEN
 10
122.9795262361
 20
41.7392209194
  0
VERTEX
  8
DEFAULT_2
 62
8
  6
HIDDEN
 10
122.6539799715
 20
41.8592920921
  0
VERTEX
  8
DEFAULT_2
 62
8
  6
HIDDEN
 10
122.3112675691
 20
41.9618418834
  0
VERTEX
  8
DEFAULT_2
 62
8
  6
HIDDEN
 10
121.9419285799
 20
42.0498481414
  0
VERTEX
  8
DEFAULT_2
 62
8
  6
HIDDEN
 10
121.5326115633
 20
42.1243980548
  0
VERTEX
  8
DEFAULT_2
 62
8
  6
HIDDEN
 10
121.0743138338
 20
42.183571162
  0
VERTEX
  8
DEFAULT_2
 62
8
  6
HIDDEN
 10
120.5484959627
 20
42.2249284408
  0
VERTEX
  8
DEFAULT_2
 62
8
  6
HIDDEN
 10
119.945392325
 20
42.2445538661
  0
VERTEX
  8
DEFAULT_2
 62
8
  6
HIDDEN
 10
119.6625706697
 20
42.2462514064
  0
SEQEND
  0
LINE
  8
0
 62
9
  6
CONTINUOUS
 10
119.6824070955
 20
43.742311301
 11
119.6818730379
 21
43.7698295734
  0
POLYLINE
  8
DEFAULT_2
 62
8
  6
HIDDEN
 66
1
 70
0
  0
VERTEX
  8
DEFAULT_2
 62
8
  6
HIDDEN
 10
119.6626469637
 20
72.2567704341
  0
VERTEX
  8
DEFAULT_2
 62
8
  6
HIDDEN
 10
119.6819493318
 20
69.9938181064
  0
VERTEX
  8
DEFAULT_2
 62
8
  6
HIDDEN
 10
119.6824070955
 20
69.778237643
  0
VERTEX
  8
DEFAULT_2
 62
8
  6
HIDDEN
 10
119.6818730379
 20
69.7507193706
  0
SEQEND
  0
LINE
  8
0
 62
9
  6
CONTINUOUS
 10
118.1444737459
 20
32.1639290473
 11
118.1444737459
 21
35.4581394813
  0
LINE
  8
0
 62
9
  6
CONTINUOUS
 10
118.1444737459
 20
78.0624094627
 11
118.1444737459
 21
81.3566198966
  0
LINE
  8
0
 62
9
  6
CONTINUOUS
 10
119.6626469637
 20
40.073592963
 11
119.6626469637
 21
41.2637773178
  0
LINE
  8
DEFAULT_2
 62
8
  6
HIDDEN
 10
119.6626469637
 20
41.2637773178
 11
119.6626469637
 21
42.2462514064
  0
LINE
  8
0
 62
9
  6
CONTINUOUS
 10
119.6626469637
 20
71.2742975376
 11
119.6626469637
 21
73.446955981
  0
LINE
  8
0
 62
9
  6
CONTINUOUS
 10
122.6941868807
 20
36.5584459922
 11
122.6941868807
 21
39.6975067279
  0
LINE
  8
0
 62
9
  6
CONTINUOUS
 10
122.6941868807
 20
73.8230422161
 11
122.6941868807
 21
76.9621029518
  0
LINE
  8
0
 62
9
  6
CONTINUOUS
 10
119.6793553377
 20
43.119147124
 11
119.6824070955
 21
43.742311301
  0
LINE
  8
0
 62
9
  6
CONTINUOUS
 10
119.6626469637
 20
41.2637785099
 11
119.6793553377
 21
43.119147124
  0
POLYLINE
  8
0
 62
9
  6
CONTINUOUS
 66
1
 70
0
  0
VERTEX
  8
0
 62
9
  6
CONTINUOUS
 10
124.4310185457
 20
73.2302668712
  0
VERTEX
  8
0
 62
9
  6
CONTINUOUS
 10
124.4246861482
 20
73.1310918949
  0
VERTEX
  8
0
 62
9
  6
CONTINUOUS
 10
124.3740269686
 20
72.9296830318
  0
VERTEX
  8
0
 62
9
  6
CONTINUOUS
 10
124.2730900789
 20
72.7276149414
  0
VERTEX
  8
0
 62
9
  6
CONTINUOUS
 10
124.1240117098
 20
72.5291577003
  0
VERTEX
  8
0
 62
9
  6
CONTINUOUS
 10
123.9303776766
 20
72.3385742328
  0
VERTEX
  8
0
 62
9
  6
CONTINUOUS
 10
123.6971470857
 20
72.1596565864
  0
VERTEX
  8
0
 62
9
  6
CONTINUOUS
 10
123.4301945711
 20
71.9955423496
  0
VERTEX
  8
0
 62
9
  6
CONTINUOUS
 10
123.1354710604
 20
71.8482533119
  0
VERTEX
  8
0
 62
9
  6
CONTINUOUS
 10
122.9795262361
 20
71.7813280246
  0
VERTEX
  8
0
 62
9
  6
CONTINUOUS
 10
122.6539799715
 20
71.6612568519
  0
VERTEX
  8
0
 62
9
  6
CONTINUOUS
 10
122.3112675691
 20
71.5587070606
  0
VERTEX
  8
0
 62
9
  6
CONTINUOUS
 10
121.9419285799
 20
71.4707008026
  0
VERTEX
  8
0
 62
9
  6
CONTINUOUS
 10
121.5326115633
 20
71.3961508892
  0
VERTEX
  8
0
 62
9
  6
CONTINUOUS
 10
121.0743138338
 20
71.336977782
  0
VERTEX
  8
0
 62
9
  6
CONTINUOUS
 10
120.5484959627
 20
71.2956205032
  0
VERTEX
  8
0
 62
9
  6
CONTINUOUS
 10
119.945392325
 20
71.2759950778
  0
VERTEX
  8
0
 62
9
  6
CONTINUOUS
 10
119.6626469637
 20
71.2742975376
  0
SEQEND
  0
LINE
  8
DEFAULT_2
 62
8
  6
HIDDEN
 10
92.3408696199
 20
67.671852412
 11
80.6807133699
 21
65.6612643621
  0
POLYLINE
  8
DEFAULT_2
 62
8
  6
HIDDEN
 66
1
 70
0
  0
VERTEX
  8
DEFAULT_2
 62
8
  6
HIDDEN
 10
105.0620457674
 20
72.7380469463
  0
VERTEX
  8
DEFAULT_2
 62
8
  6
HIDDEN
 10
92.0576664949
 20
71.1250153205
  0
VERTEX
  8
DEFAULT_2
 62
8
  6
HIDDEN
 10
80.2846714998
 20
68.8629618308
  0
SEQEND
  0
POLYLINE
  8
DEFAULT_2
 62
8
  6
HIDDEN
 66
1
 70
0
  0
VERTEX
  8
DEFAULT_2
 62
8
  6
HIDDEN
 10
119.6818730379
 20
69.7507193706
  0
VERTEX
  8
DEFAULT_2
 62
8
  6
HIDDEN
 10
116.3842961336
 20
69.6927586219
  0
VERTEX
  8
DEFAULT_2
 62
8
  6
HIDDEN
 10
113.0881688143
 20
69.5822718761
  0
VERTEX
  8
DEFAULT_2
 62
8
  6
HIDDEN
 10
109.7937199617
 20
69.419257941
  0
VERTEX
  8
DEFAULT_2
 62
8
  6
HIDDEN
 10
108.6241337801
 20
69.3487158439
  0
VERTEX
  8
DEFAULT_2
 62
8
  6
HIDDEN
 10
107.0239445711
 20
69.241435828
  0
SEQEND
  0
LINE
  8
DEFAULT_2
 62
8
  6
HIDDEN
 10
121.0857579256
 20
69.7594478748
 11
119.6818730379
 21
69.7507193706
  0
LINE
  8
0
 62
9
  6
CONTINUOUS
 10
119.6626469637
 20
71.2742975376
 11
109.6790501619
 21
71.2742975376
  0
LINE
  8
0
 62
9
  6
CONTINUOUS
 10
119.6626469637
 20
73.446955981
 11
109.678973868
 21
73.446955981
  0
LINE
  8
DEFAULT_2
 62
8
  6
HIDDEN
 10
122.3478886629
 20
69.7591677329
 11
121.0857579256
 21
69.7594478748
  0
POLYLINE
  8
0
 62
9
  6
CONTINUOUS
 66
1
 70
0
  0
VERTEX
  8
0
 62
9
  6
CONTINUOUS
 10
109.6790501619
 20
71.2742975376
  0
VERTEX
  8
0
 62
9
  6
CONTINUOUS
 10
109.395694449
 20
71.2760010383
  0
VERTEX
  8
0
 62
9
  6
CONTINUOUS
 10
108.7926671053
 20
71.2956491134
  0
VERTEX
  8
0
 62
9
  6
CONTINUOUS
 10
108.2668492342
 20
71.3370183132
  0
VERTEX
  8
0
 62
9
  6
CONTINUOUS
 10
107.8087040926
 20
71.396199765
  0
VERTEX
  8
0
 62
9
  6
CONTINUOUS
 10
107.3994633699
 20
71.4707556388
  0
VERTEX
  8
0
 62
9
  6
CONTINUOUS
 10
107.0301243807
 20
71.558764281
  0
VERTEX
  8
0
 62
9
  6
CONTINUOUS
 10
106.6874882723
 20
71.661322417
  0
VERTEX
  8
0
 62
9
  6
CONTINUOUS
 10
106.3619420076
 20
71.7813935897
  0
VERTEX
  8
0
 62
9
  6
CONTINUOUS
 10
106.2059971834
 20
71.8483200691
  0
VERTEX
  8
0
 62
9
  6
CONTINUOUS
 10
105.9112736727
 20
71.9956067226
  0
VERTEX
  8
0
 62
9
  6
CONTINUOUS
 10
105.644321158
 20
72.1597173831
  0
VERTEX
  8
0
 62
9
  6
CONTINUOUS
 10
105.4111668611
 20
72.338627877
  0
VERTEX
  8
0
 62
9
  6
CONTINUOUS
 10
105.2176091219
 20
72.5292029998
  0
VERTEX
  8
0
 62
9
  6
CONTINUOUS
 10
105.0685307527
 20
72.7276471279
  0
VERTEX
  8
0
 62
9
  6
CONTINUOUS
 10
104.9675938631
 20
72.9297080657
  0
VERTEX
  8
0
 62
9
  6
CONTINUOUS
 10
104.9169346834
 20
73.131093087
  0
VERTEX
  8
0
 62
9
  6
CONTINUOUS
 10
104.9106022859
 20
73.2302680633
  0
SEQEND
  0
LINE
  8
DEFAULT_2
 62
8
  6
HIDDEN
 10
123.461017325
 20
69.752533736
 11
122.3478886629
 21
69.7591677329
  0
POLYLINE
  8
DEFAULT_2
 62
8
  6
HIDDEN
 66
1
 70
0
  0
VERTEX
  8
DEFAULT_2
 62
8
  6
HIDDEN
 10
109.678973868
 20
72.0894387386
  0
VERTEX
  8
DEFAULT_2
 62
8
  6
HIDDEN
 10
108.3043095613
 20
72.1145215652
  0
VERTEX
  8
DEFAULT_2
 62
8
  6
HIDDEN
 10
107.2063633943
 20
72.2534087322
  0
VERTEX
  8
DEFAULT_2
 62
8
  6
HIDDEN
 10
106.41168566
 20
72.4443760536
  0
VERTEX
  8
DEFAULT_2
 62
8
  6
HIDDEN
 10
106.117267325
 20
72.5323525093
  0
SEQEND
  0
POLYLINE
  8
DEFAULT_2
 62
8
  6
HIDDEN
 66
1
 70
0
  0
VERTEX
  8
DEFAULT_2
 62
8
  6
HIDDEN
 10
136.4226719881
 20
69.2339590213
  0
VERTEX
  8
DEFAULT_2
 62
8
  6
HIDDEN
 10
124.4046208406
 20
69.7422209403
  0
VERTEX
  8
DEFAULT_2
 62
8
  6
HIDDEN
 10
123.461017325
 20
69.752533736
  0
SEQEND
  0
LINE
  8
DEFAULT_2
 62
8
  6
HIDDEN
 10
150.2073857332
 20
67.7838459632
 11
136.4226719881
 21
69.2339590213
  0
POLYLINE
  8
DEFAULT_2
 62
8
  6
HIDDEN
 66
1
 70
0
  0
VERTEX
  8
DEFAULT_2
 62
8
  6
HIDDEN
 10
106.117267325
 20
72.5323525093
  0
VERTEX
  8
DEFAULT_2
 62
8
  6
HIDDEN
 10
105.6813237215
 20
72.6565733573
  0
VERTEX
  8
DEFAULT_2
 62
8
  6
HIDDEN
 10
105.3560063387
 20
72.7182188652
  0
VERTEX
  8
DEFAULT_2
 62
8
  6
HIDDEN
 10
105.0620457674
 20
72.7380469463
  0
SEQEND
  0
POLYLINE
  8
0
 62
9
  6
CONTINUOUS
 66
1
 70
0
  0
VERTEX
  8
0
 62
9
  6
CONTINUOUS
 10
109.678973868
 20
73.446955981
  0
VERTEX
  8
0
 62
9
  6
CONTINUOUS
 10
109.1883275057
 20
73.9580193183
  0
VERTEX
  8
0
 62
9
  6
CONTINUOUS
 10
108.759555533
 20
74.4909003398
  0
VERTEX
  8
0
 62
9
  6
CONTINUOUS
 10
108.4468266512
 20
74.9783816955
  0
VERTEX
  8
0
 62
9
  6
CONTINUOUS
 10
108.2895085359
 20
75.3589704654
  0
SEQEND
  0
POLYLINE
  8
0
 62
9
  6
CONTINUOUS
 66
1
 70
0
  0
VERTEX
  8
0
 62
9
  6
CONTINUOUS
 10
112.0914647127
 20
76.6511216781
  0
VERTEX
  8
0
 62
9
  6
CONTINUOUS
 10
111.6602513338
 20
77.1911183021
  0
VERTEX
  8
0
 62
9
  6
CONTINUOUS
 10
111.3487431551
 20
77.6827183387
  0
VERTEX
  8
0
 62
9
  6
CONTINUOUS
 10
111.1971470857
 20
78.0624094627
  0
SEQEND
  0
POLYLINE
  8
0
 62
9
  6
CONTINUOUS
 66
1
 70
0
  0
VERTEX
  8
0
 62
9
  6
CONTINUOUS
 10
124.4310185457
 20
40.0662997386
  0
VERTEX
  8
0
 62
9
  6
CONTINUOUS
 10
124.422244742
 20
40.2700164936
  0
VERTEX
  8
0
 62
9
  6
CONTINUOUS
 10
124.4056126619
 20
40.8054521701
  0
VERTEX
  8
0
 62
9
  6
CONTINUOUS
 10
124.3921086336
 20
41.4565125129
  0
VERTEX
  8
0
 62
9
  6
CONTINUOUS
 10
124.383182242
 20
42.1458354614
  0
VERTEX
  8
0
 62
9
  6
CONTINUOUS
 10
124.3808171297
 20
42.4791565559
  0
VERTEX
  8
0
 62
9
  6
CONTINUOUS
 10
124.3805882479
 20
43.073538842
  0
VERTEX
  8
0
 62
9
  6
CONTINUOUS
 10
124.3863865877
 20
43.5140338561
  0
VERTEX
  8
0
 62
9
  6
CONTINUOUS
 10
124.3974492098
 20
43.7482991836
  0
VERTEX
  8
0
 62
9
  6
CONTINUOUS
 10
124.4046208406
 20
43.7783280036
  0
SEQEND
  0
LINE
  8
0
 62
9
  6
CONTINUOUS
 10
124.4310185457
 20
37.2602739952
 11
124.4310185457
 21
40.0662997386
  0
LINE
  8
DEFAULT_2
 62
8
  6
HIDDEN
 10
124.4310185457
 20
40.0662997386
 11
124.4310185457
 21
40.2902820728
  0
LINE
  8
0
 62
9
  6
CONTINUOUS
 10
124.4310185457
 20
73.2302668712
 11
124.4310185457
 21
76.2602749488
  0
POLYLINE
  8
DEFAULT_2
 62
8
  6
HIDDEN
 66
1
 70
0
  0
VERTEX
  8
DEFAULT_2
 62
8
  6
HIDDEN
 10
124.4310185457
 20
73.4542492053
  0
VERTEX
  8
DEFAULT_2
 62
8
  6
HIDDEN
 10
124.422244742
 20
73.2505324504
  0
VERTEX
  8
DEFAULT_2
 62
8
  6
HIDDEN
 10
124.4056126619
 20
72.7150967739
  0
VERTEX
  8
DEFAULT_2
 62
8
  6
HIDDEN
 10
124.3921086336
 20
72.0640364311
  0
VERTEX
  8
DEFAULT_2
 62
8
  6
HIDDEN
 10
124.383182242
 20
71.3747134826
  0
VERTEX
  8
DEFAULT_2
 62
8
  6
HIDDEN
 10
124.3808171297
 20
71.0413923881
  0
VERTEX
  8
DEFAULT_2
 62
8
  6
HIDDEN
 10
124.3805882479
 20
70.447010102
  0
VERTEX
  8
DEFAULT_2
 62
8
  6
HIDDEN
 10
124.3863865877
 20
70.0065150878
  0
VERTEX
  8
DEFAULT_2
 62
8
  6
HIDDEN
 10
124.3974492098
 20
69.7722497604
  0
VERTEX
  8
DEFAULT_2
 62
8
  6
HIDDEN
 10
124.4046208406
 20
69.7422209403
  0
SEQEND
  0
POLYLINE
  8
0
 62
9
  6
CONTINUOUS
 66
1
 70
0
  0
VERTEX
  8
0
 62
9
  6
CONTINUOUS
 10
123.6013981844
 20
40.1706066749
  0
VERTEX
  8
0
 62
9
  6
CONTINUOUS
 10
123.8601872469
 20
40.6927087924
  0
VERTEX
  8
0
 62
9
  6
CONTINUOUS
 10
124.0029332186
 20
41.3495960853
  0
VERTEX
  8
0
 62
9
  6
CONTINUOUS
 10
124.0116307283
 20
42.058632674
  0
VERTEX
  8
0
 62
9
  6
CONTINUOUS
 10
123.8852879549
 20
42.7306166313
  0
VERTEX
  8
0
 62
9
  6
CONTINUOUS
 10
123.6396977449
 20
43.2810130737
  0
VERTEX
  8
0
 62
9
  6
CONTINUOUS
 10
123.3057591463
 20
43.6405780933
  0
VERTEX
  8
0
 62
9
  6
CONTINUOUS
 10
122.9255864168
 20
43.7640777252
  0
SEQEND
  0
POLYLINE
  8
0
 62
9
  6
CONTINUOUS
 66
1
 70
0
  0
VERTEX
  8
0
 62
9
  6
CONTINUOUS
 10
112.5866124178
 20
37.3880532405
  0
VERTEX
  8
0
 62
9
  6
CONTINUOUS
 10
112.0914647127
 20
36.8694272659
  0
VERTEX
  8
0
 62
9
  6
CONTINUOUS
 10
111.6602513338
 20
36.3294306419
  0
VERTEX
  8
0
 62
9
  6
CONTINUOUS
 10
111.3487431551
 20
35.8378306053
  0
VERTEX
  8
0
 62
9
  6
CONTINUOUS
 10
111.1971470857
 20
35.4581394813
  0
SEQEND
  0
POLYLINE
  8
0
 62
9
  6
CONTINUOUS
 66
1
 70
0
  0
VERTEX
  8
0
 62
9
  6
CONTINUOUS
 10
122.6941868807
 20
39.6975067279
  0
VERTEX
  8
0
 62
9
  6
CONTINUOUS
 10
122.9686924959
 20
39.8913887165
  0
VERTEX
  8
0
 62
9
  6
CONTINUOUS
 10
123.2731816316
 20
40.0501754901
  0
VERTEX
  8
0
 62
9
  6
CONTINUOUS
 10
123.6013981844
 20
40.1706066749
  0
SEQEND
  0
POLYLINE
  8
DEFAULT_2
 62
8
  6
HIDDEN
 66
1
 70
0
  0
VERTEX
  8
DEFAULT_2
 62
8
  6
HIDDEN
 10
122.6941868807
 20
39.6975067279
  0
VERTEX
  8
DEFAULT_2
 62
8
  6
HIDDEN
 10
123.3192631746
 20
40.0700143001
  0
VERTEX
  8
DEFAULT_2
 62
8
  6
HIDDEN
 10
123.6750218416
 20
40.1914146564
  0
VERTEX
  8
DEFAULT_2
 62
8
  6
HIDDEN
 10
124.4310185457
 20
40.2902808807
  0
SEQEND
  0
LINE
  8
DEFAULT_2
 62
8
  6
HIDDEN
 10
162.7697941805
 20
55.8825394533
 11
163.8438603426
 21
56.2571817658
  0
POLYLINE
  8
0
 62
9
  6
CONTINUOUS
 66
1
 70
0
  0
VERTEX
  8
0
 62
9
  6
CONTINUOUS
 10
119.6626469637
 20
40.0735893867
  0
VERTEX
  8
0
 62
9
  6
CONTINUOUS
 10
119.8748204256
 20
40.1359763763
  0
VERTEX
  8
0
 62
9
  6
CONTINUOUS
 10
120.3177830721
 20
40.2440264842
  0
VERTEX
  8
0
 62
9
  6
CONTINUOUS
 10
120.6934544588
 20
40.313358607
  0
VERTEX
  8
0
 62
9
  6
CONTINUOUS
 10
121.0120579744
 20
40.3553739212
  0
VERTEX
  8
0
 62
9
  6
CONTINUOUS
 10
121.2893101717
 20
40.3776815555
  0
VERTEX
  8
0
 62
9
  6
CONTINUOUS
 10
121.533069327
 20
40.3842225692
  0
VERTEX
  8
0
 62
9
  6
CONTINUOUS
 10
121.7531773592
 20
40.3770700118
  0
VERTEX
  8
0
 62
9
  6
CONTINUOUS
 10
121.9561955477
 20
40.3562334201
  0
VERTEX
  8
0
 62
9
  6
CONTINUOUS
 10
122.0511052156
 20
40.3404453418
  0
VERTEX
  8
0
 62
9
  6
CONTINUOUS
 10
122.2256657625
 20
40.2978077552
  0
VERTEX
  8
0
 62
9
  6
CONTINUOUS
 10
122.377109244
 20
40.240238013
  0
VERTEX
  8
0
 62
9
  6
CONTINUOUS
 10
122.5023076082
 20
40.1679053924
  0
VERTEX
  8
0
 62
9
  6
CONTINUOUS
 10
122.5985905672
 20
40.0816753528
  0
VERTEX
  8
0
 62
9
  6
CONTINUOUS
 10
122.6642033602
 20
39.9830606601
  0
VERTEX
  8
0
 62
9
  6
CONTINUOUS
 10
122.6987645174
 20
39.8742344997
  0
VERTEX
  8
0
 62
9
  6
CONTINUOUS
 10
122.7029606844
 20
39.7577706001
  0
VERTEX
  8
0
 62
9
  6
CONTINUOUS
 10
122.6941868807
 20
39.6975055358
  0
SEQEND
  0
POLYLINE
  8
0
 62
7
  6
CONTINUOUS
 66
1
 70
0
  0
VERTEX
  8
0
 62
7
  6
CONTINUOUS
 10
104.9106022859
 20
76.2602749488
  0
VERTEX
  8
0
 62
7
  6
CONTINUOUS
 10
105.66659899
 20
76.3773289344
  0
VERTEX
  8
0
 62
7
  6
CONTINUOUS
 10
106.022357657
 20
76.5210631511
  0
VERTEX
  8
0
 62
7
  6
CONTINUOUS
 10
106.647433951
 20
76.9621029518
  0
SEQEND
  0
LINE
  8
0
 62
7
  6
CONTINUOUS
 10
180.7775504236
 20
76.2602749488
 11
124.4310185457
 21
76.2602749488
  0
LINE
  8
0
 62
7
  6
CONTINUOUS
 10
104.9106022859
 20
76.2602749488
 11
26.6707798982
 21
76.2602749488
  0
LINE
  8
DEFAULT_2
 62
8
  6
HIDDEN
 10
162.6609227205
 20
65.6612643621
 11
150.2073857332
 21
67.7838459632
  0
POLYLINE
  8
DEFAULT_2
 62
8
  6
HIDDEN
 66
1
 70
0
  0
VERTEX
  8
DEFAULT_2
 62
8
  6
HIDDEN
 10
163.0569645906
 20
68.8629618308
  0
VERTEX
  8
DEFAULT_2
 62
8
  6
HIDDEN
 10
150.4832646395
 20
71.250948014
  0
VERTEX
  8
DEFAULT_2
 62
8
  6
HIDDEN
 10
136.5653416658
 20
72.8824308536
  0
VERTEX
  8
DEFAULT_2
 62
8
  6
HIDDEN
 10
124.4310185457
 20
73.4542492053
  0
SEQEND
  0
POLYLINE
  8
0
 62
9
  6
CONTINUOUS
 66
1
 70
0
  0
VERTEX
  8
0
 62
9
  6
CONTINUOUS
 10
122.6941868807
 20
73.8230422161
  0
VERTEX
  8
0
 62
9
  6
CONTINUOUS
 10
123.3192631746
 20
73.4505346439
  0
VERTEX
  8
0
 62
9
  6
CONTINUOUS
 10
123.6750218416
 20
73.3291342876
  0
VERTEX
  8
0
 62
9
  6
CONTINUOUS
 10
124.4310185457
 20
73.2302680633
  0
SEQEND
  0
POLYLINE
  8
DEFAULT_2
 62
8
  6
HIDDEN
 66
1
 70
0
  0
VERTEX
  8
DEFAULT_2
 62
8
  6
HIDDEN
 10
122.6941868807
 20
73.8230422161
  0
VERTEX
  8
DEFAULT_2
 62
8
  6
HIDDEN
 10
122.9686924959
 20
73.6291602275
  0
VERTEX
  8
DEFAULT_2
 62
8
  6
HIDDEN
 10
123.2731816316
 20
73.4703734539
  0
VERTEX
  8
DEFAULT_2
 62
8
  6
HIDDEN
 10
123.6013981844
 20
73.3499422691
  0
SEQEND
  0
POLYLINE
  8
0
 62
9
  6
CONTINUOUS
 66
1
 70
0
  0
VERTEX
  8
0
 62
9
  6
CONTINUOUS
 10
116.7550084139
 20
76.1324957035
  0
VERTEX
  8
0
 62
9
  6
CONTINUOUS
 10
116.1401555086
 20
76.569119992
  0
VERTEX
  8
0
 62
9
  6
CONTINUOUS
 10
115.4300877596
 20
76.8425527236
  0
VERTEX
  8
0
 62
9
  6
CONTINUOUS
 10
114.6711155916
 20
76.9356551788
  0
VERTEX
  8
0
 62
9
  6
CONTINUOUS
 10
113.9121434236
 20
76.8427053115
  0
VERTEX
  8
0
 62
9
  6
CONTINUOUS
 10
113.2019230867
 20
76.5693679473
  0
VERTEX
  8
0
 62
9
  6
CONTINUOUS
 10
112.5866124178
 20
76.1324957035
  0
SEQEND
  0
LINE
  8
0
 62
9
  6
CONTINUOUS
 10
112.5866124178
 20
76.1324957035
 11
112.0914647127
 21
76.6511216781
  0
POLYLINE
  8
DEFAULT_2
 62
8
  6
HIDDEN
 66
1
 70
0
  0
VERTEX
  8
DEFAULT_2
 62
8
  6
HIDDEN
 10
123.6013981844
 20
73.3499422691
  0
VERTEX
  8
DEFAULT_2
 62
8
  6
HIDDEN
 10
123.8601872469
 20
72.8278401515
  0
VERTEX
  8
DEFAULT_2
 62
8
  6
HIDDEN
 10
124.0029332186
 20
72.1709528587
  0
VERTEX
  8
DEFAULT_2
 62
8
  6
HIDDEN
 10
124.0116307283
 20
71.46191627
  0
VERTEX
  8
DEFAULT_2
 62
8
  6
HIDDEN
 10
123.8852879549
 20
70.7899323127
  0
VERTEX
  8
DEFAULT_2
 62
8
  6
HIDDEN
 10
123.6396977449
 20
70.2395358703
  0
VERTEX
  8
DEFAULT_2
 62
8
  6
HIDDEN
 10
123.3057591463
 20
69.8799708507
  0
VERTEX
  8
DEFAULT_2
 62
8
  6
HIDDEN
 10
122.9255864168
 20
69.7564712188
  0
SEQEND
  0
POLYLINE
  8
0
 62
9
  6
CONTINUOUS
 66
1
 70
0
  0
VERTEX
  8
0
 62
9
  6
CONTINUOUS
 10
122.6941868807
 20
73.8230434082
  0
VERTEX
  8
0
 62
9
  6
CONTINUOUS
 10
122.7029606844
 20
73.7627843044
  0
VERTEX
  8
0
 62
9
  6
CONTINUOUS
 10
122.6987645174
 20
73.6463168285
  0
VERTEX
  8
0
 62
9
  6
CONTINUOUS
 10
122.6642033602
 20
73.5374823234
  0
VERTEX
  8
0
 62
9
  6
CONTINUOUS
 10
122.5985905672
 20
73.4388604782
  0
VERTEX
  8
0
 62
9
  6
CONTINUOUS
 10
122.5022313143
 20
73.3526256702
  0
VERTEX
  8
0
 62
9
  6
CONTINUOUS
 10
122.37703295
 20
73.2802918575
  0
VERTEX
  8
0
 62
9
  6
CONTINUOUS
 10
122.2255894686
 20
73.2227221153
  0
VERTEX
  8
0
 62
9
  6
CONTINUOUS
 10
122.0510289217
 20
73.1800892971
  0
VERTEX
  8
0
 62
9
  6
CONTINUOUS
 10
121.9561192537
 20
73.1643059871
  0
VERTEX
  8
0
 62
9
  6
CONTINUOUS
 10
121.7530247713
 20
73.1434682033
  0
VERTEX
  8
0
 62
9
  6
CONTINUOUS
 10
121.5329167391
 20
73.1363263748
  0
VERTEX
  8
0
 62
9
  6
CONTINUOUS
 10
121.2891575838
 20
73.1428757331
  0
VERTEX
  8
0
 62
9
  6
CONTINUOUS
 10
121.0119053865
 20
73.1651964805
  0
VERTEX
  8
0
 62
9
  6
CONTINUOUS
 10
120.693149283
 20
73.2072308681
  0
VERTEX
  8
0
 62
9
  6
CONTINUOUS
 10
120.3174778963
 20
73.2765939853
  0
VERTEX
  8
0
 62
9
  6
CONTINUOUS
 10
119.8745152498
 20
73.3846679351
  0
VERTEX
  8
0
 62
9
  6
CONTINUOUS
 10
119.6626469637
 20
73.4469595573
  0
SEQEND
  0
LINE
  8
0
 62
7
  6
CONTINUOUS
 10
122.6941868807
 20
36.5584459922
 11
118.1444737459
 21
32.1639290473
  0
LINE
  8
0
 62
9
  6
CONTINUOUS
 10
121.0521122957
 20
38.1615749023
 11
122.6941868807
 21
39.6975067279
  0
POLYLINE
  8
0
 62
7
  6
CONTINUOUS
 66
1
 70
0
  0
VERTEX
  8
0
 62
7
  6
CONTINUOUS
 10
118.1444737459
 20
32.1639290473
  0
VERTEX
  8
0
 62
7
  6
CONTINUOUS
 10
117.1205327059
 20
31.4015188835
  0
VERTEX
  8
0
 62
7
  6
CONTINUOUS
 10
115.9369847322
 20
30.923241677
  0
VERTEX
  8
0
 62
7
  6
CONTINUOUS
 10
114.6708104158
 20
30.7602754257
  0
VERTEX
  8
0
 62
7
  6
CONTINUOUS
 10
113.4046360994
 20
30.923241677
  0
VERTEX
  8
0
 62
7
  6
CONTINUOUS
 10
112.2210881258
 20
31.4015188835
  0
VERTEX
  8
0
 62
7
  6
CONTINUOUS
 10
111.1971470857
 20
32.1639290473
  0
SEQEND
  0
POLYLINE
  8
0
 62
7
  6
CONTINUOUS
 66
1
 70
0
  0
VERTEX
  8
0
 62
7
  6
CONTINUOUS
 10
122.6941868807
 20
36.5584459922
  0
VERTEX
  8
0
 62
7
  6
CONTINUOUS
 10
123.3192631746
 20
36.9994857929
  0
VERTEX
  8
0
 62
7
  6
CONTINUOUS
 10
123.6750218416
 20
37.1432200096
  0
VERTEX
  8
0
 62
7
  6
CONTINUOUS
 10
124.4310185457
 20
37.2602739952
  0
SEQEND
  0
POLYLINE
  8
0
 62
7
  6
CONTINUOUS
 66
1
 70
0
  0
VERTEX
  8
0
 62
7
  6
CONTINUOUS
 10
163.7162205721
 20
56.1977744869
  0
VERTEX
  8
0
 62
7
  6
CONTINUOUS
 10
164.1241642977
 20
56.4035430945
  0
VERTEX
  8
0
 62
7
  6
CONTINUOUS
 10
164.426440909
 20
56.5881583675
  0
VERTEX
  8
0
 62
7
  6
CONTINUOUS
 10
164.6102330232
 20
56.7155744716
  0
VERTEX
  8
0
 62
7
  6
CONTINUOUS
 10
164.6708104158
 20
56.760274472
  0
SEQEND
  0
LINE
  8
DEFAULT_2
 62
8
  6
HIDDEN
 10
163.6336705232
 20
65.3588643691
 11
162.6609227205
 21
65.6612643621
  0
POLYLINE
  8
0
 62
9
  6
CONTINUOUS
 66
1
 70
0
  0
VERTEX
  8
0
 62
9
  6
CONTINUOUS
 10
118.1444737459
 20
78.0624094627
  0
VERTEX
  8
0
 62
9
  6
CONTINUOUS
 10
117.1191594148
 20
78.7665596626
  0
VERTEX
  8
0
 62
9
  6
CONTINUOUS
 10
115.9356877352
 20
79.2077603958
  0
VERTEX
  8
0
 62
9
  6
CONTINUOUS
 10
114.6708104158
 20
79.3579831741
  0
VERTEX
  8
0
 62
9
  6
CONTINUOUS
 10
113.4059330965
 20
79.2077580116
  0
VERTEX
  8
0
 62
9
  6
CONTINUOUS
 10
112.2224614168
 20
78.7665620468
  0
VERTEX
  8
0
 62
9
  6
CONTINUOUS
 10
111.1971470857
 20
78.0624094627
  0
SEQEND
  0
POLYLINE
  8
0
 62
7
  6
CONTINUOUS
 66
1
 70
0
  0
VERTEX
  8
0
 62
7
  6
CONTINUOUS
 10
122.6941868807
 20
76.9621029518
  0
VERTEX
  8
0
 62
7
  6
CONTINUOUS
 10
123.3192631746
 20
76.5210631511
  0
VERTEX
  8
0
 62
7
  6
CONTINUOUS
 10
123.6750218416
 20
76.3773289344
  0
VERTEX
  8
0
 62
7
  6
CONTINUOUS
 10
124.4310185457
 20
76.2602749488
  0
SEQEND
  0
POLYLINE
  8
0
 62
7
  6
CONTINUOUS
 66
1
 70
0
  0
VERTEX
  8
0
 62
7
  6
CONTINUOUS
 10
118.1444737459
 20
81.3566198966
  0
VERTEX
  8
0
 62
7
  6
CONTINUOUS
 10
117.1205327059
 20
82.1190300605
  0
VERTEX
  8
0
 62
7
  6
CONTINUOUS
 10
115.9369847322
 20
82.5973072669
  0
VERTEX
  8
0
 62
7
  6
CONTINUOUS
 10
114.6708104158
 20
82.7602735183
  0
VERTEX
  8
0
 62
7
  6
CONTINUOUS
 10
113.4046360994
 20
82.5973072669
  0
VERTEX
  8
0
 62
7
  6
CONTINUOUS
 10
112.2210881258
 20
82.1190300605
  0
VERTEX
  8
0
 62
7
  6
CONTINUOUS
 10
111.1971470857
 20
81.3566198966
  0
SEQEND
  0
LINE
  8
0
 62
9
  6
CONTINUOUS
 10
122.6941868807
 20
73.8230422161
 11
121.0521122957
 21
75.3589728496
  0
LINE
  8
0
 62
7
  6
CONTINUOUS
 10
122.6941868807
 20
76.9621029518
 11
118.1444737459
 21
81.3566198966
  0
LINE
  8
DEFAULT_2
 62
8
  6
HIDDEN
 10
163.8438603426
 20
56.2571817658
 11
164.8224064852
 21
56.8786144557
  0
POLYLINE
  8
DEFAULT_2
 62
8
  6
HIDDEN
 66
1
 70
0
  0
VERTEX
  8
DEFAULT_2
 62
8
  6
HIDDEN
 10
164.8224064852
 20
56.8786144557
  0
VERTEX
  8
DEFAULT_2
 62
8
  6
HIDDEN
 10
165.6474492098
 20
57.7293606869
  0
VERTEX
  8
DEFAULT_2
 62
8
  6
HIDDEN
 10
166.2495610262
 20
58.7514659784
  0
VERTEX
  8
DEFAULT_2
 62
8
  6
HIDDEN
 10
166.5940281893
 20
59.8875394485
  0
VERTEX
  8
DEFAULT_2
 62
8
  6
HIDDEN
 10
166.6630742098
 20
60.4821184299
  0
VERTEX
  8
DEFAULT_2
 62
8
  6
HIDDEN
 10
166.5836522127
 20
61.6898953936
  0
VERTEX
  8
DEFAULT_2
 62
8
  6
HIDDEN
 10
166.2018773104
 20
62.874338927
  0
VERTEX
  8
DEFAULT_2
 62
8
  6
HIDDEN
 10
165.5218693758
 20
63.9492574356
  0
VERTEX
  8
DEFAULT_2
 62
8
  6
HIDDEN
 10
164.6206089998
 20
64.7974196098
  0
VERTEX
  8
DEFAULT_2
 62
8
  6
HIDDEN
 10
163.6336705232
 20
65.3588643691
  0
SEQEND
  0
POLYLINE
  8
DEFAULT_2
 62
8
  6
HIDDEN
 66
1
 70
0
  0
VERTEX
  8
DEFAULT_2
 62
8
  6
HIDDEN
 10
163.0569645906
 20
68.8629606388
  0
VERTEX
  8
DEFAULT_2
 62
8
  6
HIDDEN
 10
162.8894993807
 20
68.281274142
  0
VERTEX
  8
DEFAULT_2
 62
8
  6
HIDDEN
 10
162.7414128328
 20
67.6230648181
  0
VERTEX
  8
DEFAULT_2
 62
8
  6
HIDDEN
 10
162.6299473787
 20
66.9646921775
  0
VERTEX
  8
DEFAULT_2
 62
8
  6
HIDDEN
 10
162.5922581697
 20
66.6595593116
  0
VERTEX
  8
DEFAULT_2
 62
8
  6
HIDDEN
 10
162.5581547762
 20
66.1417153499
  0
VERTEX
  8
DEFAULT_2
 62
8
  6
HIDDEN
 10
162.5819584871
 20
65.7955649517
  0
VERTEX
  8
DEFAULT_2
 62
8
  6
HIDDEN
 10
162.6609227205
 20
65.6612649581
  0
SEQEND
  0
LINE
  8
0
 62
2
  6
CONTINUOUS
 10
178.1726690063
 20
44.9923107856
 11
167.0523144398
 21
37.2602739952
  0
POLYLINE
  8
0
 62
9
  6
CONTINUOUS
 66
1
 70
0
  0
VERTEX
  8
0
 62
9
  6
CONTINUOUS
 10
163.0569645906
 20
44.6575883052
  0
VERTEX
  8
0
 62
9
  6
CONTINUOUS
 10
162.8894993807
 20
45.239274802
  0
VERTEX
  8
0
 62
9
  6
CONTINUOUS
 10
162.7414128328
 20
45.8974841258
  0
VERTEX
  8
0
 62
9
  6
CONTINUOUS
 10
162.6299473787
 20
46.5558567665
  0
VERTEX
  8
0
 62
9
  6
CONTINUOUS
 10
162.5922581697
 20
46.8609896324
  0
VERTEX
  8
0
 62
9
  6
CONTINUOUS
 10
162.5581547762
 20
47.3788335941
  0
VERTEX
  8
0
 62
9
  6
CONTINUOUS
 10
162.5819584871
 20
47.7249839923
  0
VERTEX
  8
0
 62
9
  6
CONTINUOUS
 10
162.6609227205
 20
47.8592839858
  0
SEQEND
  0
LINE
  8
DEFAULT_2
 62
8
  6
HIDDEN
 10
161.6707798982
 20
53.4174174092
 11
161.6707798982
 21
55.7602744571
  0
LINE
  8
0
 62
9
  6
CONTINUOUS
 10
161.6707798982
 20
57.7602744869
 11
161.6707798982
 21
60.1031315348
  0
LINE
  8
DEFAULT_2
 62
8
  6
HIDDEN
 10
162.4628636385
 20
64.6810665748
 11
162.6609227205
 21
65.6612643621
  0
LINE
  8
0
 62
9
  6
CONTINUOUS
 10
162.4628636385
 20
48.8394823692
 11
162.6609227205
 21
47.8592845819
  0
LINE
  8
0
 62
2
  6
CONTINUOUS
 10
189.0556259203
 20
65.4438626115
 11
178.1726690063
 21
44.9923107856
  0
LINE
  8
0
 62
2
  6
CONTINUOUS
 10
180.7775504236
 20
76.2602749488
 11
189.0556259203
 21
65.4438626115
  0
LINE
  8
0
 62
2
  6
CONTINUOUS
 10
33.8305654061
 20
155.552455114
 11
37.8500700139
 21
159.5719597218
  0
POLYLINE
  8
0
 62
9
  6
CONTINUOUS
 66
1
 70
0
  0
VERTEX
  8
0
 62
9
  6
CONTINUOUS
 10
32.1844420161
 20
147.5437530667
  0
VERTEX
  8
0
 62
9
  6
CONTINUOUS
 10
31.8811822679
 20
146.9734250677
  0
VERTEX
  8
0
 62
9
  6
CONTINUOUS
 10
31.791191491
 20
146.3292626014
  0
VERTEX
  8
0
 62
9
  6
CONTINUOUS
 10
31.9248679909
 20
145.6856977161
  0
VERTEX
  8
0
 62
9
  6
CONTINUOUS
 10
32.071735274
 20
145.3876199704
  0
VERTEX
  8
0
 62
9
  6
CONTINUOUS
 10
32.5042839377
 20
144.8819900411
  0
VERTEX
  8
0
 62
9
  6
CONTINUOUS
 10
33.0781030727
 20
144.5441879596
  0
VERTEX
  8
0
 62
9
  6
CONTINUOUS
 10
33.7268887035
 20
144.4132462719
  0
SEQEND
  0
LINE
  8
0
 62
2
  6
CONTINUOUS
 10
35.775312412
 20
148.8260690788
 11
48.3874049683
 21
161.438161635
  0
POLYLINE
  8
0
 62
9
  6
CONTINUOUS
 66
1
 70
0
  0
VERTEX
  8
0
 62
9
  6
CONTINUOUS
 10
30.2417883168
 20
134.5122560229
  0
VERTEX
  8
0
 62
9
  6
CONTINUOUS
 10
30.2134366809
 20
134.6348436088
  0
VERTEX
  8
0
 62
9
  6
CONTINUOUS
 10
30.1373313756
 20
135.0101637366
  0
VERTEX
  8
0
 62
9
  6
CONTINUOUS
 10
30.0462736177
 20
135.632160932
  0
VERTEX
  8
0
 62
9
  6
CONTINUOUS
 10
29.9915623665
 20
136.4830903474
  0
VERTEX
  8
0
 62
9
  6
CONTINUOUS
 10
30.0317261456
 20
137.5049901794
  0
VERTEX
  8
0
 62
9
  6
CONTINUOUS
 10
30.2130048368
 20
138.640613296
  0
VERTEX
  8
0
 62
9
  6
CONTINUOUS
 10
30.3665763799
 20
139.234941233
  0
VERTEX
  8
0
 62
9
  6
CONTINUOUS
 10
30.8083625533
 20
140.4421601205
  0
VERTEX
  8
0
 62
9
  6
CONTINUOUS
 10
31.4224509177
 20
141.6257518316
  0
VERTEX
  8
0
 62
9
  6
CONTINUOUS
 10
32.1527727335
 20
142.699862788
  0
VERTEX
  8
0
 62
9
  6
CONTINUOUS
 10
32.8616762769
 20
143.5474043742
  0
VERTEX
  8
0
 62
9
  6
CONTINUOUS
 10
33.4060916166
 20
144.1099777779
  0
VERTEX
  8
0
 62
9
  6
CONTINUOUS
 10
33.7268887035
 20
144.4132461219
  0
SEQEND
  0
POLYLINE
  8
0
 62
9
  6
CONTINUOUS
 66
1
 70
0
  0
VERTEX
  8
0
 62
9
  6
CONTINUOUS
 10
33.7268887035
 20
144.4132461219
  0
VERTEX
  8
0
 62
9
  6
CONTINUOUS
 10
35.6522631792
 20
146.4775536706
  0
VERTEX
  8
0
 62
9
  6
CONTINUOUS
 10
37.5216975796
 20
147.9616489673
  0
SEQEND
  0
LINE
  8
0
 62
9
  6
CONTINUOUS
 10
37.5216975796
 20
147.9616489673
 11
38.1230222516
 21
148.3513018605
  0
LINE
  8
0
 62
7
  6
CONTINUOUS
 10
47.5302237579
 20
122.6306473671
 11
58.1030469696
 21
122.6306473671
  0
LINE
  8
0
 62
2
  6
CONTINUOUS
 10
28.3119998152
 20
132.6916234409
 11
30.1093472505
 21
134.4889708762
  0
LINE
  8
0
 62
2
  6
CONTINUOUS
 10
44.014241053
 20
148.3938646787
 11
55.752001925
 21
160.1316255508
  0
POLYLINE
  8
0
 62
7
  6
CONTINUOUS
 66
1
 70
0
  0
VERTEX
  8
0
 62
7
  6
CONTINUOUS
 10
58.1030469696
 20
122.6306473083
  0
VERTEX
  8
0
 62
7
  6
CONTINUOUS
 10
58.4381117387
 20
122.6017799346
  0
VERTEX
  8
0
 62
7
  6
CONTINUOUS
 10
59.0570376923
 20
122.3826485186
  0
VERTEX
  8
0
 62
7
  6
CONTINUOUS
 10
59.5748043822
 20
121.964513573
  0
VERTEX
  8
0
 62
7
  6
CONTINUOUS
 10
59.7712820903
 20
121.6986091281
  0
VERTEX
  8
0
 62
7
  6
CONTINUOUS
 10
60.0187587536
 20
121.0820320255
  0
VERTEX
  8
0
 62
7
  6
CONTINUOUS
 10
60.0467275327
 20
120.422187883
  0
VERTEX
  8
0
 62
7
  6
CONTINUOUS
 10
59.9763976473
 20
120.0954348558
  0
SEQEND
  0
LINE
  8
0
 62
9
  6
CONTINUOUS
 10
47.5302237579
 20
126.6112659239
 11
61.3335588122
 21
126.6112659239
  0
POLYLINE
  8
0
 62
7
  6
CONTINUOUS
 66
1
 70
0
  0
VERTEX
  8
0
 62
7
  6
CONTINUOUS
 10
46.6070075045
 20
123.2467199533
  0
VERTEX
  8
0
 62
7
  6
CONTINUOUS
 10
46.8230901416
 20
122.923735288
  0
VERTEX
  8
0
 62
7
  6
CONTINUOUS
 10
47.1465153831
 20
122.7072368667
  0
VERTEX
  8
0
 62
7
  6
CONTINUOUS
 10
47.5302237579
 20
122.6306473671
  0
SEQEND
  0
LINE
  8
0
 62
7
  6
CONTINUOUS
 10
33.7813631376
 20
115.3368748101
 11
35.0511458678
 21
118.8255741888
  0
LINE
  8
0
 62
2
  6
CONTINUOUS
 10
30.4470213567
 20
126.1555119414
 11
38.8037654383
 21
134.5122560229
  0
LINE
  8
0
 62
2
  6
CONTINUOUS
 10
48.5302237579
 20
144.2387143425
 11
61.2926074149
 21
157.0010979995
  0
LINE
  8
0
 62
7
  6
CONTINUOUS
 10
35.0511458678
 20
152.198937857
 11
33.7813631376
 21
155.6876372357
  0
POLYLINE
  8
0
 62
9
  6
CONTINUOUS
 66
1
 70
0
  0
VERTEX
  8
0
 62
9
  6
CONTINUOUS
 10
46.5302237579
 20
127.5914639437
  0
VERTEX
  8
0
 62
9
  6
CONTINUOUS
 10
46.6063442253
 20
127.2163584011
  0
VERTEX
  8
0
 62
9
  6
CONTINUOUS
 10
46.8231169767
 20
126.898359277
  0
VERTEX
  8
0
 62
9
  6
CONTINUOUS
 10
47.1475403255
 20
126.6858790554
  0
VERTEX
  8
0
 62
9
  6
CONTINUOUS
 10
47.5302237579
 20
126.6112659239
  0
SEQEND
  0
LINE
  8
0
 62
7
  6
CONTINUOUS
 10
46.5302237579
 20
123.6312224137
 11
46.6070075045
 21
123.2467199533
  0
LINE
  8
0
 62
7
  6
CONTINUOUS
 10
46.5302237579
 20
123.6312224137
 11
46.5302237579
 21
134.9497560229
  0
LINE
  8
0
 62
9
  6
CONTINUOUS
 10
47.5302237579
 20
122.877840358
 11
47.5302237579
 21
148.1466716878
  0
POLYLINE
  8
0
 62
7
  6
CONTINUOUS
 66
1
 70
0
  0
VERTEX
  8
0
 62
7
  6
CONTINUOUS
 10
46.5302237579
 20
134.9497560229
  0
VERTEX
  8
0
 62
7
  6
CONTINUOUS
 10
46.6103863784
 20
135.1555246622
  0
VERTEX
  8
0
 62
7
  6
CONTINUOUS
 10
46.8327205271
 20
135.3401399193
  0
VERTEX
  8
0
 62
7
  6
CONTINUOUS
 10
47.157546529
 20
135.4675560207
  0
VERTEX
  8
0
 62
7
  6
CONTINUOUS
 10
47.9029009867
 20
135.556956025
  0
SEQEND
  0
LINE
  8
0
 62
7
  6
CONTINUOUS
 10
46.5302237579
 20
134.5122560229
 11
30.2417883168
 21
134.5122560229
  0
LINE
  8
0
 62
7
  6
CONTINUOUS
 10
48.5302237579
 20
136.0747560229
 11
48.5302237579
 21
147.3932896321
  0
POLYLINE
  8
0
 62
7
  6
CONTINUOUS
 66
1
 70
0
  0
VERTEX
  8
0
 62
7
  6
CONTINUOUS
 10
48.5302237579
 20
136.0747560229
  0
VERTEX
  8
0
 62
7
  6
CONTINUOUS
 10
48.4500611374
 20
135.8689873835
  0
VERTEX
  8
0
 62
7
  6
CONTINUOUS
 10
48.2277269886
 20
135.6843721265
  0
VERTEX
  8
0
 62
7
  6
CONTINUOUS
 10
47.9029009867
 20
135.556956025
  0
SEQEND
  0
LINE
  8
0
 62
2
  6
CONTINUOUS
 10
34.2324453705
 20
121.2698029141
 11
46.5302237579
 21
133.5675813014
  0
LINE
  8
0
 62
2
  6
CONTINUOUS
 10
49.4748984793
 20
136.5122560229
 11
61.7785804683
 21
148.8159380119
  0
LINE
  8
0
 62
7
  6
CONTINUOUS
 10
48.5302237579
 20
136.5122560229
 11
64.8186591989
 21
136.5122560229
  0
POLYLINE
  8
0
 62
9
  6
CONTINUOUS
 66
1
 70
0
  0
VERTEX
  8
0
 62
9
  6
CONTINUOUS
 10
48.5302237579
 20
143.4330481021
  0
VERTEX
  8
0
 62
9
  6
CONTINUOUS
 10
48.4541032904
 20
143.8081536447
  0
VERTEX
  8
0
 62
9
  6
CONTINUOUS
 10
48.237330539
 20
144.1261527688
  0
VERTEX
  8
0
 62
9
  6
CONTINUOUS
 10
47.9129071902
 20
144.3386329904
  0
VERTEX
  8
0
 62
9
  6
CONTINUOUS
 10
47.5302237579
 20
144.4132461219
  0
SEQEND
  0
LINE
  8
0
 62
7
  6
CONTINUOUS
 10
48.5302237579
 20
147.3932896321
 11
48.4534400112
 21
147.7777920925
  0
LINE
  8
0
 62
7
  6
CONTINUOUS
 10
61.2790843781
 20
155.6876372357
 11
60.009301648
 21
152.198937857
  0
LINE
  8
0
 62
7
  6
CONTINUOUS
 10
60.009301648
 20
118.8255741888
 11
61.2790843781
 21
115.3368748101
  0
LINE
  8
0
 62
2
  6
CONTINUOUS
 10
34.6030496539
 20
112.9692741564
 11
46.5302237579
 21
124.8964482604
  0
LINE
  8
0
 62
2
  6
CONTINUOUS
 10
58.1460315204
 20
136.5122560229
 11
65.2273103803
 21
143.5935348828
  0
LINE
  8
0
 62
9
  6
CONTINUOUS
 10
47.5302237579
 20
144.4132461219
 11
33.7268887035
 21
144.4132461219
  0
POLYLINE
  8
0
 62
7
  6
CONTINUOUS
 66
1
 70
0
  0
VERTEX
  8
0
 62
7
  6
CONTINUOUS
 10
48.4534400112
 20
147.7777920925
  0
VERTEX
  8
0
 62
7
  6
CONTINUOUS
 10
48.2373573741
 20
148.1007767578
  0
VERTEX
  8
0
 62
7
  6
CONTINUOUS
 10
47.9139321326
 20
148.317275179
  0
VERTEX
  8
0
 62
7
  6
CONTINUOUS
 10
47.5302237579
 20
148.3938646787
  0
SEQEND
  0
LINE
  8
0
 62
2
  6
CONTINUOUS
 10
40.8024702573
 20
110.4975617187
 11
52.9355559057
 21
122.6306473671
  0
LINE
  8
0
 62
7
  6
CONTINUOUS
 10
47.5302237579
 20
148.3938646787
 11
36.9574005461
 21
148.3938646787
  0
POLYLINE
  8
0
 62
7
  6
CONTINUOUS
 66
1
 70
0
  0
VERTEX
  8
0
 62
7
  6
CONTINUOUS
 10
36.9574005461
 20
148.3938647375
  0
VERTEX
  8
0
 62
7
  6
CONTINUOUS
 10
36.622335777
 20
148.4227321111
  0
VERTEX
  8
0
 62
7
  6
CONTINUOUS
 10
36.0034098234
 20
148.6418635272
  0
VERTEX
  8
0
 62
7
  6
CONTINUOUS
 10
35.4856431335
 20
149.0599984728
  0
VERTEX
  8
0
 62
7
  6
CONTINUOUS
 10
35.2891654254
 20
149.3259029176
  0
VERTEX
  8
0
 62
7
  6
CONTINUOUS
 10
35.0416887621
 20
149.9424800203
  0
VERTEX
  8
0
 62
7
  6
CONTINUOUS
 10
35.013719983
 20
150.6023241628
  0
VERTEX
  8
0
 62
7
  6
CONTINUOUS
 10
35.0840498685
 20
150.92907719
  0
SEQEND
  0
POLYLINE
  8
0
 62
9
  6
CONTINUOUS
 66
1
 70
0
  0
VERTEX
  8
0
 62
9
  6
CONTINUOUS
 10
61.3335588122
 20
126.6112659239
  0
VERTEX
  8
0
 62
9
  6
CONTINUOUS
 10
59.4081843365
 20
124.5469583752
  0
VERTEX
  8
0
 62
9
  6
CONTINUOUS
 10
57.5387499361
 20
123.0628630785
  0
SEQEND
  0
LINE
  8
0
 62
9
  6
CONTINUOUS
 10
57.5387499361
 20
123.0628630785
 11
56.9374252642
 21
122.6732101852
  0
POLYLINE
  8
0
 62
9
  6
CONTINUOUS
 66
1
 70
0
  0
VERTEX
  8
0
 62
9
  6
CONTINUOUS
 10
64.8186591989
 20
136.5122560229
  0
VERTEX
  8
0
 62
9
  6
CONTINUOUS
 10
64.8470108349
 20
136.3896684369
  0
VERTEX
  8
0
 62
9
  6
CONTINUOUS
 10
64.9231161401
 20
136.0143483092
  0
VERTEX
  8
0
 62
9
  6
CONTINUOUS
 10
65.014173898
 20
135.3923511137
  0
VERTEX
  8
0
 62
9
  6
CONTINUOUS
 10
65.0688851493
 20
134.5414216984
  0
VERTEX
  8
0
 62
9
  6
CONTINUOUS
 10
65.0287213701
 20
133.5195218663
  0
VERTEX
  8
0
 62
9
  6
CONTINUOUS
 10
64.8474426789
 20
132.3838987497
  0
VERTEX
  8
0
 62
9
  6
CONTINUOUS
 10
64.6938711358
 20
131.7895708127
  0
VERTEX
  8
0
 62
9
  6
CONTINUOUS
 10
64.2520849624
 20
130.5823519253
  0
VERTEX
  8
0
 62
9
  6
CONTINUOUS
 10
63.637996598
 20
129.3987602141
  0
VERTEX
  8
0
 62
9
  6
CONTINUOUS
 10
62.9076747822
 20
128.3246492577
  0
VERTEX
  8
0
 62
9
  6
CONTINUOUS
 10
62.1987712388
 20
127.4771076716
  0
VERTEX
  8
0
 62
9
  6
CONTINUOUS
 10
61.6543558991
 20
126.9145342678
  0
VERTEX
  8
0
 62
9
  6
CONTINUOUS
 10
61.3335588122
 20
126.6112659239
  0
SEQEND
  0
POLYLINE
  8
0
 62
9
  6
CONTINUOUS
 66
1
 70
0
  0
VERTEX
  8
0
 62
9
  6
CONTINUOUS
 10
62.8760054996
 20
123.4807589791
  0
VERTEX
  8
0
 62
9
  6
CONTINUOUS
 10
63.1792652478
 20
124.0510869781
  0
VERTEX
  8
0
 62
9
  6
CONTINUOUS
 10
63.2692560247
 20
124.6952494443
  0
VERTEX
  8
0
 62
9
  6
CONTINUOUS
 10
63.1355795248
 20
125.3388143297
  0
VERTEX
  8
0
 62
9
  6
CONTINUOUS
 10
62.9887122417
 20
125.6368920754
  0
VERTEX
  8
0
 62
9
  6
CONTINUOUS
 10
62.556163578
 20
126.1425220047
  0
VERTEX
  8
0
 62
9
  6
CONTINUOUS
 10
61.982344443
 20
126.4803240862
  0
VERTEX
  8
0
 62
9
  6
CONTINUOUS
 10
61.3335588122
 20
126.6112657739
  0
SEQEND
  0
LINE
  8
0
 62
2
  6
CONTINUOUS
 10
48.5789489747
 20
109.6029073951
 11
60.0203574273
 21
121.0443158477
  0
ARC
  8
0
 62
7
  6
CONTINUOUS
 10
36.7100207738
 20
210.8640977717
 40
0.5
 50
225.9941504295
 51
314.0058495705
  0
ARC
  8
0
 62
7
  6
CONTINUOUS
 10
33.4100207738
 20
212.5640977717
 40
0.5
 50
90.0
 51
258.578813725
  0
ARC
  8
0
 62
9
  6
CONTINUOUS
 10
33.4100207738
 20
212.5640977717
 40
0.4
 50
120.7535198081
 51
258.578813725
  0
ARC
  8
0
 62
7
  6
CONTINUOUS
 10
35.7339993721
 20
210.7640977717
 40
0.25
 50
45.9941504295
 51
90.0
  0
ARC
  8
DEFAULT_2
 62
8
  6
HIDDEN
 10
33.4100207738
 20
213.3640977717
 40
0.5
 50
101.421186275
 51
233.192384348
  0
ARC
  8
0
 62
7
  6
CONTINUOUS
 10
36.7100207738
 20
215.0640977717
 40
0.5
 50
45.9941504295
 51
134.0058495705
  0
ARC
  8
0
 62
7
  6
CONTINUOUS
 10
33.4100207738
 20
213.3640977717
 40
0.5
 50
233.192384348
 51
270.0
  0
ARC
  8
DEFAULT_2
 62
8
  6
HIDDEN
 10
33.4100207738
 20
213.3640977717
 40
0.4
 50
101.421186275
 51
239.2464801919
  0
ARC
  8
0
 62
7
  6
CONTINUOUS
 10
35.7339993721
 20
215.1640977717
 40
0.25
 50
270.0
 51
314.0058495705
  0
ARC
  8
DEFAULT_2
 62
8
  6
HIDDEN
 10
37.4100207738
 20
193.5640977717
 40
20.7
 50
78.578813725
 51
101.421186275
  0
ARC
  8
DEFAULT_2
 62
8
  6
HIDDEN
 10
37.4100207738
 20
193.5640977717
 40
20.6
 50
78.578813725
 51
101.421186275
  0
ARC
  8
0
 62
7
  6
CONTINUOUS
 10
41.4100207738
 20
212.5640977717
 40
0.5
 50
281.421186275
 51
90.0
  0
ARC
  8
0
 62
9
  6
CONTINUOUS
 10
41.4100207738
 20
212.5640977717
 40
0.4
 50
281.421186275
 51
59.2464801919
  0
ARC
  8
0
 62
7
  6
CONTINUOUS
 10
37.6860421756
 20
210.7640977717
 40
0.25
 50
90.0
 51
134.0058495705
  0
ARC
  8
0
 62
7
  6
CONTINUOUS
 10
37.4100207738
 20
232.3640977717
 40
20.7
 50
258.578813725
 51
281.421186275
  0
ARC
  8
0
 62
9
  6
CONTINUOUS
 10
37.4100207738
 20
232.3640977717
 40
20.6
 50
258.578813725
 51
281.421186275
  0
ARC
  8
DEFAULT_2
 62
8
  6
HIDDEN
 10
41.4100207738
 20
213.3640977717
 40
0.5
 50
306.8064957844
 51
78.578813725
  0
ARC
  8
0
 62
7
  6
CONTINUOUS
 10
41.4100207738
 20
213.3640977717
 40
0.5
 50
270.0
 51
306.8064957844
  0
ARC
  8
DEFAULT_2
 62
8
  6
HIDDEN
 10
41.4100207738
 20
213.3640977717
 40
0.4
 50
300.7535198081
 51
78.578813725
  0
ARC
  8
0
 62
7
  6
CONTINUOUS
 10
37.6860421756
 20
215.1640977717
 40
0.25
 50
225.9941504295
 51
270.0
  0
ARC
  8
0
 62
7
  6
CONTINUOUS
 10
384.4845096814
 20
210.8781556217
 40
0.2
 50
159.9999999973
 51
240.3591440507
  0
ARC
  8
0
 62
7
  6
CONTINUOUS
 10
384.2356109061
 20
211.363833617
 40
0.2
 50
340.0
 51
48.09978732
  0
ARC
  8
DEFAULT_2
 62
8
  6
HIDDEN
 10
383.9426134985
 20
212.6680978175
 40
0.1959999871
 50
89.9999483654
 51
189.7155855248
  0
ARC
  8
0
 62
7
  6
CONTINUOUS
 10
384.4845096814
 20
215.0500399217
 40
0.2
 50
119.6408559514
 51
200.0000000047
  0
ARC
  8
0
 62
7
  6
CONTINUOUS
 10
384.2356109061
 20
214.5643619265
 40
0.2
 50
339.496941014
 51
20.0
  0
ARC
  8
0
 62
7
  6
CONTINUOUS
 10
386.8584047571
 20
210.8781556217
 40
0.2
 50
299.6408559514
 51
20.0000000047
  0
ARC
  8
0
 62
7
  6
CONTINUOUS
 10
387.1073035324
 20
211.363833617
 40
0.2
 50
159.496941014
 51
199.9999999999
  0
ARC
  8
DEFAULT_2
 62
8
  6
HIDDEN
 10
385.6714572193
 20
211.7640977717
 40
0.1
 50
180.0
 51
270.0
  0
ARC
  8
0
 62
7
  6
CONTINUOUS
 10
385.6714572193
 20
212.9640977717
 40
2.6
 50
60.3591585903
 51
119.6408414097
  0
ARC
  8
0
 62
7
  6
CONTINUOUS
 10
385.6714572193
 20
212.9640977717
 40
2.6
 50
240.3591585903
 51
299.6408414097
  0
ARC
  8
0
 62
9
  6
CONTINUOUS
 10
385.6714572193
 20
212.9640977717
 40
2.459634438
 50
240.0050115854
 51
299.9949884146
  0
ARC
  8
0
 62
9
  6
CONTINUOUS
 10
385.6714572193
 20
212.9640977717
 40
2.459634438
 50
60.0050115854
 51
119.9949884146
  0
ARC
  8
0
 62
9
  6
CONTINUOUS
 10
385.6714572193
 20
212.9640977717
 40
2.020182781
 50
237.6307169171
 51
302.3692830529
  0
ARC
  8
0
 62
9
  6
CONTINUOUS
 10
385.6714572193
 20
212.9640977717
 40
2.020182781
 50
57.6307169171
 51
122.3692830529
  0
CIRCLE
  8
0
 62
7
  6
CONTINUOUS
 10
385.6714572193
 20
212.9640977717
 40
1.95
  0
CIRCLE
  8
0
 62
7
  6
CONTINUOUS
 10
385.6714572193
 20
212.9640977717
 40
1.45
  0
ARC
  8
DEFAULT_2
 62
8
  6
HIDDEN
 10
385.6714572193
 20
214.1640977717
 40
0.1
 50
0.0
 51
90.0
  0
ARC
  8
DEFAULT_2
 62
8
  6
HIDDEN
 10
387.40030094
 20
213.260097726
 40
0.1959999871
 50
269.9999483654
 51
9.7155855248
  0
ARC
  8
0
 62
7
  6
CONTINUOUS
 10
386.8584047571
 20
215.0500399217
 40
0.2
 50
339.9999999973
 51
60.3591440507
  0
ARC
  8
0
 62
7
  6
CONTINUOUS
 10
387.1073035324
 20
214.5643619265
 40
0.2
 50
160.0
 51
228.0998056957
  0
ARC
  8
0
 62
9
  6
CONTINUOUS
 10
-1054.9020160807
 20
-1195.3073922761
 40
1728.9707320624
 50
47.2076524946
 51
47.3388189522
  0
ARC
  8
DEFAULT_2
 62
8
  6
HIDDEN
 10
-705.6471924575
 20
-810.834005824
 40
1211.9281207794
 50
46.9892468515
 51
47.1769477564
  0
ARC
  8
0
 62
9
  6
CONTINUOUS
 10
-705.2768050758
 20
-810.4347957214
 40
1211.3835524117
 50
46.9891768797
 51
47.1769621988
  0
ARC
  8
DEFAULT_2
 62
8
  6
HIDDEN
 10
81.670809358
 20
52.760274472
 40
5.0
 50
126.8698976458
 51
258.578813725
  0
ARC
  8
0
 62
9
  6
CONTINUOUS
 10
81.670809358
 20
52.760274472
 40
4.0
 50
120.7535198081
 51
258.578813725
  0
ARC
  8
0
 62
9
  6
CONTINUOUS
 10
-1054.8980942779
 20
1308.8236811819
 40
1728.9648754708
 50
312.661181143
 51
312.7923480399
  0
ARC
  8
0
 62
9
  6
CONTINUOUS
 10
-705.6471926579
 20
924.3545549835
 40
1211.9280250035
 50
312.8230522436
 51
313.0107531485
  0
ARC
  8
DEFAULT_2
 62
8
  6
HIDDEN
 10
-705.2768050712
 20
923.9553446599
 40
1211.3834556749
 50
312.8230378012
 51
313.0108231203
  0
CIRCLE
  8
0
 62
2
  6
CONTINUOUS
 10
34.8201903682
 20
213.686726224
 40
9.3325138184
  0
ARC
  8
DEFAULT_2
 62
8
  6
HIDDEN
 10
81.670809358
 20
60.760274472
 40
5.0
 50
101.421186275
 51
233.1301023542
  0
ARC
  8
0
 62
7
  6
CONTINUOUS
 10
81.670809358
 20
60.760274472
 40
5.0
 50
245.8531520035
 51
270.0
  0
ARC
  8
DEFAULT_2
 62
8
  6
HIDDEN
 10
81.670809358
 20
60.760274472
 40
4.0
 50
101.421186275
 51
239.2464801919
  0
ARC
  8
0
 62
9
  6
CONTINUOUS
 10
1284.2375359588
 20
-1195.3007260744
 40
1728.9616307479
 50
132.6611821249
 51
132.7923492679
  0
ARC
  8
0
 62
9
  6
CONTINUOUS
 10
934.9959265098
 20
-810.8416892407
 40
1211.9384967142
 50
132.8230520588
 51
133.0107513402
  0
ARC
  8
DEFAULT_2
 62
8
  6
HIDDEN
 10
121.6661963657
 20
-345.1582606236
 40
417.4198401913
 50
90.2750110993
 51
91.6456111525
  0
ARC
  8
DEFAULT_2
 62
8
  6
HIDDEN
 10
121.670809358
 20
-137.239725528
 40
207.0
 50
78.578813725
 51
101.421186275
  0
ARC
  8
DEFAULT_2
 62
8
  6
HIDDEN
 10
121.670809358
 20
-137.239725528
 40
206.0
 50
78.578813725
 51
101.421186275
  0
ARC
  8
DEFAULT_2
 62
8
  6
HIDDEN
 10
161.670809358
 20
52.760274472
 40
5.0
 50
281.421186275
 51
53.1301023542
  0
ARC
  8
0
 62
9
  6
CONTINUOUS
 10
161.670809358
 20
52.760274472
 40
4.0
 50
281.421186275
 51
59.2464801919
  0
ARC
  8
0
 62
9
  6
CONTINUOUS
 10
124.3581910529
 20
42.8413795605
 40
2.775924688
 50
254.1794266597
 51
271.5033897388
  0
ARC
  8
0
 62
9
  6
CONTINUOUS
 10
1284.231220926
 20
1308.8144253453
 40
1728.9523805552
 50
227.2076500965
 51
227.3388179463
  0
ARC
  8
DEFAULT_2
 62
8
  6
HIDDEN
 10
934.9959265296
 20
924.3622382064
 40
1211.9385928041
 50
226.9892486598
 51
227.1769479412
  0
ARC
  8
0
 62
9
  6
CONTINUOUS
 10
934.6528494239
 20
923.9924642116
 40
1211.4341782794
 50
226.9891838704
 51
227.1769613378
  0
ARC
  8
0
 62
9
  6
CONTINUOUS
 10
121.6661963657
 20
458.6788095653
 40
417.4198559797
 50
268.3543888475
 51
269.7249889007
  0
ARC
  8
DEFAULT_2
 62
8
  6
HIDDEN
 10
121.670809358
 20
250.760274472
 40
207.0
 50
270.3470751445
 51
281.421186275
  0
ARC
  8
DEFAULT_2
 62
8
  6
HIDDEN
 10
121.670809358
 20
250.760274472
 40
207.0
 50
258.578813725
 51
270.0002719059
  0
ARC
  8
0
 62
7
  6
CONTINUOUS
 10
121.670809358
 20
250.760274472
 40
207.0
 50
270.0002719059
 51
270.3470751445
  0
ARC
  8
0
 62
9
  6
CONTINUOUS
 10
121.670809358
 20
250.760274472
 40
206.0
 50
258.578813725
 51
281.421186275
  0
ARC
  8
DEFAULT_2
 62
8
  6
HIDDEN
 10
161.670809358
 20
60.760274472
 40
5.0
 50
306.8698976458
 51
78.578813725
  0
ARC
  8
0
 62
7
  6
CONTINUOUS
 10
161.670809358
 20
60.760274472
 40
5.0
 50
270.0
 51
294.1468479965
  0
ARC
  8
DEFAULT_2
 62
8
  6
HIDDEN
 10
161.670809358
 20
60.760274472
 40
4.0
 50
300.7535198081
 51
78.578813725
  0
ARC
  8
DEFAULT_2
 62
8
  6
HIDDEN
 10
124.3581910529
 20
70.6791693834
 40
2.7760356924
 50
88.4966102614
 51
105.8205733407
  0
ARC
  8
0
 62
7
  6
CONTINUOUS
 10
35.6607483792
 20
114.6528345234
 40
2.0
 50
160.0
 51
240.3591440373
  0
ARC
  8
0
 62
7
  6
CONTINUOUS
 10
33.1717606262
 20
119.5096144754
 40
2.0
 50
340.0
 51
48.0997737587
  0
ARC
  8
0
 62
7
  6
CONTINUOUS
 10
30.2417883168
 20
132.5522560229
 40
1.96
 50
90.0
 51
189.7155636356
  0
ARC
  8
0
 62
7
  6
CONTINUOUS
 10
35.6607483792
 20
156.3716775223
 40
2.0
 50
119.6408559628
 51
200.0
  0
ARC
  8
0
 62
7
  6
CONTINUOUS
 10
33.1717606262
 20
151.5148975704
 40
2.0
 50
342.9678127991
 51
20.0
  0
ARC
  8
0
 62
7
  6
CONTINUOUS
 10
59.3996991365
 20
114.6528345234
 40
2.0
 50
299.6408559628
 51
20.0
  0
ARC
  8
0
 62
7
  6
CONTINUOUS
 10
61.8886868895
 20
119.5096144754
 40
2.0
 50
162.9678127991
 51
200.0
  0
ARC
  8
0
 62
7
  6
CONTINUOUS
 10
47.5302237579
 20
135.5122560229
 40
26.0
 50
60.3591586621
 51
119.6408413379
  0
ARC
  8
0
 62
7
  6
CONTINUOUS
 10
47.5302237579
 20
135.5122560229
 40
26.0
 50
240.3591586621
 51
299.6408413379
  0
ARC
  8
0
 62
7
  6
CONTINUOUS
 10
47.5302237579
 20
135.5122560229
 40
19.5
 50
129.6022459715
 51
228.0997737587
  0
ARC
  8
0
 62
7
  6
CONTINUOUS
 10
47.5302237579
 20
135.5122560229
 40
19.5
 50
309.6022459715
 51
48.0997737587
  0
ARC
  8
0
 62
7
  6
CONTINUOUS
 10
64.8186591989
 20
138.4722560229
 40
1.96
 50
270.0
 51
9.7155636356
  0
ARC
  8
0
 62
7
  6
CONTINUOUS
 10
59.3996991365
 20
156.3716775223
 40
2.0
 50
340.0
 51
60.3591440373
  0
ARC
  8
0
 62
7
  6
CONTINUOUS
 10
61.8886868895
 20
151.5148975704
 40
2.0
 50
160.0
 51
228.0997737587
  0
ENDSEC
  0
EOF
