  0
SECTION
  2
HEADER
  9
$EXTMAX
 10
210.0
 20
297.0
 30
0.0
  9
$EXTMIN
 10
0.0
 20
0.0
 30
0.0
  9
$LIMMIN
 10
0.0
 20
0.0
  9
$LIMMAX
 10
210.0
 20
297.0
  9
$VIEWCTR
 10
105.0
 20
148.5
  9
$VIEWSIZE
 40
297.0
  9
$CLAYER
  8
0
  9
$LTSCALE
 40
19.36
  9
$CELTYPE
  6
BYLAYER
  9
$DIMSCALE
 40
1.0
  9
$DIMASZ
 40
3.5
  9
$DIMEXO
 40
1.0
  9
$DIMDLI
 40
13.376
  9
$DIMEXE
 40
2.0
  9
$DIMCEN
 40
3.168
  9
$DIMLFAC
 40
1.0
  9
$DIMBLK
  1
_FILLED
  9
$DIMALT
 70
0
  9
$DIMALTF
 40
0.0393700787
  9
$DIMTXT
 40
3.5
  9
$AUNITS
 70
0
  9
$PDMODE
 70
3
  9
$PDSIZE
 40
0.3125
  9
$TILEMODE
 70
1
  0
ENDSEC
  0
SECTION
  2
TABLES
  0
TABLE
  2
LTYPE
 70
6
  0
LTYPE
  2
BYBLOCK
 70
0
  3

 72
65
 73
0
 40
0.0
  0
LTYPE
  2
BYLAYER
 70
0
  3

 72
65
 73
0
 40
0.0
  0
LTYPE
  2
CONTINUOUS
 70
64
  3
Solid line
 72
65
 73
0
 40
0.0
  0
LTYPE
  2
CENTER
 70
64
  3
____ _ ____ _ ____ _ ____ _ ____ _ ____ _ ____
 72
65
 73
4
 40
0.6
 49
0.375
 49
-0.075
 49
0.075
 49
-0.075
  0
LTYPE
  2
HIDDEN
 70
64
  3
- - - - - - - - - - - - - - - - - - - -
 72
65
 73
2
 40
0.2
 49
0.1
 49
-0.1
  0
LTYPE
  2
PHANTOM
 70
64
  3
_____ _ _ _____ _ _ _____ _ _ _____
 72
65
 73
6
 40
0.8
 49
0.45
 49
-0.05
 49
0.1
 49
-0.05
 49
0.1
 49
-0.05
  0
LTYPE
  2
DOT
 70
64
  3
. . . . . . . . . . . . . . . . . . . .
 72
65
 73
2
 40
0.2
 49
0.1
 49
-0.1
  0
LTYPE
  2
DASHED
 70
64
  3
- - - - - - - - - - - - - - - - - - - -
 72
65
 73
2
 40
0.2
 49
0.1
 49
-0.1
  0
ENDTAB
  0
TABLE
  2
LAYER
 70
36
  0
LAYER
  2
0
 70
0
 62
7
  6
CONTINUOUS
  0
LAYER
  2
DEFAULT_1
 70
0
 62
7
  6
CENTER
  0
LAYER
  2
DEFAULT_2
 70
0
 62
8
  6
HIDDEN
  0
LAYER
  2
DEFAULT_3
 70
0
 62
7
  6
PHANTOM
  0
LAYER
  2
CSYS
 70
0
 62
7
  6
CONTINUOUS
  0
LAYER
  2
CURVE
 70
0
 62
7
  6
CONTINUOUS
  0
LAYER
  2
PITCHLINE
 70
0
 62
7
  6
CONTINUOUS
  0
LAYER
  2
SQ
 70
0
 62
7
  6
CONTINUOUS
  0
LAYER
  2
SURFACE
 70
0
 62
7
  6
CONTINUOUS
  0
ENDTAB
  0
TABLE
  2
STYLE
 70
1
  0
STYLE
  2
STANDARD
 70
0
 40
0.0
 41
0.8
 50
0.0
 71
0
 42
0.2
  3
txt
  4

  0
STYLE
  2
TEXTSTYLE_1
 70
0
 40
0.0
 41
0.8
 50
0.0
 71
0
 42
0.2
  3
gdt
  4

  0
STYLE
  2
TEXTSTYLE_2
 70
0
 40
0.0
 41
0.6
 50
0.0
 71
0
 42
0.2
  3
txt
  4

  0
STYLE
  2
TEXTSTYLE_3
 70
0
 40
0.0
 41
1.0
 50
0.0
 71
0
 42
0.2
  3
ftb_____.ttf
  4

  0
STYLE
  2
TEXTSTYLE_4
 70
0
 40
0.0
 41
1.0
 50
0.0
 71
0
 42
0.2
  3
fti_____.ttf
  4

  0
STYLE
  2
TEXTSTYLE_5
 70
0
 40
0.0
 41
1.0
 50
0.0
 71
0
 42
0.2
  3
frutiger light.ttf
  4

  0
STYLE
  2
TEXTSTYLE_6
 70
0
 40
0.0
 41
0.7
 50
0.0
 71
0
 42
0.2
  3
txt
  4

  0
STYLE
  2
TEXTSTYLE_7
 70
0
 40
0.0
 41
0.8
 50
0.0
 71
0
 42
0.2
  3
txt
  4

  0
ENDTAB
  0
ENDSEC
  0
SECTION
  2
BLOCKS
  0
BLOCK
  8
0
 62
2
  6
CONTINUOUS
  2
UNI_LOGO2_BL1
 70
64
 10
173.5956734183
 20
35.5937998301
  0
TEXT
  8
0
 62
7
  6
CONTINUOUS
 10
164.6539584268
 20
30.6865562072
  7
TEXTSTYLE_4
 40
1.0655737705
  1
The brand for plastic modular belts and chains
 41
1.0
 72
0
  0
LINE
  8
0
 62
7
  6
CONTINUOUS
 10
149.5737418074
 20
36.1675703219
 11
149.5737418074
 21
34.0364227809
  0
LINE
  8
0
 62
7
  6
CONTINUOUS
 10
149.8628043005
 20
31.0454914852
 11
149.8628043005
 21
31.1422825445
  0
LINE
  8
0
 62
7
  6
CONTINUOUS
 10
149.5737418074
 20
31.1100188581
 11
149.6315543091
 21
30.9164367395
  0
LINE
  8
0
 62
7
  6
CONTINUOUS
 10
150.9671844304
 20
33.9544555678
 11
150.9671844304
 21
36.1675703219
  0
LINE
  8
0
 62
7
  6
CONTINUOUS
 10
151.8862417523
 20
32.1101932727
 11
151.8862417523
 21
30.5937998301
  0
LINE
  8
0
 62
7
  6
CONTINUOUS
 10
152.1753043074
 20
30.5937998301
 11
152.1753043074
 21
31.3358647082
  0
LINE
  8
0
 62
7
  6
CONTINUOUS
 10
152.1753043074
 20
31.4649194539
 11
152.1753043074
 21
32.1101932727
  0
LINE
  8
0
 62
7
  6
CONTINUOUS
 10
149.6315543091
 20
31.3036010218
 11
149.5737418074
 21
31.1100188581
  0
LINE
  8
0
 62
7
  6
CONTINUOUS
 10
149.9784292936
 20
30.8841730531
 11
149.8628043005
 21
31.0454914852
  0
LINE
  8
0
 62
7
  6
CONTINUOUS
 10
151.0768668626
 20
31.400392081
 11
151.1346793074
 21
31.3036010218
  0
LINE
  8
0
 62
7
  6
CONTINUOUS
 10
151.4237418626
 20
31.3036010218
 11
151.3659292523
 21
31.4326557675
  0
LINE
  8
0
 62
7
  6
CONTINUOUS
 10
152.852430332
 20
36.1675703219
 11
152.852430332
 21
34.3642916334
  0
LINE
  8
0
 62
7
  6
CONTINUOUS
 10
152.852430332
 20
33.0528162235
 11
152.852430332
 21
32.3970785186
  0
LINE
  8
0
 62
7
  6
CONTINUOUS
 10
153.2159293074
 20
31.2390736489
 11
153.2159293074
 21
30.5937998301
  0
LINE
  8
0
 62
7
  6
CONTINUOUS
 10
153.5049916972
 20
30.5937998301
 11
153.5049916972
 21
31.2390736489
  0
LINE
  8
0
 62
7
  6
CONTINUOUS
 10
149.8628043005
 20
31.1422825445
 11
149.9206168074
 21
31.2713373354
  0
LINE
  8
0
 62
7
  6
CONTINUOUS
 10
149.6315543091
 20
30.9164367395
 11
149.7471793074
 21
30.7873819712
  0
LINE
  8
0
 62
7
  6
CONTINUOUS
 10
153.1581166972
 20
31.3681283946
 11
153.2159293074
 21
31.2390736489
  0
LINE
  8
0
 62
7
  6
CONTINUOUS
 10
153.9674919177
 20
30.8841730531
 11
154.0253041972
 21
30.7551182848
  0
LINE
  8
0
 62
7
  6
CONTINUOUS
 10
153.5049916972
 20
31.2390736489
 11
153.4471794177
 21
31.400392081
  0
LINE
  8
0
 62
7
  6
CONTINUOUS
 10
153.9674919177
 20
31.4326557675
 11
153.9674919177
 21
31.3681283946
  0
LINE
  8
0
 62
7
  6
CONTINUOUS
 10
153.9674919177
 20
30.9809641124
 11
153.9674919177
 21
30.8841730531
  0
LINE
  8
0
 62
7
  6
CONTINUOUS
 10
154.245872955
 20
32.3970785186
 11
154.245872955
 21
36.1675703219
  0
LINE
  8
0
 62
7
  6
CONTINUOUS
 10
154.2565543074
 20
30.8519093441
 11
154.2565543074
 21
30.9164367395
  0
LINE
  8
0
 62
7
  6
CONTINUOUS
 10
154.5737418074
 20
36.1675703219
 11
154.5737418074
 21
32.3970785186
  0
LINE
  8
0
 62
7
  6
CONTINUOUS
 10
151.3659292523
 20
30.7873819712
 11
151.4237418626
 21
30.9164367395
  0
LINE
  8
0
 62
7
  6
CONTINUOUS
 10
155.759679528
 20
30.6905909007
 11
155.7018665869
 21
30.8519093441
  0
LINE
  8
0
 62
7
  6
CONTINUOUS
 10
155.412804528
 20
31.3681283946
 11
155.412804528
 21
31.2713373354
  0
LINE
  8
0
 62
7
  6
CONTINUOUS
 10
155.412804528
 20
31.1422825445
 11
155.412804528
 21
30.9487004259
  0
LINE
  8
0
 62
7
  6
CONTINUOUS
 10
155.7018665869
 20
30.8519093441
 11
155.7018665869
 21
31.3681283946
  0
LINE
  8
0
 62
7
  6
CONTINUOUS
 10
155.9671844304
 20
32.3970785186
 11
155.9671844304
 21
34.2003572071
  0
LINE
  8
0
 62
7
  6
CONTINUOUS
 10
155.9671844304
 20
35.511832617
 11
155.9671844304
 21
36.1675703219
  0
LINE
  8
0
 62
7
  6
CONTINUOUS
 10
156.279992028
 20
32.1101932727
 11
156.279992028
 21
31.9488748406
  0
LINE
  8
0
 62
7
  6
CONTINUOUS
 10
156.279992028
 20
31.626237886
 11
156.279992028
 21
30.5937998301
  0
LINE
  8
0
 62
7
  6
CONTINUOUS
 10
156.5690540869
 20
30.5937998301
 11
156.5690540869
 21
31.626237886
  0
LINE
  8
0
 62
7
  6
CONTINUOUS
 10
156.5690540869
 20
31.9488748406
 11
156.5690540869
 21
32.1101932727
  0
LINE
  8
0
 62
7
  6
CONTINUOUS
 10
151.1346793074
 20
30.9164367395
 11
151.0768668626
 21
30.8196456577
  0
LINE
  8
0
 62
7
  6
CONTINUOUS
 10
153.4471794177
 20
31.400392081
 11
153.3893668074
 21
31.4649194539
  0
LINE
  8
0
 62
7
  6
CONTINUOUS
 10
154.3143669177
 20
30.7873819712
 11
154.2565543074
 21
30.8519093441
  0
LINE
  8
0
 62
7
  6
CONTINUOUS
 10
155.4706168074
 20
30.6583272086
 11
155.5284290869
 21
30.5937998301
  0
LINE
  8
0
 62
7
  6
CONTINUOUS
 10
155.412804528
 20
30.7551182848
 11
155.4706168074
 21
30.6583272086
  0
LINE
  8
0
 62
7
  6
CONTINUOUS
 10
155.8174918074
 20
30.5937998301
 11
155.759679528
 21
30.6905909007
  0
LINE
  8
0
 62
7
  6
CONTINUOUS
 10
155.7018665869
 20
31.3681283946
 11
155.6440543074
 21
31.4649194539
  0
LINE
  8
0
 62
7
  6
CONTINUOUS
 10
157.0315543074
 20
31.626237886
 11
157.0315543074
 21
30.5937998301
  0
LINE
  8
0
 62
7
  6
CONTINUOUS
 10
157.320617028
 20
30.5937998301
 11
157.320617028
 21
31.3358647082
  0
LINE
  8
0
 62
7
  6
CONTINUOUS
 10
157.320617028
 20
31.4649194539
 11
157.320617028
 21
31.626237886
  0
LINE
  8
0
 62
7
  6
CONTINUOUS
 10
157.852430332
 20
34.6101932727
 11
157.852430332
 21
32.3970785186
  0
LINE
  8
0
 62
7
  6
CONTINUOUS
 10
149.7471793074
 20
31.4326557675
 11
149.6315543091
 21
31.3036010218
  0
LINE
  8
0
 62
7
  6
CONTINUOUS
 10
149.9206168074
 20
31.2713373354
 11
149.9784292936
 21
31.3358647082
  0
LINE
  8
0
 62
7
  6
CONTINUOUS
 10
149.7471793074
 20
30.7873819712
 11
149.8628043005
 21
30.7228545871
  0
LINE
  8
0
 62
7
  6
CONTINUOUS
 10
150.1518667936
 20
30.7873819712
 11
149.9784292936
 21
30.8841730531
  0
LINE
  8
0
 62
7
  6
CONTINUOUS
 10
155.3549915869
 20
31.4326557675
 11
155.412804528
 21
31.3681283946
  0
LINE
  8
0
 62
7
  6
CONTINUOUS
 10
158.3034290869
 20
31.3681283946
 11
158.361242028
 21
31.2068099625
  0
LINE
  8
0
 62
7
  6
CONTINUOUS
 10
158.6503040869
 20
31.2068099625
 11
158.5924918074
 21
31.3681283946
  0
LINE
  8
0
 62
7
  6
CONTINUOUS
 10
158.361242028
 20
31.2068099625
 11
158.361242028
 21
30.5937998301
  0
LINE
  8
0
 62
7
  6
CONTINUOUS
 10
158.6503040869
 20
30.5937998301
 11
158.6503040869
 21
31.2068099625
  0
LINE
  8
0
 62
7
  6
CONTINUOUS
 10
159.1128043074
 20
31.4326557675
 11
159.1128043074
 21
31.3681283946
  0
LINE
  8
0
 62
7
  6
CONTINUOUS
 10
159.245872955
 20
32.3970785186
 11
159.245872955
 21
34.5282260596
  0
LINE
  8
0
 62
7
  6
CONTINUOUS
 10
159.5737418074
 20
36.1675703219
 11
159.5737418074
 21
32.3970785186
  0
LINE
  8
0
 62
7
  6
CONTINUOUS
 10
154.2565543074
 20
30.9164367395
 11
154.3143669177
 21
31.0132277988
  0
LINE
  8
0
 62
7
  6
CONTINUOUS
 10
149.8628043005
 20
30.7228545871
 11
150.0362418212
 21
30.6583272086
  0
LINE
  8
0
 62
7
  6
CONTINUOUS
 10
151.3659292523
 20
31.4326557675
 11
151.1924917523
 21
31.5294468267
  0
LINE
  8
0
 62
7
  6
CONTINUOUS
 10
154.0253041972
 20
30.7551182848
 11
154.1987416972
 21
30.6583272086
  0
LINE
  8
0
 62
7
  6
CONTINUOUS
 10
153.0424918074
 20
31.4326557675
 11
153.1581166972
 21
31.3681283946
  0
LINE
  8
0
 62
7
  6
CONTINUOUS
 10
153.3893668074
 20
31.4649194539
 11
153.2737419177
 21
31.5294468267
  0
LINE
  8
0
 62
7
  6
CONTINUOUS
 10
159.1128043074
 20
30.8519093441
 11
159.228429528
 21
30.7228545871
  0
LINE
  8
0
 62
7
  6
CONTINUOUS
 10
159.4596793074
 20
30.7873819712
 11
159.401867028
 21
30.8519093441
  0
LINE
  8
0
 62
7
  6
CONTINUOUS
 10
159.1128043074
 20
31.3681283946
 11
159.228429528
 21
31.2390736489
  0
LINE
  8
0
 62
7
  6
CONTINUOUS
 10
158.5924918074
 20
31.3681283946
 11
158.534679528
 21
31.4649194539
  0
LINE
  8
0
 62
7
  6
CONTINUOUS
 10
160.9628038663
 20
30.7873819712
 11
160.9628038663
 21
30.8519093441
  0
LINE
  8
0
 62
7
  6
CONTINUOUS
 10
160.9671844304
 20
32.3970785186
 11
160.9671844304
 21
36.1675703219
  0
LINE
  8
0
 62
7
  6
CONTINUOUS
 10
154.0253041972
 20
31.4971831403
 11
153.9674919177
 21
31.4326557675
  0
LINE
  8
0
 62
7
  6
CONTINUOUS
 10
150.9034292799
 20
31.4649194539
 11
151.0768668626
 21
31.400392081
  0
LINE
  8
0
 62
7
  6
CONTINUOUS
 10
155.6440543074
 20
31.4649194539
 11
155.5284290869
 21
31.5294468267
  0
LINE
  8
0
 62
7
  6
CONTINUOUS
 10
159.4596793074
 20
31.3036010218
 11
159.401867028
 21
31.3681283946
  0
LINE
  8
0
 62
7
  6
CONTINUOUS
 10
160.615929528
 20
30.9164367395
 11
160.6737418074
 21
30.8519093441
  0
LINE
  8
0
 62
7
  6
CONTINUOUS
 10
160.9628038663
 20
30.8519093441
 11
160.8471793074
 21
30.9809641124
  0
LINE
  8
0
 62
7
  6
CONTINUOUS
 10
160.615929528
 20
31.4326557675
 11
160.6737418074
 21
31.3681283946
  0
LINE
  8
0
 62
7
  6
CONTINUOUS
 10
160.9628038663
 20
31.3681283946
 11
160.8471793074
 21
31.4971831403
  0
LINE
  8
0
 62
7
  6
CONTINUOUS
 10
154.2565543074
 20
31.3681283946
 11
154.3143669177
 21
31.4326557675
  0
LINE
  8
0
 62
7
  6
CONTINUOUS
 10
154.0831168074
 20
31.1100188581
 11
153.9674919177
 21
30.9809641124
  0
LINE
  8
0
 62
7
  6
CONTINUOUS
 10
155.412804528
 20
30.9487004259
 11
155.3549915869
 21
30.8841730531
  0
LINE
  8
0
 62
7
  6
CONTINUOUS
 10
155.3549915869
 20
30.6905909007
 11
155.412804528
 21
30.7551182848
  0
LINE
  8
0
 62
7
  6
CONTINUOUS
 10
154.1987416972
 20
30.6583272086
 11
154.3143669177
 21
30.6260635193
  0
LINE
  8
0
 62
7
  6
CONTINUOUS
 10
151.1924917523
 20
31.5294468267
 11
150.9612418074
 21
31.5939741996
  0
LINE
  8
0
 62
7
  6
CONTINUOUS
 10
154.5456166972
 20
30.7228545871
 11
154.3143669177
 21
30.7873819712
  0
LINE
  8
0
 62
7
  6
CONTINUOUS
 10
153.2737419177
 20
31.5294468267
 11
153.1003044177
 21
31.5939741996
  0
LINE
  8
0
 62
7
  6
CONTINUOUS
 10
155.5284290869
 20
31.5294468267
 11
155.3549915869
 21
31.5939741996
  0
LINE
  8
0
 62
7
  6
CONTINUOUS
 10
158.187804528
 20
31.4326557675
 11
158.3034290869
 21
31.3681283946
  0
LINE
  8
0
 62
7
  6
CONTINUOUS
 10
158.534679528
 20
31.4649194539
 11
158.4190543074
 21
31.5294468267
  0
LINE
  8
0
 62
7
  6
CONTINUOUS
 10
150.0362418212
 20
30.6583272086
 11
150.2096793212
 21
30.6260635193
  0
LINE
  8
0
 62
7
  6
CONTINUOUS
 10
150.498741835
 20
30.7228545871
 11
150.1518667936
 21
30.7873819712
  0
LINE
  8
0
 62
7
  6
CONTINUOUS
 10
152.9268669177
 20
31.4649194539
 11
153.0424918074
 21
31.4326557675
  0
LINE
  8
0
 62
7
  6
CONTINUOUS
 10
155.239367028
 20
31.4649194539
 11
155.3549915869
 21
31.4326557675
  0
LINE
  8
0
 62
7
  6
CONTINUOUS
 10
159.575304528
 20
30.7551182848
 11
159.4596793074
 21
30.7873819712
  0
LINE
  8
0
 62
7
  6
CONTINUOUS
 10
158.0721793074
 20
31.4649194539
 11
158.187804528
 21
31.4326557675
  0
LINE
  8
0
 62
7
  6
CONTINUOUS
 10
159.228429528
 20
30.7228545871
 11
159.401867028
 21
30.6583272086
  0
LINE
  8
0
 62
7
  6
CONTINUOUS
 10
158.4190543074
 20
31.5294468267
 11
158.2456168074
 21
31.5939741996
  0
LINE
  8
0
 62
7
  6
CONTINUOUS
 10
159.6331168074
 20
31.2390736489
 11
159.4596793074
 21
31.3036010218
  0
LINE
  8
0
 62
7
  6
CONTINUOUS
 10
160.442492028
 20
30.9809641124
 11
160.615929528
 21
30.9164367395
  0
LINE
  8
0
 62
7
  6
CONTINUOUS
 10
160.8471793074
 20
31.4971831403
 11
160.6737418074
 21
31.5617105132
  0
LINE
  8
0
 62
7
  6
CONTINUOUS
 10
159.228429528
 20
31.2390736489
 11
159.4596793074
 21
31.1422825445
  0
LINE
  8
0
 62
7
  6
CONTINUOUS
 10
160.8471793074
 20
30.9809641124
 11
160.615929528
 21
31.0777551716
  0
LINE
  8
0
 62
7
  6
CONTINUOUS
 10
159.401867028
 20
31.3681283946
 11
159.4596793074
 21
31.4326557675
  0
LINE
  8
0
 62
7
  6
CONTINUOUS
 10
149.8628043005
 20
31.4971831403
 11
149.7471793074
 21
31.4326557675
  0
LINE
  8
0
 62
7
  6
CONTINUOUS
 10
149.9784292936
 20
31.3358647082
 11
150.1518667936
 21
31.4326557675
  0
LINE
  8
0
 62
7
  6
CONTINUOUS
 10
152.2909293626
 20
31.5294468267
 11
152.1753043074
 21
31.4649194539
  0
LINE
  8
0
 62
7
  6
CONTINUOUS
 10
152.1753043074
 20
31.3358647082
 11
152.2909293626
 21
31.400392081
  0
LINE
  8
0
 62
7
  6
CONTINUOUS
 10
151.1924917523
 20
30.6905909007
 11
151.3659292523
 21
30.7873819712
  0
LINE
  8
0
 62
7
  6
CONTINUOUS
 10
150.2096793212
 20
30.6260635193
 11
150.5565542799
 21
30.5937998301
  0
LINE
  8
0
 62
7
  6
CONTINUOUS
 10
154.3143669177
 20
30.6260635193
 11
154.5456166972
 21
30.5937998301
  0
LINE
  8
0
 62
7
  6
CONTINUOUS
 10
152.6956168074
 20
31.4971831403
 11
152.9268669177
 21
31.4649194539
  0
LINE
  8
0
 62
7
  6
CONTINUOUS
 10
155.0081169177
 20
31.4971831403
 11
155.239367028
 21
31.4649194539
  0
LINE
  8
0
 62
7
  6
CONTINUOUS
 10
159.4596793074
 20
31.1422825445
 11
160.442492028
 21
30.9809641124
  0
LINE
  8
0
 62
7
  6
CONTINUOUS
 10
160.615929528
 20
31.0777551716
 11
159.6331168074
 21
31.2390736489
  0
LINE
  8
0
 62
7
  6
CONTINUOUS
 10
153.1003044177
 20
31.5939741996
 11
152.9268669177
 21
31.626237886
  0
LINE
  8
0
 62
7
  6
CONTINUOUS
 10
159.401867028
 20
30.6583272086
 11
159.575304528
 21
30.6260635193
  0
LINE
  8
0
 62
7
  6
CONTINUOUS
 10
158.2456168074
 20
31.5939741996
 11
158.0721793074
 21
31.626237886
  0
LINE
  8
0
 62
7
  6
CONTINUOUS
 10
160.5003043074
 20
31.4649194539
 11
160.615929528
 21
31.4326557675
  0
LINE
  8
0
 62
7
  6
CONTINUOUS
 10
160.6737418074
 20
30.8519093441
 11
160.615929528
 21
30.7873819712
  0
LINE
  8
0
 62
7
  6
CONTINUOUS
 10
159.228429528
 20
31.5294468267
 11
159.1128043074
 21
31.4326557675
  0
LINE
  8
0
 62
7
  6
CONTINUOUS
 10
154.1409294177
 20
31.5617105132
 11
154.0253041972
 21
31.4971831403
  0
LINE
  8
0
 62
7
  6
CONTINUOUS
 10
154.1987416972
 20
31.1745462761
 11
154.0831168074
 21
31.1100188581
  0
LINE
  8
0
 62
7
  6
CONTINUOUS
 10
154.3143669177
 20
31.0132277988
 11
154.4299918074
 21
31.0777551716
  0
LINE
  8
0
 62
7
  6
CONTINUOUS
 10
151.8862417523
 20
30.5937998301
 11
152.1753043074
 21
30.5937998301
  0
LINE
  8
0
 62
7
  6
CONTINUOUS
 10
153.2159293074
 20
30.5937998301
 11
153.5049916972
 21
30.5937998301
  0
LINE
  8
0
 62
7
  6
CONTINUOUS
 10
154.5456166972
 20
30.5937998301
 11
154.8924916972
 21
30.5937998301
  0
LINE
  8
0
 62
7
  6
CONTINUOUS
 10
155.5284290869
 20
30.5937998301
 11
155.8174918074
 21
30.5937998301
  0
LINE
  8
0
 62
7
  6
CONTINUOUS
 10
156.279992028
 20
30.5937998301
 11
156.5690540869
 21
30.5937998301
  0
LINE
  8
0
 62
7
  6
CONTINUOUS
 10
157.0315543074
 20
30.5937998301
 11
157.320617028
 21
30.5937998301
  0
LINE
  8
0
 62
7
  6
CONTINUOUS
 10
158.361242028
 20
30.5937998301
 11
158.6503040869
 21
30.5937998301
  0
LINE
  8
0
 62
7
  6
CONTINUOUS
 10
159.922179528
 20
30.5937998301
 11
160.269054528
 21
30.5937998301
  0
LINE
  8
0
 62
7
  6
CONTINUOUS
 10
160.269054528
 20
30.7228545871
 11
159.922179528
 21
30.7228545871
  0
LINE
  8
0
 62
7
  6
CONTINUOUS
 10
154.8924916972
 20
30.7228545871
 11
154.5456166972
 21
30.7228545871
  0
LINE
  8
0
 62
7
  6
CONTINUOUS
 10
159.401867028
 20
30.8519093441
 11
159.1128043074
 21
30.8519093441
  0
LINE
  8
0
 62
7
  6
CONTINUOUS
 10
151.4237418626
 20
30.9164367395
 11
151.1346793074
 21
30.9164367395
  0
LINE
  8
0
 62
7
  6
CONTINUOUS
 10
150.498741835
 20
31.4971831403
 11
150.9034292799
 21
31.4649194539
  0
LINE
  8
0
 62
7
  6
CONTINUOUS
 10
150.9612418074
 20
31.5939741996
 11
150.5565542799
 21
31.626237886
  0
LINE
  8
0
 62
7
  6
CONTINUOUS
 10
159.575304528
 20
30.6260635193
 11
159.922179528
 21
30.5937998301
  0
LINE
  8
0
 62
7
  6
CONTINUOUS
 10
159.922179528
 20
30.7228545871
 11
159.575304528
 21
30.7551182848
  0
LINE
  8
0
 62
7
  6
CONTINUOUS
 10
155.3549915869
 20
31.5939741996
 11
155.0081169177
 21
31.626237886
  0
LINE
  8
0
 62
7
  6
CONTINUOUS
 10
160.1534293074
 20
31.4971831403
 11
160.5003043074
 21
31.4649194539
  0
LINE
  8
0
 62
7
  6
CONTINUOUS
 10
160.5003043074
 20
31.5939741996
 11
160.1534293074
 21
31.626237886
  0
LINE
  8
0
 62
7
  6
CONTINUOUS
 10
157.840929528
 20
31.4971831403
 11
158.0721793074
 21
31.4649194539
  0
LINE
  8
0
 62
7
  6
CONTINUOUS
 10
160.6737418074
 20
31.5617105132
 11
160.5003043074
 21
31.5939741996
  0
LINE
  8
0
 62
7
  6
CONTINUOUS
 10
160.8471793074
 20
30.6905909007
 11
160.9628038663
 21
30.7873819712
  0
LINE
  8
0
 62
7
  6
CONTINUOUS
 10
155.3549915869
 20
30.8841730531
 11
155.1815540869
 21
30.7873819712
  0
LINE
  8
0
 62
7
  6
CONTINUOUS
 10
157.4362415869
 20
31.5294468267
 11
157.320617028
 21
31.4649194539
  0
LINE
  8
0
 62
7
  6
CONTINUOUS
 10
157.320617028
 20
31.3358647082
 11
157.4362415869
 21
31.400392081
  0
LINE
  8
0
 62
7
  6
CONTINUOUS
 10
150.0362418212
 20
31.5617105132
 11
149.8628043005
 21
31.4971831403
  0
LINE
  8
0
 62
7
  6
CONTINUOUS
 10
152.4643666972
 20
31.5939741996
 11
152.2909293626
 21
31.5294468267
  0
LINE
  8
0
 62
7
  6
CONTINUOUS
 10
152.2909293626
 20
31.400392081
 11
152.4643666972
 21
31.4649194539
  0
LINE
  8
0
 62
7
  6
CONTINUOUS
 10
151.0768668626
 20
30.8196456577
 11
150.9034292799
 21
30.7551182848
  0
LINE
  8
0
 62
7
  6
CONTINUOUS
 10
160.5003043074
 20
30.7551182848
 11
160.269054528
 21
30.7228545871
  0
LINE
  8
0
 62
7
  6
CONTINUOUS
 10
154.8924916972
 20
30.5937998301
 11
155.1815540869
 21
30.6260635193
  0
LINE
  8
0
 62
7
  6
CONTINUOUS
 10
160.269054528
 20
30.5937998301
 11
160.615929528
 21
30.6260635193
  0
LINE
  8
0
 62
7
  6
CONTINUOUS
 10
150.5565542799
 20
30.5937998301
 11
150.9612418074
 21
30.6260635193
  0
LINE
  8
0
 62
7
  6
CONTINUOUS
 10
150.9034292799
 20
30.7551182848
 11
150.498741835
 21
30.7228545871
  0
LINE
  8
0
 62
7
  6
CONTINUOUS
 10
154.7768668074
 20
31.1422825445
 11
155.412804528
 21
31.1422825445
  0
LINE
  8
0
 62
7
  6
CONTINUOUS
 10
155.412804528
 20
31.2713373354
 11
154.7768668074
 21
31.2713373354
  0
LINE
  8
0
 62
7
  6
CONTINUOUS
 10
151.1346793074
 20
31.3036010218
 11
151.4237418626
 21
31.3036010218
  0
LINE
  8
0
 62
7
  6
CONTINUOUS
 10
153.9674919177
 20
31.3681283946
 11
154.2565543074
 21
31.3681283946
  0
LINE
  8
0
 62
7
  6
CONTINUOUS
 10
160.6737418074
 20
31.3681283946
 11
160.9628038663
 21
31.3681283946
  0
LINE
  8
0
 62
7
  6
CONTINUOUS
 10
154.6612419177
 20
31.4971831403
 11
155.0081169177
 21
31.4971831403
  0
LINE
  8
0
 62
7
  6
CONTINUOUS
 10
159.8065543074
 20
31.4971831403
 11
160.1534293074
 21
31.4971831403
  0
LINE
  8
0
 62
7
  6
CONTINUOUS
 10
160.1534293074
 20
31.626237886
 11
159.8065543074
 21
31.626237886
  0
LINE
  8
0
 62
7
  6
CONTINUOUS
 10
158.0721793074
 20
31.626237886
 11
157.840929528
 21
31.626237886
  0
LINE
  8
0
 62
7
  6
CONTINUOUS
 10
157.320617028
 20
31.626237886
 11
157.0315543074
 21
31.626237886
  0
LINE
  8
0
 62
7
  6
CONTINUOUS
 10
156.5690540869
 20
31.626237886
 11
156.279992028
 21
31.626237886
  0
LINE
  8
0
 62
7
  6
CONTINUOUS
 10
155.0081169177
 20
31.626237886
 11
154.6612419177
 21
31.626237886
  0
LINE
  8
0
 62
7
  6
CONTINUOUS
 10
152.9268669177
 20
31.626237886
 11
152.6956168074
 21
31.626237886
  0
LINE
  8
0
 62
7
  6
CONTINUOUS
 10
156.279992028
 20
31.9488748406
 11
156.5690540869
 21
31.9488748406
  0
LINE
  8
0
 62
7
  6
CONTINUOUS
 10
156.5690540869
 20
32.1101932727
 11
156.279992028
 21
32.1101932727
  0
LINE
  8
0
 62
7
  6
CONTINUOUS
 10
152.1753043074
 20
32.1101932727
 11
151.8862417523
 21
32.1101932727
  0
LINE
  8
0
 62
7
  6
CONTINUOUS
 10
151.2130860697
 20
32.3970785186
 11
151.6256574183
 21
32.3970785186
  0
LINE
  8
0
 62
7
  6
CONTINUOUS
 10
152.852430332
 20
32.3970785186
 11
154.245872955
 21
32.3970785186
  0
LINE
  8
0
 62
7
  6
CONTINUOUS
 10
154.5737418074
 20
32.3970785186
 11
155.9671844304
 21
32.3970785186
  0
LINE
  8
0
 62
7
  6
CONTINUOUS
 10
157.852430332
 20
32.3970785186
 11
159.245872955
 21
32.3970785186
  0
LINE
  8
0
 62
7
  6
CONTINUOUS
 10
159.5737418074
 20
32.3970785186
 11
160.9671844304
 21
32.3970785186
  0
LINE
  8
0
 62
7
  6
CONTINUOUS
 10
157.6096790869
 20
31.5939741996
 11
157.4362415869
 21
31.5294468267
  0
LINE
  8
0
 62
7
  6
CONTINUOUS
 10
155.1815540869
 20
30.6260635193
 11
155.3549915869
 21
30.6905909007
  0
LINE
  8
0
 62
7
  6
CONTINUOUS
 10
160.615929528
 20
30.6260635193
 11
160.8471793074
 21
30.6905909007
  0
LINE
  8
0
 62
7
  6
CONTINUOUS
 10
160.615929528
 20
30.7873819712
 11
160.5003043074
 21
30.7551182848
  0
LINE
  8
0
 62
7
  6
CONTINUOUS
 10
159.575304528
 20
31.4649194539
 11
159.8065543074
 21
31.4971831403
  0
LINE
  8
0
 62
7
  6
CONTINUOUS
 10
157.6096790869
 20
31.4649194539
 11
157.840929528
 21
31.4971831403
  0
LINE
  8
0
 62
7
  6
CONTINUOUS
 10
154.5456166972
 20
31.1100188581
 11
154.7768668074
 21
31.1422825445
  0
LINE
  8
0
 62
7
  6
CONTINUOUS
 10
157.840929528
 20
31.626237886
 11
157.6096790869
 21
31.5939741996
  0
LINE
  8
0
 62
7
  6
CONTINUOUS
 10
154.4299918074
 20
31.4649194539
 11
154.6612419177
 21
31.4971831403
  0
LINE
  8
0
 62
7
  6
CONTINUOUS
 10
159.8065543074
 20
31.626237886
 11
159.4596793074
 21
31.5939741996
  0
LINE
  8
0
 62
7
  6
CONTINUOUS
 10
154.7768668074
 20
31.2713373354
 11
154.4299918074
 21
31.2390736489
  0
LINE
  8
0
 62
7
  6
CONTINUOUS
 10
150.5565542799
 20
31.626237886
 11
150.2096793212
 21
31.5939741996
  0
LINE
  8
0
 62
7
  6
CONTINUOUS
 10
154.6612419177
 20
31.626237886
 11
154.2565543074
 21
31.5939741996
  0
LINE
  8
0
 62
7
  6
CONTINUOUS
 10
152.0327582009
 20
33.5446195022
 11
151.3770204959
 21
33.5446195022
  0
LINE
  8
0
 62
7
  6
CONTINUOUS
 10
157.4362415869
 20
31.400392081
 11
157.6096790869
 21
31.4649194539
  0
LINE
  8
0
 62
7
  6
CONTINUOUS
 10
159.4596793074
 20
31.4326557675
 11
159.575304528
 21
31.4649194539
  0
LINE
  8
0
 62
7
  6
CONTINUOUS
 10
159.4596793074
 20
31.5939741996
 11
159.228429528
 21
31.5294468267
  0
LINE
  8
0
 62
7
  6
CONTINUOUS
 10
155.1815540869
 20
30.7873819712
 11
154.8924916972
 21
30.7228545871
  0
LINE
  8
0
 62
7
  6
CONTINUOUS
 10
152.4643666972
 20
31.4649194539
 11
152.6956168074
 21
31.4971831403
  0
LINE
  8
0
 62
7
  6
CONTINUOUS
 10
152.6956168074
 20
31.626237886
 11
152.4643666972
 21
31.5939741996
  0
LINE
  8
0
 62
7
  6
CONTINUOUS
 10
150.2674918074
 20
31.4649194539
 11
150.498741835
 21
31.4971831403
  0
LINE
  8
0
 62
7
  6
CONTINUOUS
 10
156.7868565615
 20
35.0200293383
 11
157.4425942664
 21
35.0200293383
  0
LINE
  8
0
 62
7
  6
CONTINUOUS
 10
154.4299918074
 20
31.0777551716
 11
154.5456166972
 21
31.1100188581
  0
LINE
  8
0
 62
7
  6
CONTINUOUS
 10
154.4299918074
 20
31.2390736489
 11
154.1987416972
 21
31.1745462761
  0
LINE
  8
0
 62
7
  6
CONTINUOUS
 10
154.3143669177
 20
31.4326557675
 11
154.4299918074
 21
31.4649194539
  0
LINE
  8
0
 62
7
  6
CONTINUOUS
 10
150.9612418074
 20
30.6260635193
 11
151.1924917523
 21
30.6905909007
  0
LINE
  8
0
 62
7
  6
CONTINUOUS
 10
154.2565543074
 20
31.5939741996
 11
154.1409294177
 21
31.5617105132
  0
LINE
  8
0
 62
7
  6
CONTINUOUS
 10
150.2096793212
 20
31.5939741996
 11
150.0362418212
 21
31.5617105132
  0
LINE
  8
0
 62
7
  6
CONTINUOUS
 10
160.9671844304
 20
36.1675703219
 11
159.5737418074
 21
36.1675703219
  0
LINE
  8
0
 62
7
  6
CONTINUOUS
 10
157.6065286927
 20
36.1675703219
 11
157.1939573441
 21
36.1675703219
  0
LINE
  8
0
 62
7
  6
CONTINUOUS
 10
155.9671844304
 20
36.1675703219
 11
154.5737418074
 21
36.1675703219
  0
LINE
  8
0
 62
7
  6
CONTINUOUS
 10
154.245872955
 20
36.1675703219
 11
152.852430332
 21
36.1675703219
  0
LINE
  8
0
 62
7
  6
CONTINUOUS
 10
150.9671844304
 20
36.1675703219
 11
149.5737418074
 21
36.1675703219
  0
LINE
  8
0
 62
7
  6
CONTINUOUS
 10
150.1518667936
 20
31.4326557675
 11
150.2674918074
 21
31.4649194539
  0
CIRCLE
  8
0
 62
7
  6
CONTINUOUS
 10
160.2704631189
 20
38.5036358957
 40
2.0901639344
  0
ARC
  8
0
 62
7
  6
CONTINUOUS
 10
151.2130860697
 20
34.0364227809
 40
1.6393442623
 50
180.0
 51
270.0
  0
ARC
  8
0
 62
7
  6
CONTINUOUS
 10
157.6065286927
 20
34.5282260596
 40
1.6393442623
 50
0.0
 51
90.0
  0
ARC
  8
0
 62
7
  6
CONTINUOUS
 10
151.6256574183
 20
33.8724883547
 40
1.4754098361
 50
270.0
 51
326.2510114041
  0
ARC
  8
0
 62
7
  6
CONTINUOUS
 10
157.1939573441
 20
34.6921604858
 40
1.4754098361
 50
90.0
 51
146.2510114041
  0
ARC
  8
0
 62
7
  6
CONTINUOUS
 10
152.0327582009
 20
34.3642916334
 40
0.8196721311
 50
270.0
 51
360.0
  0
ARC
  8
0
 62
7
  6
CONTINUOUS
 10
156.7868565615
 20
34.2003572071
 40
0.8196721311
 50
90.0
 51
180.0
  0
ARC
  8
0
 62
7
  6
CONTINUOUS
 10
151.3770204959
 20
33.9544555678
 40
0.4098360656
 50
180.0
 51
270.0
  0
ARC
  8
0
 62
7
  6
CONTINUOUS
 10
157.4425942664
 20
34.6101932727
 40
0.4098360656
 50
0.0
 51
90.0
  0
SOLID
  8
0
 62
7
  6
CONTINUOUS
 10
156.279992028
 20
31.9488752009
 11
156.279992028
 21
32.1101936845
 12
156.5690540869
 22
31.9488752009
 13
156.5690540869
 23
32.1101936845
  0
SOLID
  8
0
 62
7
  6
CONTINUOUS
 10
150.5565542799
 20
31.6262382337
 11
150.9612418074
 21
31.5939740028
 12
150.2096793212
 22
31.5939740028
 13
150.2096793212
 23
31.5939740028
  0
SOLID
  8
0
 62
7
  6
CONTINUOUS
 10
150.0362418212
 20
31.5617111435
 11
150.2096793212
 21
31.5939740028
 12
150.9612418074
 22
31.5939740028
 13
150.9612418074
 23
31.5939740028
  0
SOLID
  8
0
 62
7
  6
CONTINUOUS
 10
150.9612418074
 20
31.5939740028
 11
151.1924917523
 21
31.5294468402
 12
150.0362418212
 22
31.5617111435
 13
150.0362418212
 23
31.5617111435
  0
SOLID
  8
0
 62
7
  6
CONTINUOUS
 10
149.8628043005
 20
31.49718259
 11
150.0362418212
 21
31.5617111435
 12
151.1924917523
 22
31.5294468402
 13
151.1924917523
 23
31.5294468402
  0
SOLID
  8
0
 62
7
  6
CONTINUOUS
 10
149.8628043005
 20
31.49718259
 11
151.1924917523
 21
31.5294468402
 12
150.498741835
 22
31.49718259
 13
150.498741835
 23
31.49718259
  0
SOLID
  8
0
 62
7
  6
CONTINUOUS
 10
150.498741835
 20
31.49718259
 11
151.1924917523
 21
31.5294468402
 12
150.9034292799
 22
31.4649197501
 13
150.9034292799
 23
31.4649197501
  0
SOLID
  8
0
 62
7
  6
CONTINUOUS
 10
151.1924917523
 20
31.5294468402
 11
151.3659292523
 21
31.4326554468
 12
150.9034292799
 22
31.4649197501
 13
150.9034292799
 23
31.4649197501
  0
SOLID
  8
0
 62
7
  6
CONTINUOUS
 10
151.0768668626
 20
31.4003926599
 11
150.9034292799
 21
31.4649197501
 12
151.3659292523
 22
31.4326554468
 13
151.3659292523
 23
31.4326554468
  0
SOLID
  8
0
 62
7
  6
CONTINUOUS
 10
151.0768668626
 20
31.4003926599
 11
151.3659292523
 21
31.4326554468
 12
151.1346793074
 22
31.3036013776
 13
151.1346793074
 23
31.3036013776
  0
SOLID
  8
0
 62
7
  6
CONTINUOUS
 10
151.3659292523
 20
31.4326554468
 11
151.4237418626
 21
31.3036013776
 12
151.1346793074
 22
31.3036013776
 13
151.1346793074
 23
31.3036013776
  0
SOLID
  8
0
 62
7
  6
CONTINUOUS
 10
152.4643666972
 20
31.5939739754
 11
152.6956168074
 21
31.6262382787
 12
152.9268669177
 22
31.6262382787
 13
152.9268669177
 23
31.6262382787
  0
SOLID
  8
0
 62
7
  6
CONTINUOUS
 10
152.9268669177
 20
31.6262382787
 11
153.1003044177
 21
31.5939739754
 12
152.4643666972
 22
31.5939739754
 13
152.4643666972
 23
31.5939739754
  0
SOLID
  8
0
 62
7
  6
CONTINUOUS
 10
152.2909293626
 20
31.5294468852
 11
152.4643666972
 21
31.5939739754
 12
153.1003044177
 22
31.5939739754
 13
153.1003044177
 23
31.5939739754
  0
SOLID
  8
0
 62
7
  6
CONTINUOUS
 10
153.1003044177
 20
31.5939739754
 11
153.2737419177
 21
31.5294468852
 12
152.2909293626
 22
31.5294468852
 13
152.2909293626
 23
31.5294468852
  0
SOLID
  8
0
 62
7
  6
CONTINUOUS
 10
153.2737419177
 20
31.5294468852
 11
152.6956168074
 21
31.4971825369
 12
152.2909293626
 22
31.5294468852
 13
152.2909293626
 23
31.5294468852
  0
SOLID
  8
0
 62
7
  6
CONTINUOUS
 10
152.1753043074
 20
31.4649197951
 11
152.2909293626
 21
31.5294468852
 12
152.6956168074
 22
31.4971825369
 13
152.6956168074
 23
31.4971825369
  0
SOLID
  8
0
 62
7
  6
CONTINUOUS
 10
152.6956168074
 20
31.4971825369
 11
152.4643666972
 21
31.4649197951
 12
152.1753043074
 22
31.4649197951
 13
152.1753043074
 23
31.4649197951
  0
SOLID
  8
0
 62
7
  6
CONTINUOUS
 10
152.6956168074
 20
31.4971825369
 11
153.2737419177
 21
31.5294468852
 12
152.9268669177
 22
31.4649197951
 13
152.9268669177
 23
31.4649197951
  0
SOLID
  8
0
 62
7
  6
CONTINUOUS
 10
153.2737419177
 20
31.5294468852
 11
153.3893668074
 21
31.4649197951
 12
152.9268669177
 22
31.4649197951
 13
152.9268669177
 23
31.4649197951
  0
SOLID
  8
0
 62
7
  6
CONTINUOUS
 10
153.0424918074
 20
31.4326554468
 11
152.9268669177
 21
31.4649197951
 12
153.3893668074
 22
31.4649197951
 13
153.3893668074
 23
31.4649197951
  0
SOLID
  8
0
 62
7
  6
CONTINUOUS
 10
153.3893668074
 20
31.4649197951
 11
153.4471794177
 21
31.4003927049
 12
153.0424918074
 22
31.4326554468
 13
153.0424918074
 23
31.4326554468
  0
SOLID
  8
0
 62
7
  6
CONTINUOUS
 10
153.1581166972
 20
31.3681283566
 11
153.0424918074
 21
31.4326554468
 12
153.4471794177
 22
31.4003927049
 13
153.4471794177
 23
31.4003927049
  0
SOLID
  8
0
 62
7
  6
CONTINUOUS
 10
153.1581166972
 20
31.3681283566
 11
153.4471794177
 21
31.4003927049
 12
153.2159293074
 22
31.2390742213
 13
153.2159293074
 23
31.2390742213
  0
SOLID
  8
0
 62
7
  6
CONTINUOUS
 10
153.4471794177
 20
31.4003927049
 11
153.5049916972
 21
31.2390742213
 12
153.2159293074
 22
31.2390742213
 13
153.2159293074
 23
31.2390742213
  0
SOLID
  8
0
 62
7
  6
CONTINUOUS
 10
152.4643666972
 20
31.4649197951
 11
152.2909293626
 21
31.4003927049
 12
152.1753043074
 22
31.4649197951
 13
152.1753043074
 23
31.4649197951
  0
SOLID
  8
0
 62
7
  6
CONTINUOUS
 10
152.2909293626
 20
31.4003927049
 11
152.1753043074
 21
31.3358640533
 12
152.1753043074
 22
31.4649197951
 13
152.1753043074
 23
31.4649197951
  0
SOLID
  8
0
 62
7
  6
CONTINUOUS
 10
152.1753043074
 20
31.3358640533
 11
151.8862417523
 21
30.5938002869
 12
152.1753043074
 22
31.4649197951
 13
152.1753043074
 23
31.4649197951
  0
SOLID
  8
0
 62
7
  6
CONTINUOUS
 10
152.1753043074
 20
31.4649197951
 11
151.8862417523
 21
30.5938002869
 12
152.1753043074
 22
32.1101937295
 13
152.1753043074
 23
32.1101937295
  0
SOLID
  8
0
 62
7
  6
CONTINUOUS
 10
151.8862417523
 20
30.5938002869
 11
151.8862417523
 21
32.1101937295
 12
152.1753043074
 22
32.1101937295
 13
152.1753043074
 23
32.1101937295
  0
SOLID
  8
0
 62
7
  6
CONTINUOUS
 10
152.1753043074
 20
31.3358640533
 11
152.1753043074
 21
30.5938002869
 12
151.8862417523
 22
30.5938002869
 13
151.8862417523
 23
30.5938002869
  0
SOLID
  8
0
 62
7
  6
CONTINUOUS
 10
153.2159293074
 20
30.5938002869
 11
153.2159293074
 21
31.2390742213
 12
153.5049916972
 22
31.2390742213
 13
153.5049916972
 23
31.2390742213
  0
SOLID
  8
0
 62
7
  6
CONTINUOUS
 10
153.5049916972
 20
31.2390742213
 11
153.5049916972
 21
30.5938002869
 12
153.2159293074
 22
30.5938002869
 13
153.2159293074
 23
30.5938002869
  0
SOLID
  8
0
 62
7
  6
CONTINUOUS
 10
154.2565543074
 20
31.5939738288
 11
154.6612419177
 21
31.6262385959
 12
155.0081169177
 22
31.6262385959
 13
155.0081169177
 23
31.6262385959
  0
SOLID
  8
0
 62
7
  6
CONTINUOUS
 10
155.0081169177
 20
31.6262385959
 11
155.3549915869
 21
31.5939738288
 12
154.2565543074
 22
31.5939738288
 13
154.2565543074
 23
31.5939738288
  0
SOLID
  8
0
 62
7
  6
CONTINUOUS
 10
154.1409294177
 20
31.5617111435
 11
154.2565543074
 21
31.5939738288
 12
155.3549915869
 22
31.5939738288
 13
155.3549915869
 23
31.5939738288
  0
SOLID
  8
0
 62
7
  6
CONTINUOUS
 10
155.3549915869
 20
31.5939738288
 11
155.5284290869
 21
31.5294468402
 12
154.1409294177
 22
31.5617111435
 13
154.1409294177
 23
31.5617111435
  0
SOLID
  8
0
 62
7
  6
CONTINUOUS
 10
154.0253041972
 20
31.4971826249
 11
154.1409294177
 21
31.5617111435
 12
155.5284290869
 22
31.5294468402
 13
155.5284290869
 23
31.5294468402
  0
SOLID
  8
0
 62
7
  6
CONTINUOUS
 10
154.0253041972
 20
31.4971826249
 11
155.5284290869
 21
31.5294468402
 12
154.6612419177
 22
31.4971826249
 13
154.6612419177
 23
31.4971826249
  0
SOLID
  8
0
 62
7
  6
CONTINUOUS
 10
154.6612419177
 20
31.4971826249
 11
155.5284290869
 21
31.5294468402
 12
155.0081169177
 22
31.4971826249
 13
155.0081169177
 23
31.4971826249
  0
SOLID
  8
0
 62
7
  6
CONTINUOUS
 10
155.0081169177
 20
31.4971826249
 11
155.5284290869
 21
31.5294468402
 12
155.239367028
 22
31.4649194065
 13
155.239367028
 23
31.4649194065
  0
SOLID
  8
0
 62
7
  6
CONTINUOUS
 10
155.5284290869
 20
31.5294468402
 11
155.6440543074
 21
31.4649194065
 12
155.239367028
 22
31.4649194065
 13
155.239367028
 23
31.4649194065
  0
SOLID
  8
0
 62
7
  6
CONTINUOUS
 10
153.9674919177
 20
31.4326554138
 11
154.0253041972
 21
31.4971826249
 12
154.6612419177
 22
31.4971826249
 13
154.6612419177
 23
31.4971826249
  0
SOLID
  8
0
 62
7
  6
CONTINUOUS
 10
155.3549915869
 20
31.4326554138
 11
155.239367028
 21
31.4649194065
 12
155.6440543074
 22
31.4649194065
 13
155.6440543074
 23
31.4649194065
  0
SOLID
  8
0
 62
7
  6
CONTINUOUS
 10
155.3549915869
 20
31.4326554138
 11
155.6440543074
 21
31.4649194065
 12
155.412804528
 22
31.3681282026
 13
155.412804528
 23
31.3681282026
  0
SOLID
  8
0
 62
7
  6
CONTINUOUS
 10
155.6440543074
 20
31.4649194065
 11
155.7018665869
 21
31.3681282026
 12
155.412804528
 22
31.3681282026
 13
155.412804528
 23
31.3681282026
  0
SOLID
  8
0
 62
7
  6
CONTINUOUS
 10
155.412804528
 20
31.2713369632
 11
155.412804528
 21
31.3681282026
 12
155.7018665869
 22
31.3681282026
 13
155.7018665869
 23
31.3681282026
  0
SOLID
  8
0
 62
7
  6
CONTINUOUS
 10
155.412804528
 20
31.2713369632
 11
155.7018665869
 21
31.3681282026
 12
155.412804528
 22
31.1422827828
 13
155.412804528
 23
31.1422827828
  0
SOLID
  8
0
 62
7
  6
CONTINUOUS
 10
155.412804528
 20
31.1422827828
 11
155.7018665869
 21
31.3681282026
 12
155.412804528
 22
30.9487004259
 13
155.412804528
 23
30.9487004259
  0
SOLID
  8
0
 62
7
  6
CONTINUOUS
 10
155.7018665869
 20
31.3681282026
 11
155.7018665869
 21
30.8519086025
 12
155.412804528
 22
30.9487004259
 13
155.412804528
 23
30.9487004259
  0
SOLID
  8
0
 62
7
  6
CONTINUOUS
 10
157.6096790869
 20
31.5939736268
 11
157.840929528
 21
31.6262383465
 12
158.0721793074
 22
31.6262383465
 13
158.0721793074
 23
31.6262383465
  0
SOLID
  8
0
 62
7
  6
CONTINUOUS
 10
158.0721793074
 20
31.6262383465
 11
158.2456168074
 21
31.5939736268
 12
157.6096790869
 22
31.5939736268
 13
157.6096790869
 23
31.5939736268
  0
SOLID
  8
0
 62
7
  6
CONTINUOUS
 10
157.4362415869
 20
31.5294472848
 11
157.6096790869
 21
31.5939736268
 12
158.2456168074
 22
31.5939736268
 13
158.2456168074
 23
31.5939736268
  0
SOLID
  8
0
 62
7
  6
CONTINUOUS
 10
158.2456168074
 20
31.5939736268
 11
158.4190543074
 21
31.5294472848
 12
157.4362415869
 22
31.5294472848
 13
157.4362415869
 23
31.5294472848
  0
SOLID
  8
0
 62
7
  6
CONTINUOUS
 10
158.4190543074
 20
31.5294472848
 11
157.840929528
 21
31.4971825369
 12
157.4362415869
 22
31.5294472848
 13
157.4362415869
 23
31.5294472848
  0
SOLID
  8
0
 62
7
  6
CONTINUOUS
 10
157.320617028
 20
31.4649199103
 11
157.4362415869
 21
31.5294472848
 12
157.840929528
 22
31.4971825369
 13
157.840929528
 23
31.4971825369
  0
SOLID
  8
0
 62
7
  6
CONTINUOUS
 10
157.840929528
 20
31.4971825369
 11
157.6096790869
 21
31.4649199103
 12
157.320617028
 22
31.4649199103
 13
157.320617028
 23
31.4649199103
  0
SOLID
  8
0
 62
7
  6
CONTINUOUS
 10
157.840929528
 20
31.4971825369
 11
158.4190543074
 21
31.5294472848
 12
158.0721793074
 22
31.4649199103
 13
158.0721793074
 23
31.4649199103
  0
SOLID
  8
0
 62
7
  6
CONTINUOUS
 10
158.4190543074
 20
31.5294472848
 11
158.534679528
 21
31.4649199103
 12
158.0721793074
 22
31.4649199103
 13
158.0721793074
 23
31.4649199103
  0
SOLID
  8
0
 62
7
  6
CONTINUOUS
 10
158.187804528
 20
31.4326554468
 11
158.0721793074
 21
31.4649199103
 12
158.534679528
 22
31.4649199103
 13
158.534679528
 23
31.4649199103
  0
SOLID
  8
0
 62
7
  6
CONTINUOUS
 10
158.187804528
 20
31.4326554468
 11
158.534679528
 21
31.4649199103
 12
158.3034290869
 22
31.3681288486
 13
158.3034290869
 23
31.3681288486
  0
SOLID
  8
0
 62
7
  6
CONTINUOUS
 10
158.534679528
 20
31.4649199103
 11
158.5924918074
 21
31.3681288486
 12
158.3034290869
 22
31.3681288486
 13
158.3034290869
 23
31.3681288486
  0
SOLID
  8
0
 62
7
  6
CONTINUOUS
 10
158.361242028
 20
31.2068093799
 11
158.3034290869
 21
31.3681288486
 12
158.5924918074
 22
31.3681288486
 13
158.5924918074
 23
31.3681288486
  0
SOLID
  8
0
 62
7
  6
CONTINUOUS
 10
158.5924918074
 20
31.3681288486
 11
158.6503040869
 21
31.2068093799
 12
158.361242028
 22
31.2068093799
 13
158.361242028
 23
31.2068093799
  0
SOLID
  8
0
 62
7
  6
CONTINUOUS
 10
157.6096790869
 20
31.4649199103
 11
157.4362415869
 21
31.4003926599
 12
157.320617028
 22
31.4649199103
 13
157.320617028
 23
31.4649199103
  0
SOLID
  8
0
 62
7
  6
CONTINUOUS
 10
157.4362415869
 20
31.4003926599
 11
157.320617028
 21
31.3358640533
 12
157.320617028
 22
31.4649199103
 13
157.320617028
 23
31.4649199103
  0
SOLID
  8
0
 62
7
  6
CONTINUOUS
 10
157.320617028
 20
31.3358640533
 11
157.0315543074
 21
30.5938003547
 12
157.320617028
 22
31.4649199103
 13
157.320617028
 23
31.4649199103
  0
SOLID
  8
0
 62
7
  6
CONTINUOUS
 10
157.320617028
 20
31.4649199103
 11
157.0315543074
 21
30.5938003547
 12
157.320617028
 22
31.6262383465
 13
157.320617028
 23
31.6262383465
  0
SOLID
  8
0
 62
7
  6
CONTINUOUS
 10
157.0315543074
 20
30.5938003547
 11
157.0315543074
 21
31.6262383465
 12
157.320617028
 22
31.6262383465
 13
157.320617028
 23
31.6262383465
  0
SOLID
  8
0
 62
7
  6
CONTINUOUS
 10
157.320617028
 20
31.3358640533
 11
157.320617028
 21
30.5938003547
 12
157.0315543074
 22
30.5938003547
 13
157.0315543074
 23
30.5938003547
  0
SOLID
  8
0
 62
7
  6
CONTINUOUS
 10
158.361242028
 20
30.5938003547
 11
158.361242028
 21
31.2068093799
 12
158.6503040869
 22
31.2068093799
 13
158.6503040869
 23
31.2068093799
  0
SOLID
  8
0
 62
7
  6
CONTINUOUS
 10
158.6503040869
 20
31.2068093799
 11
158.6503040869
 21
30.5938003547
 12
158.361242028
 22
30.5938003547
 13
158.361242028
 23
30.5938003547
  0
SOLID
  8
0
 62
7
  6
CONTINUOUS
 10
159.4596793074
 20
31.5939739474
 11
159.8065543074
 21
31.6262381969
 12
160.1534293074
 22
31.6262381969
 13
160.1534293074
 23
31.6262381969
  0
SOLID
  8
0
 62
7
  6
CONTINUOUS
 10
160.1534293074
 20
31.6262381969
 11
160.5003043074
 21
31.5939739474
 12
159.4596793074
 22
31.5939739474
 13
159.4596793074
 23
31.5939739474
  0
SOLID
  8
0
 62
7
  6
CONTINUOUS
 10
159.228429528
 20
31.5294468402
 11
159.4596793074
 21
31.5939739474
 12
160.5003043074
 22
31.5939739474
 13
160.5003043074
 23
31.5939739474
  0
SOLID
  8
0
 62
7
  6
CONTINUOUS
 10
159.228429528
 20
31.5294468402
 11
160.5003043074
 21
31.5939739304
 12
160.6737418074
 22
31.5617111435
 13
160.6737418074
 23
31.5617111435
  0
SOLID
  8
0
 62
7
  6
CONTINUOUS
 10
159.228429528
 20
31.5294468402
 11
160.6737418074
 21
31.5617111435
 12
159.8065543074
 22
31.4971825592
 13
159.8065543074
 23
31.4971825592
  0
SOLID
  8
0
 62
7
  6
CONTINUOUS
 10
159.8065543074
 20
31.4971825592
 11
160.6737418074
 21
31.5617111435
 12
160.1534293074
 22
31.4971825592
 13
160.1534293074
 23
31.4971825592
  0
SOLID
  8
0
 62
7
  6
CONTINUOUS
 10
160.6737418074
 20
31.5617111435
 11
160.8471793074
 21
31.4971825592
 12
160.1534293074
 22
31.4971825592
 13
160.1534293074
 23
31.4971825592
  0
SOLID
  8
0
 62
7
  6
CONTINUOUS
 10
160.5003043074
 20
31.4649197501
 11
160.1534293074
 21
31.4971825592
 12
160.8471793074
 22
31.4971825592
 13
160.8471793074
 23
31.4971825592
  0
SOLID
  8
0
 62
7
  6
CONTINUOUS
 10
159.1128043074
 20
31.4326555427
 11
159.228429528
 21
31.5294468402
 12
159.8065543074
 22
31.4971825592
 13
159.8065543074
 23
31.4971825592
  0
SOLID
  8
0
 62
7
  6
CONTINUOUS
 10
160.5003043074
 20
31.4649197501
 11
160.8471793074
 21
31.4971825592
 12
160.615929528
 22
31.4326555427
 13
160.615929528
 23
31.4326555427
  0
SOLID
  8
0
 62
7
  6
CONTINUOUS
 10
160.615929528
 20
31.4326555427
 11
160.8471793074
 21
31.4971825592
 12
160.6737418074
 22
31.3681283005
 13
160.6737418074
 23
31.3681283005
  0
SOLID
  8
0
 62
7
  6
CONTINUOUS
 10
160.8471793074
 20
31.4971825592
 11
160.9628038663
 21
31.3681283005
 12
160.6737418074
 22
31.3681283005
 13
160.6737418074
 23
31.3681283005
  0
SOLID
  8
0
 62
7
  6
CONTINUOUS
 10
150.2674918074
 20
31.4649197501
 11
149.7471793074
 21
31.4326554237
 12
150.498741835
 22
31.4971824493
 13
150.498741835
 23
31.4971824493
  0
SOLID
  8
0
 62
7
  6
CONTINUOUS
 10
149.7471793074
 20
31.4326554237
 11
149.8628043005
 21
31.4971824493
 12
150.498741835
 22
31.4971824493
 13
150.498741835
 23
31.4971824493
  0
SOLID
  8
0
 62
7
  6
CONTINUOUS
 10
150.2674918074
 20
31.4649197501
 11
150.1518667936
 21
31.4326554237
 12
149.7471793074
 22
31.4326554237
 13
149.7471793074
 23
31.4326554237
  0
SOLID
  8
0
 62
7
  6
CONTINUOUS
 10
149.6315543091
 20
31.3036012664
 11
149.7471793074
 21
31.4326554237
 12
150.1518667936
 22
31.4326554237
 13
150.1518667936
 23
31.4326554237
  0
SOLID
  8
0
 62
7
  6
CONTINUOUS
 10
153.9674919177
 20
31.4326554237
 11
154.6612419177
 21
31.4971825369
 12
154.4299918074
 22
31.4649197501
 13
154.4299918074
 23
31.4649197501
  0
SOLID
  8
0
 62
7
  6
CONTINUOUS
 10
154.4299918074
 20
31.4649197501
 11
154.3143669177
 21
31.4326554237
 12
153.9674919177
 22
31.4326554237
 13
153.9674919177
 23
31.4326554237
  0
SOLID
  8
0
 62
7
  6
CONTINUOUS
 10
153.9674919177
 20
31.3681283335
 11
153.9674919177
 21
31.4326554237
 12
154.3143669177
 22
31.4326554237
 13
154.3143669177
 23
31.4326554237
  0
SOLID
  8
0
 62
7
  6
CONTINUOUS
 10
154.3143669177
 20
31.4326554237
 11
154.2565543074
 21
31.3681283335
 12
153.9674919177
 22
31.3681283335
 13
153.9674919177
 23
31.3681283335
  0
SOLID
  8
0
 62
7
  6
CONTINUOUS
 10
159.1128043074
 20
31.4326555528
 11
159.8065543074
 21
31.4971825369
 12
159.575304528
 22
31.4649197501
 13
159.575304528
 23
31.4649197501
  0
SOLID
  8
0
 62
7
  6
CONTINUOUS
 10
159.575304528
 20
31.4649197501
 11
159.4596793074
 21
31.4326555528
 12
159.1128043074
 22
31.4326555528
 13
159.1128043074
 23
31.4326555528
  0
SOLID
  8
0
 62
7
  6
CONTINUOUS
 10
159.1128043074
 20
31.3681284626
 11
159.1128043074
 21
31.4326555528
 12
159.4596793074
 22
31.4326555528
 13
159.4596793074
 23
31.4326555528
  0
SOLID
  8
0
 62
7
  6
CONTINUOUS
 10
159.4596793074
 20
31.4326555528
 11
159.401867028
 21
31.3681284626
 12
159.1128043074
 22
31.3681284626
 13
159.1128043074
 23
31.3681284626
  0
SOLID
  8
0
 62
7
  6
CONTINUOUS
 10
159.228429528
 20
31.2390741763
 11
159.1128043074
 21
31.3681284626
 12
159.401867028
 22
31.3681284626
 13
159.401867028
 23
31.3681284626
  0
SOLID
  8
0
 62
7
  6
CONTINUOUS
 10
149.6315543091
 20
31.3036012664
 11
150.1518667936
 21
31.4326554468
 12
149.9784292936
 22
31.3358640533
 13
149.9784292936
 23
31.3358640533
  0
SOLID
  8
0
 62
7
  6
CONTINUOUS
 10
149.9784292936
 20
31.3358640533
 11
149.9206168074
 21
31.2713369632
 12
149.6315543091
 22
31.3036012664
 13
149.6315543091
 23
31.3036012664
  0
SOLID
  8
0
 62
7
  6
CONTINUOUS
 10
149.5737418074
 20
31.1100184796
 11
149.6315543091
 21
31.3036012664
 12
149.9206168074
 22
31.2713369632
 13
149.9206168074
 23
31.2713369632
  0
SOLID
  8
0
 62
7
  6
CONTINUOUS
 10
154.4299918074
 20
31.2390741763
 11
154.7768668074
 21
31.271336924
 12
155.412804528
 22
31.271336924
 13
155.412804528
 23
31.271336924
  0
SOLID
  8
0
 62
7
  6
CONTINUOUS
 10
154.4299918074
 20
31.2390741763
 11
155.412804528
 21
31.271336924
 12
154.1987416972
 22
31.1745462761
 13
154.1987416972
 23
31.1745462761
  0
SOLID
  8
0
 62
7
  6
CONTINUOUS
 10
154.1987416972
 20
31.1745462761
 11
155.412804528
 21
31.271336924
 12
154.7768668074
 22
31.1422827436
 13
154.7768668074
 23
31.1422827436
  0
SOLID
  8
0
 62
7
  6
CONTINUOUS
 10
155.412804528
 20
31.271336924
 11
155.412804528
 21
31.1422827436
 12
154.7768668074
 22
31.1422827436
 13
154.7768668074
 23
31.1422827436
  0
SOLID
  8
0
 62
7
  6
CONTINUOUS
 10
159.228429528
 20
31.2390745501
 11
159.401867028
 21
31.3681283566
 12
159.4596793074
 22
31.3036012664
 13
159.4596793074
 23
31.3036012664
  0
SOLID
  8
0
 62
7
  6
CONTINUOUS
 10
159.4596793074
 20
31.3036012664
 11
159.6331168074
 21
31.2390745501
 12
159.228429528
 22
31.2390745501
 13
159.228429528
 23
31.2390745501
  0
SOLID
  8
0
 62
7
  6
CONTINUOUS
 10
159.4596793074
 20
31.1422827828
 11
159.228429528
 21
31.2390745501
 12
159.6331168074
 22
31.2390745501
 13
159.6331168074
 23
31.2390745501
  0
SOLID
  8
0
 62
7
  6
CONTINUOUS
 10
159.6331168074
 20
31.2390745501
 11
160.615929528
 21
31.0777556927
 12
159.4596793074
 22
31.1422827828
 13
159.4596793074
 23
31.1422827828
  0
SOLID
  8
0
 62
7
  6
CONTINUOUS
 10
160.442492028
 20
30.9809646623
 11
159.4596793074
 21
31.1422827828
 12
160.615929528
 22
31.0777556927
 13
160.615929528
 23
31.0777556927
  0
SOLID
  8
0
 62
7
  6
CONTINUOUS
 10
160.615929528
 20
31.0777556927
 11
160.8471793074
 21
30.9809646623
 12
160.442492028
 22
30.9809646623
 13
160.442492028
 23
30.9809646623
  0
SOLID
  8
0
 62
7
  6
CONTINUOUS
 10
160.615929528
 20
30.9164372091
 11
160.442492028
 21
30.9809646623
 12
160.8471793074
 22
30.9809646623
 13
160.8471793074
 23
30.9809646623
  0
SOLID
  8
0
 62
7
  6
CONTINUOUS
 10
160.615929528
 20
30.9164372091
 11
160.8471793074
 21
30.9809646623
 12
160.6737418074
 22
30.8519089441
 13
160.6737418074
 23
30.8519089441
  0
SOLID
  8
0
 62
7
  6
CONTINUOUS
 10
160.8471793074
 20
30.9809646623
 11
160.9628038663
 21
30.8519089441
 12
160.6737418074
 22
30.8519089441
 13
160.6737418074
 23
30.8519089441
  0
SOLID
  8
0
 62
7
  6
CONTINUOUS
 10
160.615929528
 20
30.7873818593
 11
160.6737418074
 21
30.8519089441
 12
160.9628038663
 22
30.8519089441
 13
160.9628038663
 23
30.8519089441
  0
SOLID
  8
0
 62
7
  6
CONTINUOUS
 10
160.9628038663
 20
30.8519089441
 11
160.9628038663
 21
30.7873818593
 12
160.615929528
 22
30.7873818593
 13
160.615929528
 23
30.7873818593
  0
SOLID
  8
0
 62
7
  6
CONTINUOUS
 10
160.5003043074
 20
30.7551187255
 11
160.615929528
 21
30.7873818593
 12
160.9628038663
 22
30.7873818593
 13
160.9628038663
 23
30.7873818593
  0
SOLID
  8
0
 62
7
  6
CONTINUOUS
 10
160.5003043074
 20
30.7551187255
 11
160.9628038663
 21
30.7873818593
 12
160.269054528
 22
30.7228547745
 13
160.269054528
 23
30.7228547745
  0
SOLID
  8
0
 62
7
  6
CONTINUOUS
 10
160.9628038663
 20
30.7873818593
 11
160.8471793074
 21
30.6905916353
 12
160.269054528
 22
30.7228547745
 13
160.269054528
 23
30.7228547745
  0
SOLID
  8
0
 62
7
  6
CONTINUOUS
 10
160.8471793074
 20
30.6905916353
 11
159.401867028
 21
30.658327332
 12
160.269054528
 22
30.7228547745
 13
160.269054528
 23
30.7228547745
  0
SOLID
  8
0
 62
7
  6
CONTINUOUS
 10
160.269054528
 20
30.7228547745
 11
159.401867028
 21
30.658327332
 12
159.922179528
 22
30.7228547745
 13
159.922179528
 23
30.7228547745
  0
SOLID
  8
0
 62
7
  6
CONTINUOUS
 10
159.401867028
 20
30.658327332
 11
159.228429528
 21
30.7228547745
 12
159.922179528
 22
30.7228547745
 13
159.922179528
 23
30.7228547745
  0
SOLID
  8
0
 62
7
  6
CONTINUOUS
 10
159.401867028
 20
30.658327332
 11
160.8471793074
 21
30.6905916353
 12
159.575304528
 22
30.6260629858
 13
159.575304528
 23
30.6260629858
  0
SOLID
  8
0
 62
7
  6
CONTINUOUS
 10
160.8471793074
 20
30.6905916353
 11
160.615929528
 21
30.6260629858
 12
159.575304528
 22
30.6260629858
 13
159.575304528
 23
30.6260629858
  0
SOLID
  8
0
 62
7
  6
CONTINUOUS
 10
159.922179528
 20
30.5938006049
 11
159.575304528
 21
30.6260629858
 12
160.615929528
 22
30.6260629858
 13
160.615929528
 23
30.6260629858
  0
SOLID
  8
0
 62
7
  6
CONTINUOUS
 10
160.615929528
 20
30.6260629858
 11
160.269054528
 21
30.5938006049
 12
159.922179528
 22
30.5938006049
 13
159.922179528
 23
30.5938006049
  0
SOLID
  8
0
 62
7
  6
CONTINUOUS
 10
149.5737418074
 20
31.1100184796
 11
149.9206168074
 21
31.2713369632
 12
149.8628043005
 22
31.1422827828
 13
149.8628043005
 23
31.1422827828
  0
SOLID
  8
0
 62
7
  6
CONTINUOUS
 10
149.8628043005
 20
31.1422827828
 11
149.8628043005
 21
31.0454914852
 12
149.5737418074
 22
31.1100184796
 13
149.5737418074
 23
31.1100184796
  0
SOLID
  8
0
 62
7
  6
CONTINUOUS
 10
149.6315543091
 20
30.9164372091
 11
149.5737418074
 21
31.1100184796
 12
149.8628043005
 22
31.0454914852
 13
149.8628043005
 23
31.0454914852
  0
SOLID
  8
0
 62
7
  6
CONTINUOUS
 10
149.8628043005
 20
31.0454914852
 11
149.9784292936
 21
30.8841729058
 12
149.6315543091
 22
30.9164372091
 13
149.6315543091
 23
30.9164372091
  0
SOLID
  8
0
 62
7
  6
CONTINUOUS
 10
149.7471793074
 20
30.7873813202
 11
149.6315543091
 21
30.9164372091
 12
149.9784292936
 22
30.8841729058
 13
149.9784292936
 23
30.8841729058
  0
SOLID
  8
0
 62
7
  6
CONTINUOUS
 10
149.9784292936
 20
30.8841729058
 11
150.1518667936
 21
30.7873813202
 12
149.7471793074
 22
30.7873813202
 13
149.7471793074
 23
30.7873813202
  0
SOLID
  8
0
 62
7
  6
CONTINUOUS
 10
149.8628043005
 20
30.7228547004
 11
149.7471793074
 21
30.7873813202
 12
150.1518667936
 22
30.7873813202
 13
150.1518667936
 23
30.7873813202
  0
SOLID
  8
0
 62
7
  6
CONTINUOUS
 10
150.1518667936
 20
30.7873813202
 11
150.498741835
 21
30.7228547004
 12
149.8628043005
 22
30.7228547004
 13
149.8628043005
 23
30.7228547004
  0
SOLID
  8
0
 62
7
  6
CONTINUOUS
 10
150.0362418212
 20
30.658327332
 11
149.8628043005
 21
30.7228547004
 12
150.498741835
 22
30.7228547004
 13
150.498741835
 23
30.7228547004
  0
SOLID
  8
0
 62
7
  6
CONTINUOUS
 10
154.0831168074
 20
31.1100184386
 11
154.1987416972
 21
31.1745462761
 12
154.7768668074
 22
31.1422827828
 13
154.7768668074
 23
31.1422827828
  0
SOLID
  8
0
 62
7
  6
CONTINUOUS
 10
154.7768668074
 20
31.1422827828
 11
154.5456166972
 21
31.1100184386
 12
154.0831168074
 22
31.1100184386
 13
154.0831168074
 23
31.1100184386
  0
SOLID
  8
0
 62
7
  6
CONTINUOUS
 10
153.9674919177
 20
30.9809642992
 11
154.0831168074
 21
31.1100184386
 12
154.5456166972
 22
31.1100184386
 13
154.5456166972
 23
31.1100184386
  0
SOLID
  8
0
 62
7
  6
CONTINUOUS
 10
154.3143669177
 20
31.0132277988
 11
153.9674919177
 21
30.9809642992
 12
154.4299918074
 22
31.0777556927
 13
154.4299918074
 23
31.0777556927
  0
SOLID
  8
0
 62
7
  6
CONTINUOUS
 10
153.9674919177
 20
30.9809642992
 11
154.5456166972
 21
31.1100184796
 12
154.4299918074
 22
31.0777556927
 13
154.4299918074
 23
31.0777556927
  0
SOLID
  8
0
 62
7
  6
CONTINUOUS
 10
154.3143669177
 20
31.0132277988
 11
154.2565543074
 21
30.9164372091
 12
153.9674919177
 22
30.9809642992
 13
153.9674919177
 23
30.9809642992
  0
SOLID
  8
0
 62
7
  6
CONTINUOUS
 10
153.9674919177
 20
30.8841729058
 11
153.9674919177
 21
30.9809642992
 12
154.2565543074
 22
30.9164372091
 13
154.2565543074
 23
30.9164372091
  0
SOLID
  8
0
 62
7
  6
CONTINUOUS
 10
154.2565543074
 20
30.9164372091
 11
154.2565543074
 21
30.8519086025
 12
153.9674919177
 22
30.8841729058
 13
153.9674919177
 23
30.8841729058
  0
SOLID
  8
0
 62
7
  6
CONTINUOUS
 10
154.0253041972
 20
30.7551187255
 11
153.9674919177
 21
30.8841729058
 12
154.2565543074
 22
30.8519086025
 13
154.2565543074
 23
30.8519086025
  0
SOLID
  8
0
 62
7
  6
CONTINUOUS
 10
155.412804528
 20
30.9487004259
 11
155.7018665869
 21
30.8519086025
 12
155.3549915869
 22
30.8841729058
 13
155.3549915869
 23
30.8841729058
  0
SOLID
  8
0
 62
7
  6
CONTINUOUS
 10
155.1815540869
 20
30.7873815123
 11
155.3549915869
 21
30.8841729058
 12
155.7018665869
 22
30.8519086025
 13
155.7018665869
 23
30.8519086025
  0
SOLID
  8
0
 62
7
  6
CONTINUOUS
 10
155.1815540869
 20
30.7873815123
 11
155.7018665869
 21
30.8519086025
 12
155.412804528
 22
30.7551187255
 13
155.412804528
 23
30.7551187255
  0
SOLID
  8
0
 62
7
  6
CONTINUOUS
 10
155.7018665869
 20
30.8519086025
 11
155.759679528
 21
30.6905916353
 12
155.412804528
 22
30.7551187255
 13
155.412804528
 23
30.7551187255
  0
SOLID
  8
0
 62
7
  6
CONTINUOUS
 10
155.4706168074
 20
30.658327332
 11
155.412804528
 21
30.7551187255
 12
155.759679528
 22
30.6905916353
 13
155.759679528
 23
30.6905916353
  0
SOLID
  8
0
 62
7
  6
CONTINUOUS
 10
155.4706168074
 20
30.658327332
 11
155.759679528
 21
30.6905916353
 12
155.5284290869
 22
30.5938002079
 13
155.5284290869
 23
30.5938002079
  0
SOLID
  8
0
 62
7
  6
CONTINUOUS
 10
155.759679528
 20
30.6905916353
 11
155.8174918074
 21
30.5938002079
 12
155.5284290869
 22
30.5938002079
 13
155.5284290869
 23
30.5938002079
  0
SOLID
  8
0
 62
7
  6
CONTINUOUS
 10
151.0768668626
 20
30.8196456577
 11
151.1346793074
 21
30.9164373395
 12
151.4237418626
 22
30.9164373395
 13
151.4237418626
 23
30.9164373395
  0
SOLID
  8
0
 62
7
  6
CONTINUOUS
 10
151.4237418626
 20
30.9164373395
 11
151.3659292523
 21
30.7873815123
 12
151.0768668626
 22
30.8196456577
 13
151.0768668626
 23
30.8196456577
  0
SOLID
  8
0
 62
7
  6
CONTINUOUS
 10
150.9034292799
 20
30.7551187255
 11
151.0768668626
 21
30.8196456577
 12
151.3659292523
 22
30.7873815123
 13
151.3659292523
 23
30.7873815123
  0
SOLID
  8
0
 62
7
  6
CONTINUOUS
 10
150.9034292799
 20
30.7551187255
 11
151.3659292523
 21
30.7873815123
 12
150.498741835
 22
30.7228544222
 13
150.498741835
 23
30.7228544222
  0
SOLID
  8
0
 62
7
  6
CONTINUOUS
 10
151.3659292523
 20
30.7873815123
 11
151.1924917523
 21
30.6905916353
 12
150.498741835
 22
30.7228544222
 13
150.498741835
 23
30.7228544222
  0
SOLID
  8
0
 62
7
  6
CONTINUOUS
 10
150.0362418212
 20
30.658327332
 11
150.498741835
 21
30.7228544222
 12
151.1924917523
 22
30.6905916353
 13
151.1924917523
 23
30.6905916353
  0
SOLID
  8
0
 62
7
  6
CONTINUOUS
 10
150.0362418212
 20
30.658327332
 11
151.1924917523
 21
30.6905916353
 12
150.2096793212
 22
30.6260631011
 13
150.2096793212
 23
30.6260631011
  0
SOLID
  8
0
 62
7
  6
CONTINUOUS
 10
151.1924917523
 20
30.6905916353
 11
150.9612418074
 21
30.6260631011
 12
150.2096793212
 22
30.6260631011
 13
150.2096793212
 23
30.6260631011
  0
SOLID
  8
0
 62
7
  6
CONTINUOUS
 10
150.5565542799
 20
30.5938002419
 11
150.2096793212
 21
30.6260631011
 12
150.9612418074
 22
30.6260631011
 13
150.9612418074
 23
30.6260631011
  0
SOLID
  8
0
 62
7
  6
CONTINUOUS
 10
154.0253041972
 20
30.7551187255
 11
154.2565543074
 21
30.8519086025
 12
154.3143669177
 22
30.7873815123
 13
154.3143669177
 23
30.7873815123
  0
SOLID
  8
0
 62
7
  6
CONTINUOUS
 10
154.3143669177
 20
30.7873815123
 11
154.5456166972
 21
30.7228544222
 12
154.0253041972
 22
30.7551187255
 13
154.0253041972
 23
30.7551187255
  0
SOLID
  8
0
 62
7
  6
CONTINUOUS
 10
154.1987416972
 20
30.658327332
 11
154.0253041972
 21
30.7551187255
 12
154.5456166972
 22
30.7228544222
 13
154.5456166972
 23
30.7228544222
  0
SOLID
  8
0
 62
7
  6
CONTINUOUS
 10
154.8924916972
 20
30.7228544637
 11
155.1815540869
 21
30.7873815123
 12
155.412804528
 22
30.7551187255
 13
155.412804528
 23
30.7551187255
  0
SOLID
  8
0
 62
7
  6
CONTINUOUS
 10
155.412804528
 20
30.7551187255
 11
155.3549915869
 21
30.6905916353
 12
154.8924916972
 22
30.7228544637
 13
154.8924916972
 23
30.7228544637
  0
SOLID
  8
0
 62
7
  6
CONTINUOUS
 10
155.3549915869
 20
30.6905916353
 11
154.1987416972
 21
30.658327332
 12
154.8924916972
 22
30.7228544637
 13
154.8924916972
 23
30.7228544637
  0
SOLID
  8
0
 62
7
  6
CONTINUOUS
 10
154.1987416972
 20
30.658327332
 11
154.5456166972
 21
30.7228544637
 12
154.8924916972
 22
30.7228544637
 13
154.8924916972
 23
30.7228544637
  0
SOLID
  8
0
 62
7
  6
CONTINUOUS
 10
154.1987416972
 20
30.658327332
 11
155.3549915869
 21
30.6905916353
 12
154.3143669177
 22
30.6260630541
 13
154.3143669177
 23
30.6260630541
  0
SOLID
  8
0
 62
7
  6
CONTINUOUS
 10
155.3549915869
 20
30.6905916353
 11
155.1815540869
 21
30.6260630541
 12
154.3143669177
 22
30.6260630541
 13
154.3143669177
 23
30.6260630541
  0
SOLID
  8
0
 62
7
  6
CONTINUOUS
 10
154.5456166972
 20
30.5938002188
 11
154.3143669177
 21
30.6260630541
 12
155.1815540869
 22
30.6260630541
 13
155.1815540869
 23
30.6260630541
  0
SOLID
  8
0
 62
7
  6
CONTINUOUS
 10
155.1815540869
 20
30.6260630541
 11
154.8924916972
 21
30.5938002188
 12
154.5456166972
 22
30.5938002188
 13
154.5456166972
 23
30.5938002188
  0
SOLID
  8
0
 62
7
  6
CONTINUOUS
 10
159.575304528
 20
30.7551187255
 11
159.228429528
 21
30.7228544637
 12
159.4596793074
 22
30.7873815123
 13
159.4596793074
 23
30.7873815123
  0
SOLID
  8
0
 62
7
  6
CONTINUOUS
 10
159.4596793074
 20
30.7873815123
 11
159.228429528
 21
30.7228544637
 12
159.401867028
 22
30.851908644
 13
159.401867028
 23
30.851908644
  0
SOLID
  8
0
 62
7
  6
CONTINUOUS
 10
159.228429528
 20
30.7228544637
 11
159.1128043074
 21
30.851908644
 12
159.401867028
 22
30.851908644
 13
159.401867028
 23
30.851908644
  0
SOLID
  8
0
 62
7
  6
CONTINUOUS
 10
159.575304528
 20
30.7551187255
 11
159.922179528
 21
30.7228544637
 12
159.228429528
 22
30.7228544637
 13
159.228429528
 23
30.7228544637
  0
SOLID
  8
0
 62
7
  6
CONTINUOUS
 10
156.279992028
 20
30.5938002419
 11
156.279992028
 21
31.6262382337
 12
156.5690540869
 22
30.5938002419
 13
156.5690540869
 23
31.6262382337
  0
ENDBLK
  8
0
  6
BYBLOCK
 62
0
  0
BLOCK
  8
0
 62
2
  6
CONTINUOUS
  2
AMMEAAL_LOGO_BL0
 70
64
 10
32.1213064866
 20
19.8534310916
  0
TEXT
  8
0
 62
7
  6
CONTINUOUS
 10
18.3860103289
 20
19.2268451992
  7
TEXTSTYLE_3
 40
2.7338706658
  1
Ammeraal Beltech
 41
1.0
 51
15.0
 72
0
  0
TEXT
  8
0
 62
7
  6
CONTINUOUS
 10
29.1868111546
 20
16.9533085264
  7
TEXTSTYLE_4
 40
1.0935482663
  1
Innovation & Service in Belting
 41
1.0
 72
0
  0
LINE
  8
0
 62
7
  6
CONTINUOUS
 10
12.3614696776
 20
19.9934385078
 11
13.1396216709
 21
23.6543558055
  0
LINE
  8
0
 62
7
  6
CONTINUOUS
 10
23.2347899607
 20
27.3177497171
 11
13.6274394139
 21
24.1961322958
  0
LINE
  8
0
 62
7
  6
CONTINUOUS
 10
12.5867530099
 20
19.3000877048
 11
20.093828271
 21
12.5406867788
  0
LINE
  8
0
 62
7
  6
CONTINUOUS
 10
12.8492874206
 20
20.5352149982
 11
23.6575567857
 21
24.0470345971
  0
LINE
  8
0
 62
7
  6
CONTINUOUS
 10
23.6533516486
 20
13.6972460334
 11
15.2078919798
 21
21.3015720751
  0
LINE
  8
0
 62
7
  6
CONTINUOUS
 10
24.1731743684
 20
26.4728246013
 11
23.1966148312
 21
21.8784731989
  0
LINE
  8
0
 62
7
  6
CONTINUOUS
 10
22.4968128835
 20
18.5861638851
 11
21.810364672
 21
15.3566789607
  0
LINE
  8
0
 62
7
  6
CONTINUOUS
 10
24.8542704669
 20
14.087448211
 11
25.8105020025
 21
18.5861638851
  0
LINE
  8
0
 62
7
  6
CONTINUOUS
 10
26.5103039502
 20
21.8784731989
 11
26.9545457526
 21
23.9684665583
  0
LINE
  8
0
 62
7
  6
CONTINUOUS
 10
20.8069293463
 20
12.3891124661
 11
24.3664527239
 21
13.5456717207
  0
LINE
  8
0
 62
7
  6
CONTINUOUS
 10
23.9478910361
 20
27.1661754044
 11
26.7292624203
 21
24.6618173613
  0
ARC
  8
0
 62
7
  6
CONTINUOUS
 10
13.8527227462
 20
23.5027814928
 40
0.7290321776
 50
108.0
 51
168.0
  0
ARC
  8
0
 62
7
  6
CONTINUOUS
 10
23.4600732931
 20
26.624398914
 40
0.7290321776
 50
348.0
 51
108.0
  0
ARC
  8
0
 62
7
  6
CONTINUOUS
 10
26.2414446773
 20
24.120040871
 40
0.7290321776
 50
348.0
 51
48.0
  0
ARC
  8
0
 62
7
  6
CONTINUOUS
 10
20.581646014
 20
13.0824632691
 40
0.7290321776
 50
228.0
 51
288.0
  0
ARC
  8
0
 62
7
  6
CONTINUOUS
 10
13.0745707529
 20
19.8418641951
 40
0.7290321776
 50
108.0
 51
228.0
  0
ARC
  8
0
 62
7
  6
CONTINUOUS
 10
24.1411693916
 20
14.2390225237
 40
0.7290321776
 50
228.0
 51
348.0
  0
ENDBLK
  8
0
  6
BYBLOCK
 62
0
  0
BLOCK
  8
0
  2
_FILLED
 70
64
 10
0.0
 20
0.0
  0
SOLID
  8
0
  6
BYBLOCK
 62
0
 10
0.0
 20
0.0
 11
-1.0
 21
0.2142857143
 12
-1.0
 22
-0.2142857143
 13
-1.0
 23
-0.2142857143
  0
ENDBLK
  8
0
  6
BYBLOCK
 62
0
  0
BLOCK
  8
0
 62
2
  6
CONTINUOUS
  2
*D0
 70
65
 10
0.0
 20
0.0
  0
TEXT
  8
0
 62
5
  6
CONTINUOUS
 10
189.8224991928
 20
72.8609889882
  7
STANDARD
 40
3.5
  1
30.000
 50
90.0
 41
0.8
 72
1
 11
189.8224991928
 21
81.2609889882
  0
LINE
  8
0
 62
2
  6
CONTINUOUS
 10
169.0760053391
 20
61.3125
 11
192.6974991928
 21
61.3125
  0
LINE
  8
0
 62
2
  6
CONTINUOUS
 10
170.4128212635
 20
91.3125
 11
192.6974991928
 21
91.3125
  0
LINE
  8
0
 62
2
  6
CONTINUOUS
 10
190.6974991928
 20
61.3125
 11
190.6974991928
 21
56.3125
  0
LINE
  8
0
 62
2
  6
CONTINUOUS
 10
190.6974991928
 20
56.3125
 11
190.6974991928
 21
76.3125
  0
LINE
  8
0
 62
2
  6
CONTINUOUS
 10
190.6974991928
 20
91.3125
 11
190.6974991928
 21
96.3125
  0
LINE
  8
0
 62
2
  6
CONTINUOUS
 10
190.6974991928
 20
96.3125
 11
190.6974991928
 21
76.3125
  0
INSERT
  8
0
 62
2
  6
CONTINUOUS
  2
_FILLED
 10
190.6974991928
 20
61.3125
 41
3.5
 42
3.5
 43
3.5
 50
90.0
  0
INSERT
  8
0
 62
2
  6
CONTINUOUS
  2
_FILLED
 10
190.6974991928
 20
91.3125
 41
3.5
 42
3.5
 43
3.5
 50
270.0
  0
ENDBLK
  8
0
  6
BYBLOCK
 62
0
  0
ENDSEC
  0
SECTION
  2
ENTITIES
  0
TEXT
  8
0
 62
5
  6
CONTINUOUS
 10
96.0
 20
25.636
  7
TEXTSTYLE_2
 40
2.8
  1
Scale :
 41
0.6
 51
0.000019
 72
0
  0
TEXT
  8
0
 62
5
  6
CONTINUOUS
 10
116.0
 20
25.636
  7
TEXTSTYLE_2
 40
2.8
  1
Belt type:
 41
0.6
 51
0.000019
 72
0
  0
INSERT
  8
0
 62
2
  6
CONTINUOUS
  2
AMMEAAL_LOGO_BL0
 10
32.1213064866
 20
19.8534310916
  0
INSERT
  8
0
 62
2
  6
CONTINUOUS
  2
UNI_LOGO2_BL1
 10
173.5956734183
 20
35.5937998301
  0
DIMENSION
  8
0
 62
2
  6
CONTINUOUS
  2
*D0
 10
190.6974991928
 20
91.3125
 11
190.6974991928
 21
81.260997608
 70
128
 13
168.0760053391
 23
61.3125
 14
169.4128212635
 24
91.3125
 50
90.0
  0
LINE
  8
0
 62
2
  6
CONTINUOUS
 10
10.0
 20
30.0
 11
200.0
 21
30.0
  0
LINE
  8
0
 62
2
  6
CONTINUOUS
 10
10.0
 20
30.0
 11
10.0
 21
10.0
  0
LINE
  8
0
 62
2
  6
CONTINUOUS
 10
10.0
 20
10.0
 11
200.0
 21
10.0
  0
LINE
  8
0
 62
2
  6
CONTINUOUS
 10
95.0
 20
30.0
 11
95.0
 21
10.0
  0
LINE
  8
0
 62
2
  6
CONTINUOUS
 10
115.0
 20
30.0
 11
115.0
 21
10.0
  0
LINE
  8
0
 62
2
  6
CONTINUOUS
 10
200.0
 20
30.0
 11
200.0
 21
10.0
  0
TEXT
  8
0
 62
5
  6
CONTINUOUS
 10
13.0
 20
23.303
  7
TEXTSTYLE_5
 40
1.52
  1
                                                                     Ammeraal Beltech Modular A/S
 41
1.0
 72
0
  0
TEXT
  8
0
 62
5
  6
CONTINUOUS
 10
13.0
 20
20.595
  7
TEXTSTYLE_5
 40
1.5
  1
                                                                      Hjulmagervej 21,  7100 Vejle,  DK
 41
1.0
 72
0
  0
TEXT
  8
0
 62
5
  6
CONTINUOUS
 10
13.0
 20
17.881
  7
TEXTSTYLE_5
 40
1.495
  1
                                                                      tel: 
 41
1.0
 72
0
  0
TEXT
  8
0
 62
5
  6
CONTINUOUS
 10
57.9869465649
 20
17.881
  7
TEXTSTYLE_5
 40
1.51
  1
+45 75723100     fax: +45 75723348
 41
1.0
 72
0
  0
TEXT
  8
0
 62
5
  6
CONTINUOUS
 10
13.0
 20
15.177
  7
TEXTSTYLE_5
 40
1.5
  1
                                                                      admin@unichains.dk  www.unichains.com
 41
1.0
 72
0
  0
TEXT
  8
0
 62
5
  6
CONTINUOUS
 10
99.75
 20
13.75
  7
TEXTSTYLE_6
 40
5.0
  1
1:1
 41
0.7
 72
1
 11
105.0
 21
13.75
  0
TEXT
  8
0
 62
5
  6
CONTINUOUS
 10
118.0
 20
13.75
  7
TEXTSTYLE_7
 40
7.5
  1
Sprocket Z18
 41
0.6361111111
 72
0
  0
LINE
  8
0
 62
7
  6
CONTINUOUS
 10
210.0
 20
0.0
 11
0.0
 21
0.0
  0
LINE
  8
0
 62
7
  6
CONTINUOUS
 10
10.0
 20
10.0
 11
200.0
 21
10.0
  0
LINE
  8
0
 62
7
  6
CONTINUOUS
 10
10.0
 20
30.0
 11
200.0
 21
30.0
  0
LINE
  8
0
 62
7
  6
CONTINUOUS
 10
0.0
 20
0.0
 11
0.0
 21
297.0
  0
LINE
  8
0
 62
7
  6
CONTINUOUS
 10
10.0
 20
10.0
 11
10.0
 21
287.0
  0
LINE
  8
0
 62
7
  6
CONTINUOUS
 10
200.0
 20
287.0
 11
200.0
 21
10.0
  0
LINE
  8
0
 62
7
  6
CONTINUOUS
 10
210.0
 20
0.0
 11
210.0
 21
297.0
  0
LINE
  8
0
 62
7
  6
CONTINUOUS
 10
10.0
 20
287.0
 11
200.0
 21
287.0
  0
LINE
  8
0
 62
7
  6
CONTINUOUS
 10
0.0
 20
297.0
 11
210.0
 21
297.0
  0
LINE
  8
CURVE
 62
8
  6
PHANTOM
 10
100.9312185698
 20
257.5930685635
 11
37.9479470615
 21
194.6097970552
  0
LINE
  8
CURVE
 62
8
  6
PHANTOM
 10
100.9312185698
 20
123.8991189365
 11
37.9479470615
 21
186.8823904448
  0
LINE
  8
CURVE
 62
8
  6
PHANTOM
 10
100.794921875
 20
205.2029260448
 11
100.794921875
 21
208.5029260448
  0
LINE
  8
0
 62
2
  6
CONTINUOUS
 10
104.794921875
 20
191.62609375
 11
104.794921875
 21
189.86609375
  0
LINE
  8
DEFAULT_1
 62
2
  6
CENTER
 10
104.794921875
 20
186.34609375
 11
104.794921875
 21
118.284490625
  0
LINE
  8
DEFAULT_1
 62
2
  6
CENTER
 10
104.794921875
 20
195.14609375
 11
104.794921875
 21
263.207696875
  0
LINE
  8
0
 62
2
  6
CONTINUOUS
 10
105.674921875
 20
190.74609375
 11
103.914921875
 21
190.74609375
  0
LINE
  8
DEFAULT_1
 62
2
  6
CENTER
 10
100.394921875
 20
190.74609375
 11
32.33331875
 21
190.74609375
  0
LINE
  8
DEFAULT_1
 62
2
  6
CENTER
 10
109.194921875
 20
190.74609375
 11
177.256525
 21
190.74609375
  0
LINE
  8
CURVE
 62
8
  6
PHANTOM
 10
108.794921875
 20
208.5029260448
 11
108.794921875
 21
205.2029260448
  0
LINE
  8
CURVE
 62
8
  6
PHANTOM
 10
100.794921875
 20
208.5029260448
 11
108.794921875
 21
208.5029260448
  0
LINE
  8
CURVE
 62
8
  6
PHANTOM
 10
108.6586251802
 20
123.8991189365
 11
171.6418966885
 21
186.8823904448
  0
LINE
  8
CURVE
 62
8
  6
PHANTOM
 10
108.6586251802
 20
257.5930685635
 11
171.6418966885
 21
194.6097970552
  0
LINE
  8
0
 62
7
  6
CONTINUOUS
 10
31.1657983922
 20
81.9798926753
 11
31.1521228864
 21
82.1435966268
  0
LINE
  8
0
 62
7
  6
CONTINUOUS
 10
31.1521228862
 20
82.1436149571
 11
31.1521228862
 21
70.4813850429
  0
LINE
  8
0
 62
9
  6
CONTINUOUS
 10
31.1657983922
 20
81.9798926753
 11
31.1657983922
 21
70.6451073247
  0
LINE
  8
0
 62
9
  6
CONTINUOUS
 10
31.3981530046
 20
81.9798926753
 11
31.3981530046
 21
70.6451073247
  0
LINE
  8
0
 62
9
  6
CONTINUOUS
 10
31.6998677854
 20
82.571851192
 11
31.6998677854
 21
70.053148808
  0
LINE
  8
0
 62
9
  6
CONTINUOUS
 10
34.4034083196
 20
83.261362411
 11
34.4034083196
 21
69.363637589
  0
POLYLINE
  8
0
 62
7
  6
CONTINUOUS
 66
1
 70
0
  0
VERTEX
  8
0
 62
7
  6
CONTINUOUS
 10
31.1521228864
 20
82.1435966268
  0
VERTEX
  8
0
 62
7
  6
CONTINUOUS
 10
31.1567967966
 20
82.2375038373
  0
VERTEX
  8
0
 62
7
  6
CONTINUOUS
 10
31.1774718632
 20
82.3588287673
  0
VERTEX
  8
0
 62
7
  6
CONTINUOUS
 10
31.2614276145
 20
82.571851192
  0
SEQEND
  0
LINE
  8
0
 62
7
  6
CONTINUOUS
 10
31.1521228864
 20
70.4814033421
 11
31.1657983922
 21
70.6451073247
  0
POLYLINE
  8
0
 62
7
  6
CONTINUOUS
 66
1
 70
0
  0
VERTEX
  8
0
 62
7
  6
CONTINUOUS
 10
31.2614276145
 20
70.053148808
  0
VERTEX
  8
0
 62
7
  6
CONTINUOUS
 10
31.1774590182
 20
70.2662240399
  0
VERTEX
  8
0
 62
7
  6
CONTINUOUS
 10
31.1568033029
 20
70.3874315093
  0
VERTEX
  8
0
 62
7
  6
CONTINUOUS
 10
31.1521228864
 20
70.4814033421
  0
SEQEND
  0
POLYLINE
  8
0
 62
7
  6
CONTINUOUS
 66
1
 70
0
  0
VERTEX
  8
0
 62
7
  6
CONTINUOUS
 10
31.3981530046
 20
70.6451073247
  0
VERTEX
  8
0
 62
7
  6
CONTINUOUS
 10
31.4791017447
 20
70.3874780021
  0
VERTEX
  8
0
 62
7
  6
CONTINUOUS
 10
31.5419620516
 20
70.2662572856
  0
VERTEX
  8
0
 62
7
  6
CONTINUOUS
 10
31.6998677854
 20
70.053148808
  0
SEQEND
  0
LINE
  8
0
 62
7
  6
CONTINUOUS
 10
39.6922120902
 20
70.053148808
 11
39.6846745123
 21
70.1557738217
  0
LINE
  8
0
 62
7
  6
CONTINUOUS
 10
38.7845540023
 20
83.3125
 11
38.7845540023
 21
69.3125
  0
LINE
  8
0
 62
7
  6
CONTINUOUS
 10
39.2571333411
 20
90.3125
 11
39.2571333411
 21
83.3125
  0
LINE
  8
0
 62
7
  6
CONTINUOUS
 10
39.2571333411
 20
69.3125
 11
39.2571333411
 21
62.3125
  0
LINE
  8
0
 62
7
  6
CONTINUOUS
 10
39.6846745123
 20
82.4692250747
 11
39.6846745123
 21
70.1557749253
  0
LINE
  8
0
 62
9
  6
CONTINUOUS
 10
39.8142027219
 20
81.9798926753
 11
39.8142027219
 21
70.6451073247
  0
POLYLINE
  8
0
 62
7
  6
CONTINUOUS
 66
1
 70
0
  0
VERTEX
  8
0
 62
7
  6
CONTINUOUS
 10
39.6846745123
 20
70.1557738217
  0
VERTEX
  8
0
 62
7
  6
CONTINUOUS
 10
39.6922888355
 20
70.2662240399
  0
VERTEX
  8
0
 62
7
  6
CONTINUOUS
 10
39.7163278595
 20
70.3874315093
  0
VERTEX
  8
0
 62
7
  6
CONTINUOUS
 10
39.8142027219
 20
70.6451073247
  0
SEQEND
  0
LINE
  8
0
 62
7
  6
CONTINUOUS
 10
39.6846745123
 20
82.4692261689
 11
39.6922120902
 21
82.571851192
  0
POLYLINE
  8
0
 62
7
  6
CONTINUOUS
 66
1
 70
0
  0
VERTEX
  8
0
 62
7
  6
CONTINUOUS
 10
39.2571333411
 20
90.3125
  0
VERTEX
  8
0
 62
7
  6
CONTINUOUS
 10
39.2777920866
 20
90.5224564727
  0
VERTEX
  8
0
 62
7
  6
CONTINUOUS
 10
39.3390884514
 20
90.7237301401
  0
VERTEX
  8
0
 62
7
  6
CONTINUOUS
 10
39.4405217932
 20
90.9099984563
  0
VERTEX
  8
0
 62
7
  6
CONTINUOUS
 10
39.579428201
 20
91.0712390626
  0
VERTEX
  8
0
 62
7
  6
CONTINUOUS
 10
39.7534420413
 20
91.1991749564
  0
VERTEX
  8
0
 62
7
  6
CONTINUOUS
 10
39.9552213437
 20
91.2826414788
  0
VERTEX
  8
0
 62
7
  6
CONTINUOUS
 10
40.1770224865
 20
91.3125
  0
SEQEND
  0
POLYLINE
  8
0
 62
7
  6
CONTINUOUS
 66
1
 70
0
  0
VERTEX
  8
0
 62
7
  6
CONTINUOUS
 10
39.6922120902
 20
82.571851192
  0
VERTEX
  8
0
 62
7
  6
CONTINUOUS
 10
39.7184219405
 20
82.6940197217
  0
VERTEX
  8
0
 62
7
  6
CONTINUOUS
 10
39.7574873898
 20
82.7959094062
  0
VERTEX
  8
0
 62
7
  6
CONTINUOUS
 10
39.7823721615
 20
82.8394951234
  0
VERTEX
  8
0
 62
7
  6
CONTINUOUS
 10
39.8474348107
 20
82.914176402
  0
VERTEX
  8
0
 62
7
  6
CONTINUOUS
 10
39.9452706863
 20
82.9675810159
  0
SEQEND
  0
POLYLINE
  8
0
 62
7
  6
CONTINUOUS
 66
1
 70
0
  0
VERTEX
  8
0
 62
7
  6
CONTINUOUS
 10
40.4016295083
 20
62.3125
  0
VERTEX
  8
0
 62
7
  6
CONTINUOUS
 10
40.4259390558
 20
62.1026869346
  0
VERTEX
  8
0
 62
7
  6
CONTINUOUS
 10
40.4983695188
 20
61.901249421
  0
VERTEX
  8
0
 62
7
  6
CONTINUOUS
 10
40.6186318558
 20
61.7150527041
  0
VERTEX
  8
0
 62
7
  6
CONTINUOUS
 10
40.7845264037
 20
61.5537678152
  0
VERTEX
  8
0
 62
7
  6
CONTINUOUS
 10
40.9940994709
 20
61.4258630433
  0
VERTEX
  8
0
 62
7
  6
CONTINUOUS
 10
41.2400862382
 20
61.3423413071
  0
VERTEX
  8
0
 62
7
  6
CONTINUOUS
 10
41.5138384109
 20
61.3125
  0
SEQEND
  0
LINE
  8
0
 62
7
  6
CONTINUOUS
 10
40.4016295083
 20
90.3125
 11
40.4016295083
 21
83.3125
  0
LINE
  8
0
 62
7
  6
CONTINUOUS
 10
40.4016295083
 20
69.3125
 11
40.4016295083
 21
62.3125
  0
LINE
  8
0
 62
9
  6
CONTINUOUS
 10
40.4832411637
 20
81.9798926753
 11
40.4832411637
 21
70.6451073247
  0
LINE
  8
0
 62
9
  6
CONTINUOUS
 10
40.9546502476
 20
82.571851192
 11
40.9546502476
 21
70.053148808
  0
LINE
  8
0
 62
9
  6
CONTINUOUS
 10
43.7452500896
 20
83.261362411
 11
43.7452500896
 21
69.363637589
  0
POLYLINE
  8
0
 62
7
  6
CONTINUOUS
 66
1
 70
0
  0
VERTEX
  8
0
 62
7
  6
CONTINUOUS
 10
46.0174617057
 20
90.3125
  0
VERTEX
  8
0
 62
7
  6
CONTINUOUS
 10
46.0319442656
 20
90.5224564727
  0
VERTEX
  8
0
 62
7
  6
CONTINUOUS
 10
46.0747570177
 20
90.7237301401
  0
VERTEX
  8
0
 62
7
  6
CONTINUOUS
 10
46.1450750061
 20
90.9099984563
  0
VERTEX
  8
0
 62
7
  6
CONTINUOUS
 10
46.240272159
 20
91.0712390626
  0
VERTEX
  8
0
 62
7
  6
CONTINUOUS
 10
46.3576658783
 20
91.1991749564
  0
VERTEX
  8
0
 62
7
  6
CONTINUOUS
 10
46.4910586125
 20
91.2826414788
  0
VERTEX
  8
0
 62
7
  6
CONTINUOUS
 10
46.6340788869
 20
91.3125
  0
SEQEND
  0
POLYLINE
  8
0
 62
7
  6
CONTINUOUS
 66
1
 70
0
  0
VERTEX
  8
0
 62
7
  6
CONTINUOUS
 10
31.2614276145
 20
82.571851192
  0
VERTEX
  8
0
 62
7
  6
CONTINUOUS
 10
31.344672437
 20
82.6940197217
  0
VERTEX
  8
0
 62
7
  6
CONTINUOUS
 10
31.4435635823
 20
82.7959094062
  0
VERTEX
  8
0
 62
7
  6
CONTINUOUS
 10
31.4990895679
 20
82.8394951234
  0
VERTEX
  8
0
 62
7
  6
CONTINUOUS
 10
31.6295653449
 20
82.914176402
  0
VERTEX
  8
0
 62
7
  6
CONTINUOUS
 10
31.8031268855
 20
82.9675810159
  0
SEQEND
  0
POLYLINE
  8
0
 62
7
  6
CONTINUOUS
 66
1
 70
0
  0
VERTEX
  8
0
 62
7
  6
CONTINUOUS
 10
31.6998677854
 20
82.571851192
  0
VERTEX
  8
0
 62
7
  6
CONTINUOUS
 10
31.5419913763
 20
82.3587923332
  0
VERTEX
  8
0
 62
7
  6
CONTINUOUS
 10
31.479071731
 20
82.2374551718
  0
VERTEX
  8
0
 62
7
  6
CONTINUOUS
 10
31.3981530046
 20
81.9798926753
  0
SEQEND
  0
LINE
  8
0
 62
7
  6
CONTINUOUS
 10
46.0174617057
 20
90.3125
 11
46.0174617057
 21
83.3125
  0
LINE
  8
0
 62
7
  6
CONTINUOUS
 10
46.0174617057
 20
69.3125
 11
46.0174617057
 21
62.3125
  0
LINE
  8
0
 62
7
  6
CONTINUOUS
 10
47.6950795319
 20
83.3125
 11
47.6950795319
 21
69.3125
  0
LINE
  8
0
 62
7
  6
CONTINUOUS
 10
49.3129070788
 20
90.3125
 11
49.3129070788
 21
83.3125
  0
LINE
  8
0
 62
7
  6
CONTINUOUS
 10
49.3129070788
 20
69.3125
 11
49.3129070788
 21
62.3125
  0
POLYLINE
  8
0
 62
7
  6
CONTINUOUS
 66
1
 70
0
  0
VERTEX
  8
0
 62
7
  6
CONTINUOUS
 10
31.6998677854
 20
70.053148808
  0
VERTEX
  8
0
 62
7
  6
CONTINUOUS
 10
31.7811239382
 20
69.9726467264
  0
VERTEX
  8
0
 62
7
  6
CONTINUOUS
 10
31.9896939731
 20
69.8215786136
  0
VERTEX
  8
0
 62
7
  6
CONTINUOUS
 10
32.1063176278
 20
69.7616265049
  0
VERTEX
  8
0
 62
7
  6
CONTINUOUS
 10
32.3455034214
 20
69.679932422
  0
VERTEX
  8
0
 62
7
  6
CONTINUOUS
 10
32.4648708046
 20
69.6574189841
  0
SEQEND
  0
POLYLINE
  8
0
 62
7
  6
CONTINUOUS
 66
1
 70
0
  0
VERTEX
  8
0
 62
7
  6
CONTINUOUS
 10
40.4832411637
 20
70.6451073247
  0
VERTEX
  8
0
 62
7
  6
CONTINUOUS
 10
40.6443747996
 20
70.3874780021
  0
VERTEX
  8
0
 62
7
  6
CONTINUOUS
 10
40.7418612233
 20
70.2662572856
  0
VERTEX
  8
0
 62
7
  6
CONTINUOUS
 10
40.9546502476
 20
70.053148808
  0
SEQEND
  0
POLYLINE
  8
0
 62
7
  6
CONTINUOUS
 66
1
 70
0
  0
VERTEX
  8
0
 62
7
  6
CONTINUOUS
 10
39.8142027219
 20
81.9798926753
  0
VERTEX
  8
0
 62
7
  6
CONTINUOUS
 10
39.7163446729
 20
82.2375038373
  0
VERTEX
  8
0
 62
7
  6
CONTINUOUS
 10
39.6922817648
 20
82.3588287673
  0
VERTEX
  8
0
 62
7
  6
CONTINUOUS
 10
39.6846745123
 20
82.4692261689
  0
SEQEND
  0
POLYLINE
  8
0
 62
7
  6
CONTINUOUS
 66
1
 70
0
  0
VERTEX
  8
0
 62
7
  6
CONTINUOUS
 10
49.3129070788
 20
62.3125
  0
VERTEX
  8
0
 62
7
  6
CONTINUOUS
 10
49.3379638658
 20
62.1026869346
  0
VERTEX
  8
0
 62
7
  6
CONTINUOUS
 10
49.4127551799
 20
61.901249421
  0
VERTEX
  8
0
 62
7
  6
CONTINUOUS
 10
49.5373848648
 20
61.7150527041
  0
VERTEX
  8
0
 62
7
  6
CONTINUOUS
 10
49.7102303798
 20
61.5537678152
  0
VERTEX
  8
0
 62
7
  6
CONTINUOUS
 10
49.9301446666
 20
61.4258630433
  0
VERTEX
  8
0
 62
7
  6
CONTINUOUS
 10
50.190539184
 20
61.3423413071
  0
VERTEX
  8
0
 62
7
  6
CONTINUOUS
 10
50.4832869304
 20
61.3125
  0
SEQEND
  0
POLYLINE
  8
0
 62
7
  6
CONTINUOUS
 66
1
 70
0
  0
VERTEX
  8
0
 62
7
  6
CONTINUOUS
 10
40.9546502476
 20
82.571851192
  0
VERTEX
  8
0
 62
7
  6
CONTINUOUS
 10
40.7419042684
 20
82.3587923332
  0
VERTEX
  8
0
 62
7
  6
CONTINUOUS
 10
40.6443251138
 20
82.2374551718
  0
VERTEX
  8
0
 62
7
  6
CONTINUOUS
 10
40.4832411637
 20
81.9798926753
  0
SEQEND
  0
LINE
  8
0
 62
7
  6
CONTINUOUS
 10
55.8989160513
 20
82.9167406277
 11
55.8989160513
 21
69.7082593723
  0
LINE
  8
0
 62
9
  6
CONTINUOUS
 10
55.9753441796
 20
82.571851192
 11
55.9753441796
 21
70.053148808
  0
LINE
  8
0
 62
9
  6
CONTINUOUS
 10
56.3002407948
 20
81.9798926753
 11
56.3002407948
 21
70.6451073247
  0
LINE
  8
0
 62
9
  6
CONTINUOUS
 10
57.3252671559
 20
81.9798926753
 11
57.3252671559
 21
70.6451073247
  0
LINE
  8
0
 62
7
  6
CONTINUOUS
 10
57.8417717228
 20
91.3125
 11
57.8417717228
 21
83.3125
  0
LINE
  8
0
 62
7
  6
CONTINUOUS
 10
57.8417717228
 20
69.3125
 11
57.8417717228
 21
61.3125
  0
LINE
  8
0
 62
9
  6
CONTINUOUS
 10
57.9095116502
 20
82.571851192
 11
57.9095116502
 21
70.053148808
  0
LINE
  8
0
 62
7
  6
CONTINUOUS
 10
59.8672192297
 20
90.3125
 11
59.8672192297
 21
83.3125
  0
LINE
  8
0
 62
7
  6
CONTINUOUS
 10
59.8672192297
 20
69.3125
 11
59.8672192297
 21
62.3125
  0
POLYLINE
  8
0
 62
7
  6
CONTINUOUS
 66
1
 70
0
  0
VERTEX
  8
0
 62
7
  6
CONTINUOUS
 10
59.8672192297
 20
90.3125
  0
VERTEX
  8
0
 62
7
  6
CONTINUOUS
 10
59.8737787935
 20
90.5224564727
  0
VERTEX
  8
0
 62
7
  6
CONTINUOUS
 10
59.8929440831
 20
90.7237301401
  0
VERTEX
  8
0
 62
7
  6
CONTINUOUS
 10
59.923665331
 20
90.9099984563
  0
VERTEX
  8
0
 62
7
  6
CONTINUOUS
 10
59.9636710473
 20
91.0712390626
  0
VERTEX
  8
0
 62
7
  6
CONTINUOUS
 10
60.0102852305
 20
91.1991749564
  0
VERTEX
  8
0
 62
7
  6
CONTINUOUS
 10
60.0592022641
 20
91.2826414788
  0
VERTEX
  8
0
 62
7
  6
CONTINUOUS
 10
60.1061913144
 20
91.3125
  0
SEQEND
  0
POLYLINE
  8
0
 62
7
  6
CONTINUOUS
 66
1
 70
0
  0
VERTEX
  8
0
 62
7
  6
CONTINUOUS
 10
55.8989160513
 20
69.7082616485
  0
VERTEX
  8
0
 62
7
  6
CONTINUOUS
 10
55.9035659283
 20
69.7635495688
  0
VERTEX
  8
0
 62
7
  6
CONTINUOUS
 10
55.9143656659
 20
69.8221253982
  0
VERTEX
  8
0
 62
7
  6
CONTINUOUS
 10
55.9515790334
 20
69.9682728868
  0
VERTEX
  8
0
 62
7
  6
CONTINUOUS
 10
55.9753441796
 20
70.053148808
  0
SEQEND
  0
LINE
  8
0
 62
7
  6
CONTINUOUS
 10
55.8989160513
 20
82.9167199896
 11
55.9092394994
 21
82.9675810159
  0
POLYLINE
  8
0
 62
7
  6
CONTINUOUS
 66
1
 70
0
  0
VERTEX
  8
0
 62
7
  6
CONTINUOUS
 10
40.9546502476
 20
70.053148808
  0
VERTEX
  8
0
 62
7
  6
CONTINUOUS
 10
41.0621770312
 20
69.9681507221
  0
VERTEX
  8
0
 62
7
  6
CONTINUOUS
 10
41.3074904464
 20
69.8220021406
  0
VERTEX
  8
0
 62
7
  6
CONTINUOUS
 10
41.4405983384
 20
69.7634657833
  0
VERTEX
  8
0
 62
7
  6
CONTINUOUS
 10
41.7158035577
 20
69.6804305535
  0
VERTEX
  8
0
 62
7
  6
CONTINUOUS
 10
41.8506863607
 20
69.6574189841
  0
SEQEND
  0
POLYLINE
  8
0
 62
7
  6
CONTINUOUS
 66
1
 70
0
  0
VERTEX
  8
0
 62
7
  6
CONTINUOUS
 10
55.9092394994
 20
69.6574189841
  0
VERTEX
  8
0
 62
7
  6
CONTINUOUS
 10
55.9010484152
 20
69.6804419293
  0
VERTEX
  8
0
 62
7
  6
CONTINUOUS
 10
55.8989160513
 20
69.7082616485
  0
SEQEND
  0
POLYLINE
  8
0
 62
7
  6
CONTINUOUS
 66
1
 70
0
  0
VERTEX
  8
0
 62
7
  6
CONTINUOUS
 10
55.9753441796
 20
82.571851192
  0
VERTEX
  8
0
 62
7
  6
CONTINUOUS
 10
55.941357763
 20
82.6940197217
  0
VERTEX
  8
0
 62
7
  6
CONTINUOUS
 10
55.9158856464
 20
82.7959094062
  0
VERTEX
  8
0
 62
7
  6
CONTINUOUS
 10
55.9071277335
 20
82.8394951234
  0
VERTEX
  8
0
 62
7
  6
CONTINUOUS
 10
55.8989160513
 20
82.9167199896
  0
SEQEND
  0
POLYLINE
  8
0
 62
7
  6
CONTINUOUS
 66
1
 70
0
  0
VERTEX
  8
0
 62
7
  6
CONTINUOUS
 10
64.916134461
 20
62.3125
  0
VERTEX
  8
0
 62
7
  6
CONTINUOUS
 10
64.9389162693
 20
62.1026869346
  0
VERTEX
  8
0
 62
7
  6
CONTINUOUS
 10
65.0070474982
 20
61.901249421
  0
VERTEX
  8
0
 62
7
  6
CONTINUOUS
 10
65.1210123516
 20
61.7150527041
  0
VERTEX
  8
0
 62
7
  6
CONTINUOUS
 10
65.2799611136
 20
61.5537678152
  0
VERTEX
  8
0
 62
7
  6
CONTINUOUS
 10
65.4836917115
 20
61.4258630433
  0
VERTEX
  8
0
 62
7
  6
CONTINUOUS
 10
65.7270865572
 20
61.3423413071
  0
VERTEX
  8
0
 62
7
  6
CONTINUOUS
 10
66.0035201786
 20
61.3125
  0
SEQEND
  0
LINE
  8
0
 62
9
  6
CONTINUOUS
 10
60.4505832741
 20
83.261362411
 11
60.4505832741
 21
69.363637589
  0
LINE
  8
0
 62
7
  6
CONTINUOUS
 10
63.4926887519
 20
83.3125
 11
63.4926887519
 21
69.3125
  0
LINE
  8
0
 62
7
  6
CONTINUOUS
 10
64.916134461
 20
90.3125
 11
64.916134461
 21
83.3125
  0
LINE
  8
0
 62
7
  6
CONTINUOUS
 10
64.916134461
 20
69.3125
 11
64.916134461
 21
62.3125
  0
POLYLINE
  8
0
 62
7
  6
CONTINUOUS
 66
1
 70
0
  0
VERTEX
  8
0
 62
7
  6
CONTINUOUS
 10
55.9753441796
 20
70.053148808
  0
VERTEX
  8
0
 62
7
  6
CONTINUOUS
 10
56.0594570099
 20
70.2662240399
  0
VERTEX
  8
0
 62
7
  6
CONTINUOUS
 10
56.1252913122
 20
70.3874315093
  0
VERTEX
  8
0
 62
7
  6
CONTINUOUS
 10
56.3002407948
 20
70.6451073247
  0
SEQEND
  0
POLYLINE
  8
0
 62
7
  6
CONTINUOUS
 66
1
 70
0
  0
VERTEX
  8
0
 62
7
  6
CONTINUOUS
 10
55.9092394994
 20
82.9675810159
  0
VERTEX
  8
0
 62
7
  6
CONTINUOUS
 10
55.9459633
 20
83.0046970761
  0
VERTEX
  8
0
 62
7
  6
CONTINUOUS
 10
56.0979054767
 20
83.0851775398
  0
VERTEX
  8
0
 62
7
  6
CONTINUOUS
 10
56.2119250665
 20
83.1278809465
  0
VERTEX
  8
0
 62
7
  6
CONTINUOUS
 10
56.5112219219
 20
83.2163702497
  0
VERTEX
  8
0
 62
7
  6
CONTINUOUS
 10
56.693832048
 20
83.261362411
  0
SEQEND
  0
POLYLINE
  8
0
 62
7
  6
CONTINUOUS
 66
1
 70
0
  0
VERTEX
  8
0
 62
7
  6
CONTINUOUS
 10
55.9092394994
 20
69.6574189841
  0
VERTEX
  8
0
 62
7
  6
CONTINUOUS
 10
55.9459633
 20
69.6203029239
  0
VERTEX
  8
0
 62
7
  6
CONTINUOUS
 10
56.0979054767
 20
69.5398224602
  0
VERTEX
  8
0
 62
7
  6
CONTINUOUS
 10
56.2119250665
 20
69.4971190535
  0
VERTEX
  8
0
 62
7
  6
CONTINUOUS
 10
56.5112219219
 20
69.4086297503
  0
VERTEX
  8
0
 62
7
  6
CONTINUOUS
 10
56.693832048
 20
69.363637589
  0
SEQEND
  0
POLYLINE
  8
0
 62
7
  6
CONTINUOUS
 66
1
 70
0
  0
VERTEX
  8
0
 62
7
  6
CONTINUOUS
 10
57.3252671559
 20
70.6451073247
  0
VERTEX
  8
0
 62
7
  6
CONTINUOUS
 10
57.5471505931
 20
70.3874780021
  0
VERTEX
  8
0
 62
7
  6
CONTINUOUS
 10
57.667504832
 20
70.2662572856
  0
VERTEX
  8
0
 62
7
  6
CONTINUOUS
 10
57.9095116502
 20
70.053148808
  0
SEQEND
  0
POLYLINE
  8
0
 62
7
  6
CONTINUOUS
 66
1
 70
0
  0
VERTEX
  8
0
 62
7
  6
CONTINUOUS
 10
57.9095116502
 20
82.571851192
  0
VERTEX
  8
0
 62
7
  6
CONTINUOUS
 10
57.6675564057
 20
82.3587923332
  0
VERTEX
  8
0
 62
7
  6
CONTINUOUS
 10
57.547087228
 20
82.2374551718
  0
VERTEX
  8
0
 62
7
  6
CONTINUOUS
 10
57.3252671559
 20
81.9798926753
  0
SEQEND
  0
POLYLINE
  8
0
 62
7
  6
CONTINUOUS
 66
1
 70
0
  0
VERTEX
  8
0
 62
7
  6
CONTINUOUS
 10
60.1061913144
 20
61.3125
  0
VERTEX
  8
0
 62
7
  6
CONTINUOUS
 10
60.0592168804
 20
61.342341048
  0
VERTEX
  8
0
 62
7
  6
CONTINUOUS
 10
60.0102704882
 20
61.4258576687
  0
VERTEX
  8
0
 62
7
  6
CONTINUOUS
 10
59.9636703655
 20
61.5537632111
  0
VERTEX
  8
0
 62
7
  6
CONTINUOUS
 10
59.9236552176
 20
61.715051048
  0
VERTEX
  8
0
 62
7
  6
CONTINUOUS
 10
59.8929469351
 20
61.9012477614
  0
VERTEX
  8
0
 62
7
  6
CONTINUOUS
 10
59.8737699301
 20
62.1026843897
  0
VERTEX
  8
0
 62
7
  6
CONTINUOUS
 10
59.8672192297
 20
62.3125
  0
SEQEND
  0
POLYLINE
  8
0
 62
7
  6
CONTINUOUS
 66
1
 70
0
  0
VERTEX
  8
0
 62
7
  6
CONTINUOUS
 10
56.3002407948
 20
81.9798926753
  0
VERTEX
  8
0
 62
7
  6
CONTINUOUS
 10
56.1253294173
 20
82.2375038373
  0
VERTEX
  8
0
 62
7
  6
CONTINUOUS
 10
56.0594308764
 20
82.3588287673
  0
VERTEX
  8
0
 62
7
  6
CONTINUOUS
 10
55.9753441796
 20
82.571851192
  0
SEQEND
  0
LINE
  8
0
 62
7
  6
CONTINUOUS
 10
74.1484296421
 20
91.3125
 11
74.1484296421
 21
61.3125
  0
POLYLINE
  8
0
 62
7
  6
CONTINUOUS
 66
1
 70
0
  0
VERTEX
  8
0
 62
7
  6
CONTINUOUS
 10
39.9452706863
 20
69.6574189841
  0
VERTEX
  8
0
 62
7
  6
CONTINUOUS
 10
39.8912047549
 20
69.6804419293
  0
VERTEX
  8
0
 62
7
  6
CONTINUOUS
 10
39.7977852184
 20
69.7635495688
  0
VERTEX
  8
0
 62
7
  6
CONTINUOUS
 10
39.7610410749
 20
69.8221253982
  0
VERTEX
  8
0
 62
7
  6
CONTINUOUS
 10
39.7085980427
 20
69.9682728868
  0
VERTEX
  8
0
 62
7
  6
CONTINUOUS
 10
39.6922120902
 20
70.053148808
  0
SEQEND
  0
POLYLINE
  8
0
 62
7
  6
CONTINUOUS
 66
1
 70
0
  0
VERTEX
  8
0
 62
7
  6
CONTINUOUS
 10
57.9095116502
 20
70.053148808
  0
VERTEX
  8
0
 62
7
  6
CONTINUOUS
 10
58.0253037481
 20
69.9681507221
  0
VERTEX
  8
0
 62
7
  6
CONTINUOUS
 10
58.2835386809
 20
69.8220021406
  0
VERTEX
  8
0
 62
7
  6
CONTINUOUS
 10
58.4203923012
 20
69.7634657833
  0
VERTEX
  8
0
 62
7
  6
CONTINUOUS
 10
58.6964669041
 20
69.6804305535
  0
VERTEX
  8
0
 62
7
  6
CONTINUOUS
 10
58.8285056778
 20
69.6574189841
  0
SEQEND
  0
POLYLINE
  8
0
 62
7
  6
CONTINUOUS
 66
1
 70
0
  0
VERTEX
  8
0
 62
7
  6
CONTINUOUS
 10
79.135920755
 20
90.3125
  0
VERTEX
  8
0
 62
7
  6
CONTINUOUS
 10
79.1337661425
 20
90.5224564727
  0
VERTEX
  8
0
 62
7
  6
CONTINUOUS
 10
79.1269723528
 20
90.7237301401
  0
VERTEX
  8
0
 62
7
  6
CONTINUOUS
 10
79.1143914243
 20
90.9099984563
  0
VERTEX
  8
0
 62
7
  6
CONTINUOUS
 10
79.0943804243
 20
91.0712390626
  0
VERTEX
  8
0
 62
7
  6
CONTINUOUS
 10
79.0645927129
 20
91.1991749564
  0
VERTEX
  8
0
 62
7
  6
CONTINUOUS
 10
79.0231339297
 20
91.2826414788
  0
VERTEX
  8
0
 62
7
  6
CONTINUOUS
 10
78.9684241828
 20
91.3125
  0
SEQEND
  0
LINE
  8
0
 62
7
  6
CONTINUOUS
 10
77.6639684012
 20
83.0775619075
 11
77.6639684012
 21
69.5474380925
  0
LINE
  8
0
 62
9
  6
CONTINUOUS
 10
78.1468378393
 20
82.571851192
 11
78.1468378393
 21
70.053148808
  0
LINE
  8
0
 62
9
  6
CONTINUOUS
 10
78.6354531113
 20
81.9798926753
 11
78.6354531113
 21
70.6451073247
  0
LINE
  8
0
 62
7
  6
CONTINUOUS
 10
79.135920755
 20
90.3125
 11
79.135920755
 21
83.3125
  0
LINE
  8
0
 62
7
  6
CONTINUOUS
 10
79.135920755
 20
69.3125
 11
79.135920755
 21
62.3125
  0
LINE
  8
0
 62
9
  6
CONTINUOUS
 10
79.8928340847
 20
81.9798926753
 11
79.8928340847
 21
70.6451073247
  0
POLYLINE
  8
0
 62
7
  6
CONTINUOUS
 66
1
 70
0
  0
VERTEX
  8
0
 62
7
  6
CONTINUOUS
 10
77.6639684012
 20
83.0775674991
  0
VERTEX
  8
0
 62
7
  6
CONTINUOUS
 10
77.6827008319
 20
83.1278809465
  0
VERTEX
  8
0
 62
7
  6
CONTINUOUS
 10
77.7990613861
 20
83.2163702497
  0
VERTEX
  8
0
 62
7
  6
CONTINUOUS
 10
77.8961605534
 20
83.261362411
  0
SEQEND
  0
POLYLINE
  8
0
 62
7
  6
CONTINUOUS
 66
1
 70
0
  0
VERTEX
  8
0
 62
7
  6
CONTINUOUS
 10
46.6340788869
 20
61.3125
  0
VERTEX
  8
0
 62
7
  6
CONTINUOUS
 10
46.4911004678
 20
61.342341048
  0
VERTEX
  8
0
 62
7
  6
CONTINUOUS
 10
46.3576274331
 20
61.4258576687
  0
VERTEX
  8
0
 62
7
  6
CONTINUOUS
 10
46.2402704969
 20
61.5537632111
  0
VERTEX
  8
0
 62
7
  6
CONTINUOUS
 10
46.1450514868
 20
61.715051048
  0
VERTEX
  8
0
 62
7
  6
CONTINUOUS
 10
46.0747634462
 20
61.9012477614
  0
VERTEX
  8
0
 62
7
  6
CONTINUOUS
 10
46.0319246394
 20
62.1026843897
  0
VERTEX
  8
0
 62
7
  6
CONTINUOUS
 10
46.0174617057
 20
62.3125
  0
SEQEND
  0
POLYLINE
  8
0
 62
7
  6
CONTINUOUS
 66
1
 70
0
  0
VERTEX
  8
0
 62
7
  6
CONTINUOUS
 10
77.6639684012
 20
69.5474325009
  0
VERTEX
  8
0
 62
7
  6
CONTINUOUS
 10
77.6827008319
 20
69.4971190535
  0
VERTEX
  8
0
 62
7
  6
CONTINUOUS
 10
77.7990613861
 20
69.4086297503
  0
VERTEX
  8
0
 62
7
  6
CONTINUOUS
 10
77.8961605534
 20
69.363637589
  0
SEQEND
  0
POLYLINE
  8
0
 62
7
  6
CONTINUOUS
 66
1
 70
0
  0
VERTEX
  8
0
 62
7
  6
CONTINUOUS
 10
85.3293321536
 20
62.3125
  0
VERTEX
  8
0
 62
7
  6
CONTINUOUS
 10
85.3470911608
 20
62.1026869346
  0
VERTEX
  8
0
 62
7
  6
CONTINUOUS
 10
85.4003446729
 20
61.901249421
  0
VERTEX
  8
0
 62
7
  6
CONTINUOUS
 10
85.4898988515
 20
61.7150527041
  0
VERTEX
  8
0
 62
7
  6
CONTINUOUS
 10
85.6157792939
 20
61.5537678152
  0
VERTEX
  8
0
 62
7
  6
CONTINUOUS
 10
85.7787532862
 20
61.4258630433
  0
VERTEX
  8
0
 62
7
  6
CONTINUOUS
 10
85.9757914496
 20
61.3423413071
  0
VERTEX
  8
0
 62
7
  6
CONTINUOUS
 10
86.2025689715
 20
61.3125
  0
SEQEND
  0
LINE
  8
0
 62
9
  6
CONTINUOUS
 10
80.5194454808
 20
82.571851192
 11
80.5194454808
 21
70.053148808
  0
LINE
  8
0
 62
9
  6
CONTINUOUS
 10
82.5044981466
 20
83.261362411
 11
82.5044981466
 21
69.363637589
  0
LINE
  8
0
 62
7
  6
CONTINUOUS
 10
84.2719568427
 20
83.3125
 11
84.2719568427
 21
69.3125
  0
LINE
  8
0
 62
7
  6
CONTINUOUS
 10
85.3293321536
 20
90.3125
 11
85.3293321536
 21
83.3125
  0
LINE
  8
0
 62
7
  6
CONTINUOUS
 10
85.3293321536
 20
69.3125
 11
85.3293321536
 21
62.3125
  0
POLYLINE
  8
0
 62
7
  6
CONTINUOUS
 66
1
 70
0
  0
VERTEX
  8
0
 62
7
  6
CONTINUOUS
 10
80.5194454808
 20
82.571851192
  0
VERTEX
  8
0
 62
7
  6
CONTINUOUS
 10
80.2774643444
 20
82.3587923332
  0
VERTEX
  8
0
 62
7
  6
CONTINUOUS
 10
80.1486355044
 20
82.2374551718
  0
VERTEX
  8
0
 62
7
  6
CONTINUOUS
 10
79.8928340847
 20
81.9798926753
  0
SEQEND
  0
POLYLINE
  8
0
 62
7
  6
CONTINUOUS
 66
1
 70
0
  0
VERTEX
  8
0
 62
7
  6
CONTINUOUS
 10
177.1249729454
 20
69.6574189841
  0
VERTEX
  8
0
 62
7
  6
CONTINUOUS
 10
177.2443913546
 20
69.6799445369
  0
VERTEX
  8
0
 62
7
  6
CONTINUOUS
 10
177.4838073827
 20
69.761753806
  0
VERTEX
  8
0
 62
7
  6
CONTINUOUS
 10
177.6004987663
 20
69.8217808547
  0
VERTEX
  8
0
 62
7
  6
CONTINUOUS
 10
177.8085215374
 20
69.9724687393
  0
VERTEX
  8
0
 62
7
  6
CONTINUOUS
 10
177.8899759646
 20
70.053148808
  0
SEQEND
  0
POLYLINE
  8
0
 62
7
  6
CONTINUOUS
 66
1
 70
0
  0
VERTEX
  8
0
 62
7
  6
CONTINUOUS
 10
168.0760053391
 20
61.3125
  0
VERTEX
  8
0
 62
7
  6
CONTINUOUS
 10
168.3497563472
 20
61.342341048
  0
VERTEX
  8
0
 62
7
  6
CONTINUOUS
 10
168.5957328079
 20
61.4258576687
  0
VERTEX
  8
0
 62
7
  6
CONTINUOUS
 10
168.8053114189
 20
61.5537632111
  0
VERTEX
  8
0
 62
7
  6
CONTINUOUS
 10
168.9712105379
 20
61.715051048
  0
VERTEX
  8
0
 62
7
  6
CONTINUOUS
 10
169.0914734113
 20
61.9012477614
  0
VERTEX
  8
0
 62
7
  6
CONTINUOUS
 10
169.1639040976
 20
62.1026843897
  0
VERTEX
  8
0
 62
7
  6
CONTINUOUS
 10
169.1882142417
 20
62.3125
  0
SEQEND
  0
POLYLINE
  8
0
 62
7
  6
CONTINUOUS
 66
1
 70
0
  0
VERTEX
  8
0
 62
7
  6
CONTINUOUS
 10
159.1065568196
 20
61.3125
  0
VERTEX
  8
0
 62
7
  6
CONTINUOUS
 10
159.3993033273
 20
61.342341048
  0
VERTEX
  8
0
 62
7
  6
CONTINUOUS
 10
159.6596869978
 20
61.4258576687
  0
VERTEX
  8
0
 62
7
  6
CONTINUOUS
 10
159.8796071752
 20
61.5537632111
  0
VERTEX
  8
0
 62
7
  6
CONTINUOUS
 10
160.0524574764
 20
61.715051048
  0
VERTEX
  8
0
 62
7
  6
CONTINUOUS
 10
160.1770877223
 20
61.9012477614
  0
VERTEX
  8
0
 62
7
  6
CONTINUOUS
 10
160.2518792689
 20
62.1026843897
  0
VERTEX
  8
0
 62
7
  6
CONTINUOUS
 10
160.2769366712
 20
62.3125
  0
SEQEND
  0
POLYLINE
  8
0
 62
7
  6
CONTINUOUS
 66
1
 70
0
  0
VERTEX
  8
0
 62
7
  6
CONTINUOUS
 10
40.1770224865
 20
61.3125
  0
VERTEX
  8
0
 62
7
  6
CONTINUOUS
 10
39.9552853897
 20
61.342341048
  0
VERTEX
  8
0
 62
7
  6
CONTINUOUS
 10
39.7533845303
 20
61.4258576687
  0
VERTEX
  8
0
 62
7
  6
CONTINUOUS
 10
39.5794257591
 20
61.5537632111
  0
VERTEX
  8
0
 62
7
  6
CONTINUOUS
 10
39.4404877046
 20
61.715051048
  0
VERTEX
  8
0
 62
7
  6
CONTINUOUS
 10
39.339097681
 20
61.9012477614
  0
VERTEX
  8
0
 62
7
  6
CONTINUOUS
 10
39.2777640648
 20
62.1026843897
  0
VERTEX
  8
0
 62
7
  6
CONTINUOUS
 10
39.2571333411
 20
62.3125
  0
SEQEND
  0
POLYLINE
  8
0
 62
7
  6
CONTINUOUS
 66
1
 70
0
  0
VERTEX
  8
0
 62
7
  6
CONTINUOUS
 10
31.8031268855
 20
69.6574189841
  0
VERTEX
  8
0
 62
7
  6
CONTINUOUS
 10
31.7097072562
 20
69.6804419293
  0
VERTEX
  8
0
 62
7
  6
CONTINUOUS
 10
31.5316184448
 20
69.7635495688
  0
VERTEX
  8
0
 62
7
  6
CONTINUOUS
 10
31.4517623063
 20
69.8221253982
  0
VERTEX
  8
0
 62
7
  6
CONTINUOUS
 10
31.315988278
 20
69.9682728868
  0
VERTEX
  8
0
 62
7
  6
CONTINUOUS
 10
31.2614276145
 20
70.053148808
  0
SEQEND
  0
POLYLINE
  8
0
 62
7
  6
CONTINUOUS
 66
1
 70
0
  0
VERTEX
  8
0
 62
7
  6
CONTINUOUS
 10
39.9452706863
 20
69.6574189841
  0
VERTEX
  8
0
 62
7
  6
CONTINUOUS
 10
40.0757341322
 20
69.6203029239
  0
VERTEX
  8
0
 62
7
  6
CONTINUOUS
 10
40.4049775315
 20
69.5398224602
  0
VERTEX
  8
0
 62
7
  6
CONTINUOUS
 10
40.600975725
 20
69.4971190535
  0
VERTEX
  8
0
 62
7
  6
CONTINUOUS
 10
41.0471092636
 20
69.4086297503
  0
VERTEX
  8
0
 62
7
  6
CONTINUOUS
 10
41.2932048722
 20
69.363637589
  0
SEQEND
  0
POLYLINE
  8
0
 62
7
  6
CONTINUOUS
 66
1
 70
0
  0
VERTEX
  8
0
 62
7
  6
CONTINUOUS
 10
80.5194454808
 20
70.053148808
  0
VERTEX
  8
0
 62
7
  6
CONTINUOUS
 10
80.6295366571
 20
69.9681507221
  0
VERTEX
  8
0
 62
7
  6
CONTINUOUS
 10
80.8695461635
 20
69.8220021406
  0
VERTEX
  8
0
 62
7
  6
CONTINUOUS
 10
80.9936389458
 20
69.7634657833
  0
VERTEX
  8
0
 62
7
  6
CONTINUOUS
 10
81.2372842607
 20
69.6804305535
  0
VERTEX
  8
0
 62
7
  6
CONTINUOUS
 10
81.3505531803
 20
69.6574189841
  0
SEQEND
  0
POLYLINE
  8
0
 62
7
  6
CONTINUOUS
 66
1
 70
0
  0
VERTEX
  8
0
 62
7
  6
CONTINUOUS
 10
79.8928340847
 20
70.6451073247
  0
VERTEX
  8
0
 62
7
  6
CONTINUOUS
 10
80.1487049061
 20
70.3874780021
  0
VERTEX
  8
0
 62
7
  6
CONTINUOUS
 10
80.2774104627
 20
70.2662572856
  0
VERTEX
  8
0
 62
7
  6
CONTINUOUS
 10
80.5194454808
 20
70.053148808
  0
SEQEND
  0
POLYLINE
  8
0
 62
7
  6
CONTINUOUS
 66
1
 70
0
  0
VERTEX
  8
0
 62
7
  6
CONTINUOUS
 10
78.1468378393
 20
70.053148808
  0
VERTEX
  8
0
 62
7
  6
CONTINUOUS
 10
78.3048415059
 20
70.2662240399
  0
VERTEX
  8
0
 62
7
  6
CONTINUOUS
 10
78.404530498
 20
70.3874315093
  0
VERTEX
  8
0
 62
7
  6
CONTINUOUS
 10
78.6354531113
 20
70.6451073247
  0
SEQEND
  0
POLYLINE
  8
0
 62
7
  6
CONTINUOUS
 66
1
 70
0
  0
VERTEX
  8
0
 62
7
  6
CONTINUOUS
 10
82.5044981466
 20
83.261362411
  0
VERTEX
  8
0
 62
7
  6
CONTINUOUS
 10
82.5289704042
 20
83.2743039832
  0
VERTEX
  8
0
 62
7
  6
CONTINUOUS
 10
82.5537610228
 20
83.2872460327
  0
VERTEX
  8
0
 62
7
  6
CONTINUOUS
 10
82.5788695817
 20
83.3001883406
  0
SEQEND
  0
POLYLINE
  8
0
 62
7
  6
CONTINUOUS
 66
1
 70
0
  0
VERTEX
  8
0
 62
7
  6
CONTINUOUS
 10
82.5044981466
 20
83.261362411
  0
VERTEX
  8
0
 62
7
  6
CONTINUOUS
 10
82.4072320527
 20
83.2163967789
  0
VERTEX
  8
0
 62
7
  6
CONTINUOUS
 10
82.1394562632
 20
83.1279217813
  0
VERTEX
  8
0
 62
7
  6
CONTINUOUS
 10
81.9714601248
 20
83.0852082049
  0
VERTEX
  8
0
 62
7
  6
CONTINUOUS
 10
81.5751155241
 20
83.0046898749
  0
VERTEX
  8
0
 62
7
  6
CONTINUOUS
 10
81.3505531803
 20
82.9675810159
  0
SEQEND
  0
POLYLINE
  8
0
 62
7
  6
CONTINUOUS
 66
1
 70
0
  0
VERTEX
  8
0
 62
7
  6
CONTINUOUS
 10
77.9893369704
 20
83.3001883406
  0
VERTEX
  8
0
 62
7
  6
CONTINUOUS
 10
77.9275280542
 20
83.2743039843
  0
VERTEX
  8
0
 62
7
  6
CONTINUOUS
 10
77.8961605534
 20
83.261362411
  0
SEQEND
  0
POLYLINE
  8
0
 62
7
  6
CONTINUOUS
 66
1
 70
0
  0
VERTEX
  8
0
 62
7
  6
CONTINUOUS
 10
77.9893369704
 20
83.3001883406
  0
VERTEX
  8
0
 62
7
  6
CONTINUOUS
 10
78.008704263
 20
83.3070205959
  0
VERTEX
  8
0
 62
7
  6
CONTINUOUS
 10
78.0280652098
 20
83.3111300326
  0
VERTEX
  8
0
 62
7
  6
CONTINUOUS
 10
78.0473408726
 20
83.3125
  0
SEQEND
  0
LINE
  8
0
 62
7
  6
CONTINUOUS
 10
148.9894819765
 20
69.3248116594
 11
149.1392604759
 21
69.363637589
  0
POLYLINE
  8
0
 62
7
  6
CONTINUOUS
 66
1
 70
0
  0
VERTEX
  8
0
 62
7
  6
CONTINUOUS
 10
152.896011702
 20
69.363637589
  0
VERTEX
  8
0
 62
7
  6
CONTINUOUS
 10
153.0785200757
 20
69.4086032211
  0
VERTEX
  8
0
 62
7
  6
CONTINUOUS
 10
153.3777997081
 20
69.4970782187
  0
VERTEX
  8
0
 62
7
  6
CONTINUOUS
 10
153.4918640887
 20
69.5397917951
  0
VERTEX
  8
0
 62
7
  6
CONTINUOUS
 10
153.6438898504
 20
69.6203101251
  0
VERTEX
  8
0
 62
7
  6
CONTINUOUS
 10
153.6806042506
 20
69.6574189841
  0
SEQEND
  0
LINE
  8
0
 62
7
  6
CONTINUOUS
 10
152.896011702
 20
69.363637589
 11
152.7309032409
 21
69.3248116594
  0
POLYLINE
  8
0
 62
7
  6
CONTINUOUS
 66
1
 70
0
  0
VERTEX
  8
0
 62
7
  6
CONTINUOUS
 10
152.7309032409
 20
69.3248116594
  0
VERTEX
  8
0
 62
7
  6
CONTINUOUS
 10
152.6962330241
 20
69.3179786719
  0
VERTEX
  8
0
 62
7
  6
CONTINUOUS
 10
152.6614593165
 20
69.3138699988
  0
VERTEX
  8
0
 62
7
  6
CONTINUOUS
 10
152.6267072164
 20
69.3125
  0
SEQEND
  0
LINE
  8
0
 62
7
  6
CONTINUOUS
 10
165.6374735942
 20
69.3248116594
 11
165.8445936604
 21
69.363637589
  0
POLYLINE
  8
0
 62
7
  6
CONTINUOUS
 66
1
 70
0
  0
VERTEX
  8
0
 62
7
  6
CONTINUOUS
 10
168.2966388778
 20
69.363637589
  0
VERTEX
  8
0
 62
7
  6
CONTINUOUS
 10
168.5425931233
 20
69.4086032211
  0
VERTEX
  8
0
 62
7
  6
CONTINUOUS
 10
168.9886742827
 20
69.4970782187
  0
VERTEX
  8
0
 62
7
  6
CONTINUOUS
 10
169.1847303671
 20
69.5397917951
  0
VERTEX
  8
0
 62
7
  6
CONTINUOUS
 10
169.5141363923
 20
69.6203101251
  0
VERTEX
  8
0
 62
7
  6
CONTINUOUS
 10
169.6445730637
 20
69.6574189841
  0
SEQEND
  0
LINE
  8
0
 62
7
  6
CONTINUOUS
 10
168.2966388778
 20
69.363637589
 11
168.0795128897
 21
69.3248116594
  0
POLYLINE
  8
0
 62
7
  6
CONTINUOUS
 66
1
 70
0
  0
VERTEX
  8
0
 62
7
  6
CONTINUOUS
 10
150.7613380722
 20
69.6574189841
  0
VERTEX
  8
0
 62
7
  6
CONTINUOUS
 10
150.8934294301
 20
69.6804419293
  0
VERTEX
  8
0
 62
7
  6
CONTINUOUS
 10
151.1696691551
 20
69.7635495688
  0
VERTEX
  8
0
 62
7
  6
CONTINUOUS
 10
151.3065663046
 20
69.8221253982
  0
VERTEX
  8
0
 62
7
  6
CONTINUOUS
 10
151.5647216188
 20
69.9682728868
  0
VERTEX
  8
0
 62
7
  6
CONTINUOUS
 10
151.6803320998
 20
70.053148808
  0
SEQEND
  0
POLYLINE
  8
0
 62
7
  6
CONTINUOUS
 66
1
 70
0
  0
VERTEX
  8
0
 62
7
  6
CONTINUOUS
 10
167.7391573893
 20
69.6574189841
  0
VERTEX
  8
0
 62
7
  6
CONTINUOUS
 10
167.8740934809
 20
69.6804419293
  0
VERTEX
  8
0
 62
7
  6
CONTINUOUS
 10
168.1494588828
 20
69.7635495688
  0
VERTEX
  8
0
 62
7
  6
CONTINUOUS
 10
168.2826053227
 20
69.8221253982
  0
VERTEX
  8
0
 62
7
  6
CONTINUOUS
 10
168.52783657
 20
69.9682728868
  0
VERTEX
  8
0
 62
7
  6
CONTINUOUS
 10
168.6351935024
 20
70.053148808
  0
SEQEND
  0
POLYLINE
  8
0
 62
7
  6
CONTINUOUS
 66
1
 70
0
  0
VERTEX
  8
0
 62
7
  6
CONTINUOUS
 10
176.3177562029
 20
69.4086032211
  0
VERTEX
  8
0
 62
7
  6
CONTINUOUS
 10
176.8568349181
 20
69.4970782187
  0
VERTEX
  8
0
 62
7
  6
CONTINUOUS
 10
177.1112354491
 20
69.5397917951
  0
VERTEX
  8
0
 62
7
  6
CONTINUOUS
 10
177.5782905096
 20
69.6203101251
  0
VERTEX
  8
0
 62
7
  6
CONTINUOUS
 10
177.7867168645
 20
69.6574189841
  0
SEQEND
  0
LINE
  8
0
 62
7
  6
CONTINUOUS
 10
176.3177562029
 20
69.4086032211
 11
175.7950668811
 21
69.3248116594
  0
POLYLINE
  8
0
 62
7
  6
CONTINUOUS
 66
1
 70
0
  0
VERTEX
  8
0
 62
7
  6
CONTINUOUS
 10
168.0795128897
 20
69.3248116594
  0
VERTEX
  8
0
 62
7
  6
CONTINUOUS
 10
168.0337240801
 20
69.3179786719
  0
VERTEX
  8
0
 62
7
  6
CONTINUOUS
 10
167.9877290209
 20
69.3138699988
  0
VERTEX
  8
0
 62
7
  6
CONTINUOUS
 10
167.9416923212
 20
69.3125
  0
SEQEND
  0
POLYLINE
  8
0
 62
7
  6
CONTINUOUS
 66
1
 70
0
  0
VERTEX
  8
0
 62
7
  6
CONTINUOUS
 10
177.1249729454
 20
69.6574189841
  0
VERTEX
  8
0
 62
7
  6
CONTINUOUS
 10
176.8636460729
 20
69.6203029239
  0
VERTEX
  8
0
 62
7
  6
CONTINUOUS
 10
176.3155304052
 20
69.5398224602
  0
VERTEX
  8
0
 62
7
  6
CONTINUOUS
 10
176.033532292
 20
69.4971190535
  0
VERTEX
  8
0
 62
7
  6
CONTINUOUS
 10
175.46637661
 20
69.4086297503
  0
VERTEX
  8
0
 62
7
  6
CONTINUOUS
 10
174.9469555342
 20
69.3248116594
  0
SEQEND
  0
POLYLINE
  8
0
 62
7
  6
CONTINUOUS
 66
1
 70
0
  0
VERTEX
  8
0
 62
7
  6
CONTINUOUS
 10
175.7950668811
 20
69.3248116594
  0
VERTEX
  8
0
 62
7
  6
CONTINUOUS
 10
175.7436822848
 20
69.3179786719
  0
VERTEX
  8
0
 62
7
  6
CONTINUOUS
 10
175.6920135571
 20
69.3138699988
  0
VERTEX
  8
0
 62
7
  6
CONTINUOUS
 10
175.6402449631
 20
69.3125
  0
SEQEND
  0
POLYLINE
  8
0
 62
7
  6
CONTINUOUS
 66
1
 70
0
  0
VERTEX
  8
0
 62
7
  6
CONTINUOUS
 10
123.3872747785
 20
61.3125
  0
VERTEX
  8
0
 62
7
  6
CONTINUOUS
 10
123.6140513526
 20
61.342341048
  0
VERTEX
  8
0
 62
7
  6
CONTINUOUS
 10
123.811081421
 20
61.4258576687
  0
VERTEX
  8
0
 62
7
  6
CONTINUOUS
 10
123.9740599094
 20
61.5537632111
  0
VERTEX
  8
0
 62
7
  6
CONTINUOUS
 10
124.0999438805
 20
61.715051048
  0
VERTEX
  8
0
 62
7
  6
CONTINUOUS
 10
124.1894984714
 20
61.9012477614
  0
VERTEX
  8
0
 62
7
  6
CONTINUOUS
 10
124.2427521527
 20
62.1026843897
  0
VERTEX
  8
0
 62
7
  6
CONTINUOUS
 10
124.2605115964
 20
62.3125
  0
SEQEND
  0
POLYLINE
  8
0
 62
7
  6
CONTINUOUS
 66
1
 70
0
  0
VERTEX
  8
0
 62
7
  6
CONTINUOUS
 10
167.7391573893
 20
69.6574189841
  0
VERTEX
  8
0
 62
7
  6
CONTINUOUS
 10
167.4564907961
 20
69.6203029239
  0
VERTEX
  8
0
 62
7
  6
CONTINUOUS
 10
166.8932033084
 20
69.5398224602
  0
VERTEX
  8
0
 62
7
  6
CONTINUOUS
 10
166.6175567387
 20
69.4971190535
  0
VERTEX
  8
0
 62
7
  6
CONTINUOUS
 10
166.0908126532
 20
69.4086297503
  0
VERTEX
  8
0
 62
7
  6
CONTINUOUS
 10
165.8445936604
 20
69.363637589
  0
SEQEND
  0
POLYLINE
  8
0
 62
7
  6
CONTINUOUS
 66
1
 70
0
  0
VERTEX
  8
0
 62
7
  6
CONTINUOUS
 10
143.5863235714
 20
61.3125
  0
VERTEX
  8
0
 62
7
  6
CONTINUOUS
 10
143.8627560293
 20
61.342341048
  0
VERTEX
  8
0
 62
7
  6
CONTINUOUS
 10
144.1061407963
 20
61.4258576687
  0
VERTEX
  8
0
 62
7
  6
CONTINUOUS
 10
144.3098769209
 20
61.5537632111
  0
VERTEX
  8
0
 62
7
  6
CONTINUOUS
 10
144.4688301071
 20
61.715051048
  0
VERTEX
  8
0
 62
7
  6
CONTINUOUS
 10
144.5827954783
 20
61.9012477614
  0
VERTEX
  8
0
 62
7
  6
CONTINUOUS
 10
144.6509269211
 20
62.1026843897
  0
VERTEX
  8
0
 62
7
  6
CONTINUOUS
 10
144.673709289
 20
62.3125
  0
SEQEND
  0
LINE
  8
0
 62
7
  6
CONTINUOUS
 10
169.4128212635
 20
61.3125
 11
40.1770224865
 21
61.3125
  0
LINE
  8
CURVE
 62
8
  6
PHANTOM
 10
177.9313070109
 20
61.3125
 11
31.6585367391
 21
61.3125
  0
POLYLINE
  8
0
 62
7
  6
CONTINUOUS
 66
1
 70
0
  0
VERTEX
  8
0
 62
7
  6
CONTINUOUS
 10
34.6428882158
 20
69.3248116594
  0
VERTEX
  8
0
 62
7
  6
CONTINUOUS
 10
34.6936708581
 20
69.3179786719
  0
VERTEX
  8
0
 62
7
  6
CONTINUOUS
 10
34.7447812433
 20
69.3138699988
  0
VERTEX
  8
0
 62
7
  6
CONTINUOUS
 10
34.796037675
 20
69.3125
  0
SEQEND
  0
POLYLINE
  8
0
 62
7
  6
CONTINUOUS
 66
1
 70
0
  0
VERTEX
  8
0
 62
7
  6
CONTINUOUS
 10
43.9523701558
 20
69.3248116594
  0
VERTEX
  8
0
 62
7
  6
CONTINUOUS
 10
43.9964257079
 20
69.3179786719
  0
VERTEX
  8
0
 62
7
  6
CONTINUOUS
 10
44.0408130838
 20
69.3138699988
  0
VERTEX
  8
0
 62
7
  6
CONTINUOUS
 10
44.0853750711
 20
69.3125
  0
SEQEND
  0
POLYLINE
  8
0
 62
7
  6
CONTINUOUS
 66
1
 70
0
  0
VERTEX
  8
0
 62
7
  6
CONTINUOUS
 10
34.123633852
 20
69.4086032211
  0
VERTEX
  8
0
 62
7
  6
CONTINUOUS
 10
33.5565784301
 20
69.4970782187
  0
VERTEX
  8
0
 62
7
  6
CONTINUOUS
 10
33.2745179111
 20
69.5397917951
  0
VERTEX
  8
0
 62
7
  6
CONTINUOUS
 10
32.7261475486
 20
69.6203101251
  0
VERTEX
  8
0
 62
7
  6
CONTINUOUS
 10
32.4648708046
 20
69.6574189841
  0
SEQEND
  0
LINE
  8
0
 62
7
  6
CONTINUOUS
 10
34.123633852
 20
69.4086032211
 11
34.6428882158
 21
69.3248116594
  0
POLYLINE
  8
0
 62
7
  6
CONTINUOUS
 66
1
 70
0
  0
VERTEX
  8
0
 62
7
  6
CONTINUOUS
 10
31.8031268855
 20
69.6574189841
  0
VERTEX
  8
0
 62
7
  6
CONTINUOUS
 10
32.0115941597
 20
69.6203029239
  0
VERTEX
  8
0
 62
7
  6
CONTINUOUS
 10
32.4784271684
 20
69.5398224602
  0
VERTEX
  8
0
 62
7
  6
CONTINUOUS
 10
32.7327636909
 20
69.4971190535
  0
VERTEX
  8
0
 62
7
  6
CONTINUOUS
 10
33.2719236237
 20
69.4086297503
  0
VERTEX
  8
0
 62
7
  6
CONTINUOUS
 10
33.7947768689
 20
69.3248116594
  0
SEQEND
  0
LINE
  8
0
 62
7
  6
CONTINUOUS
 10
41.5103308603
 20
69.3248116594
 11
41.2932048722
 21
69.363637589
  0
POLYLINE
  8
0
 62
7
  6
CONTINUOUS
 66
1
 70
0
  0
VERTEX
  8
0
 62
7
  6
CONTINUOUS
 10
43.7452500896
 20
69.363637589
  0
VERTEX
  8
0
 62
7
  6
CONTINUOUS
 10
43.4991804896
 20
69.4086032211
  0
VERTEX
  8
0
 62
7
  6
CONTINUOUS
 10
42.9725436138
 20
69.4970782187
  0
VERTEX
  8
0
 62
7
  6
CONTINUOUS
 10
42.6968437681
 20
69.5397917951
  0
VERTEX
  8
0
 62
7
  6
CONTINUOUS
 10
42.1332996624
 20
69.6203101251
  0
VERTEX
  8
0
 62
7
  6
CONTINUOUS
 10
41.8506863607
 20
69.6574189841
  0
SEQEND
  0
LINE
  8
0
 62
7
  6
CONTINUOUS
 10
43.7452500896
 20
69.363637589
 11
43.9523701558
 21
69.3248116594
  0
POLYLINE
  8
0
 62
7
  6
CONTINUOUS
 66
1
 70
0
  0
VERTEX
  8
0
 62
7
  6
CONTINUOUS
 10
60.6003617735
 20
69.3248116594
  0
VERTEX
  8
0
 62
7
  6
CONTINUOUS
 10
60.6323764857
 20
69.3179786719
  0
VERTEX
  8
0
 62
7
  6
CONTINUOUS
 10
60.6646870797
 20
69.3138699988
  0
VERTEX
  8
0
 62
7
  6
CONTINUOUS
 10
60.6971797893
 20
69.3125
  0
SEQEND
  0
LINE
  8
0
 62
7
  6
CONTINUOUS
 10
56.8589405091
 20
69.3248116594
 11
56.693832048
 21
69.363637589
  0
POLYLINE
  8
0
 62
7
  6
CONTINUOUS
 66
1
 70
0
  0
VERTEX
  8
0
 62
7
  6
CONTINUOUS
 10
60.4505832741
 20
69.363637589
  0
VERTEX
  8
0
 62
7
  6
CONTINUOUS
 10
60.2678981671
 20
69.4086032211
  0
VERTEX
  8
0
 62
7
  6
CONTINUOUS
 10
59.8452000168
 20
69.4970782187
  0
VERTEX
  8
0
 62
7
  6
CONTINUOUS
 10
59.6091143148
 20
69.5397917951
  0
VERTEX
  8
0
 62
7
  6
CONTINUOUS
 10
59.0983682021
 20
69.6203101251
  0
VERTEX
  8
0
 62
7
  6
CONTINUOUS
 10
58.8285056778
 20
69.6574189841
  0
SEQEND
  0
LINE
  8
0
 62
7
  6
CONTINUOUS
 10
60.4505832741
 20
69.363637589
 11
60.6003617735
 21
69.3248116594
  0
POLYLINE
  8
0
 62
7
  6
CONTINUOUS
 66
1
 70
0
  0
VERTEX
  8
0
 62
7
  6
CONTINUOUS
 10
77.9893369704
 20
69.3248116594
  0
VERTEX
  8
0
 62
7
  6
CONTINUOUS
 10
77.9585870388
 20
69.3377539651
  0
VERTEX
  8
0
 62
7
  6
CONTINUOUS
 10
77.8961605534
 20
69.363637589
  0
SEQEND
  0
POLYLINE
  8
0
 62
7
  6
CONTINUOUS
 66
1
 70
0
  0
VERTEX
  8
0
 62
7
  6
CONTINUOUS
 10
82.5788695817
 20
69.3248116594
  0
VERTEX
  8
0
 62
7
  6
CONTINUOUS
 10
82.5949820072
 20
69.3179786719
  0
VERTEX
  8
0
 62
7
  6
CONTINUOUS
 10
82.6113186848
 20
69.3138699988
  0
VERTEX
  8
0
 62
7
  6
CONTINUOUS
 10
82.6278230164
 20
69.3125
  0
SEQEND
  0
POLYLINE
  8
0
 62
7
  6
CONTINUOUS
 66
1
 70
0
  0
VERTEX
  8
0
 62
7
  6
CONTINUOUS
 10
82.5044981466
 20
69.363637589
  0
VERTEX
  8
0
 62
7
  6
CONTINUOUS
 10
82.4072320527
 20
69.4086032211
  0
VERTEX
  8
0
 62
7
  6
CONTINUOUS
 10
82.1394562632
 20
69.4970782187
  0
VERTEX
  8
0
 62
7
  6
CONTINUOUS
 10
81.9714601248
 20
69.5397917951
  0
VERTEX
  8
0
 62
7
  6
CONTINUOUS
 10
81.5751155241
 20
69.6203101251
  0
VERTEX
  8
0
 62
7
  6
CONTINUOUS
 10
81.3505531803
 20
69.6574189841
  0
SEQEND
  0
POLYLINE
  8
0
 62
7
  6
CONTINUOUS
 66
1
 70
0
  0
VERTEX
  8
0
 62
7
  6
CONTINUOUS
 10
82.5044981466
 20
69.363637589
  0
VERTEX
  8
0
 62
7
  6
CONTINUOUS
 10
82.5289704042
 20
69.3506960168
  0
VERTEX
  8
0
 62
7
  6
CONTINUOUS
 10
82.5537610228
 20
69.3377539673
  0
VERTEX
  8
0
 62
7
  6
CONTINUOUS
 10
82.5788695817
 20
69.3248116594
  0
SEQEND
  0
POLYLINE
  8
0
 62
7
  6
CONTINUOUS
 66
1
 70
0
  0
VERTEX
  8
0
 62
7
  6
CONTINUOUS
 10
78.6354531113
 20
81.9798926753
  0
VERTEX
  8
0
 62
7
  6
CONTINUOUS
 10
78.4045852988
 20
82.2375038373
  0
VERTEX
  8
0
 62
7
  6
CONTINUOUS
 10
78.3047994617
 20
82.3588287673
  0
SEQEND
  0
POLYLINE
  8
0
 62
7
  6
CONTINUOUS
 66
1
 70
0
  0
VERTEX
  8
0
 62
7
  6
CONTINUOUS
 10
78.3047994617
 20
82.3588287673
  0
VERTEX
  8
0
 62
7
  6
CONTINUOUS
 10
78.0567544193
 20
82.6940197217
  0
VERTEX
  8
0
 62
7
  6
CONTINUOUS
 10
77.96981705
 20
82.7959094062
  0
VERTEX
  8
0
 62
7
  6
CONTINUOUS
 10
77.9284727861
 20
82.8394951234
  0
VERTEX
  8
0
 62
7
  6
CONTINUOUS
 10
77.8480029475
 20
82.914176402
  0
VERTEX
  8
0
 62
7
  6
CONTINUOUS
 10
77.7695430828
 20
82.9675810159
  0
SEQEND
  0
LINE
  8
0
 62
7
  6
CONTINUOUS
 10
94.1515068188
 20
91.3125
 11
94.1515068188
 21
61.3125
  0
POLYLINE
  8
0
 62
7
  6
CONTINUOUS
 66
1
 70
0
  0
VERTEX
  8
0
 62
7
  6
CONTINUOUS
 10
128.2392905697
 20
69.6574189841
  0
VERTEX
  8
0
 62
7
  6
CONTINUOUS
 10
128.3526050267
 20
69.6804419293
  0
VERTEX
  8
0
 62
7
  6
CONTINUOUS
 10
128.5964004872
 20
69.7635495688
  0
VERTEX
  8
0
 62
7
  6
CONTINUOUS
 10
128.7205365295
 20
69.8221253982
  0
VERTEX
  8
0
 62
7
  6
CONTINUOUS
 10
128.9604785697
 20
69.9682728868
  0
VERTEX
  8
0
 62
7
  6
CONTINUOUS
 10
129.0703982692
 20
70.053148808
  0
SEQEND
  0
POLYLINE
  8
0
 62
7
  6
CONTINUOUS
 66
1
 70
0
  0
VERTEX
  8
0
 62
7
  6
CONTINUOUS
 10
100.9457138315
 20
61.3125
  0
VERTEX
  8
0
 62
7
  6
CONTINUOUS
 10
101.09548192
 20
61.342341048
  0
VERTEX
  8
0
 62
7
  6
CONTINUOUS
 10
101.2223925559
 20
61.4258576687
  0
VERTEX
  8
0
 62
7
  6
CONTINUOUS
 10
101.3249557971
 20
61.5537632111
  0
VERTEX
  8
0
 62
7
  6
CONTINUOUS
 10
101.4025870882
 20
61.715051048
  0
VERTEX
  8
0
 62
7
  6
CONTINUOUS
 10
101.4569292934
 20
61.9012477614
  0
VERTEX
  8
0
 62
7
  6
CONTINUOUS
 10
101.4888820334
 20
62.1026843897
  0
VERTEX
  8
0
 62
7
  6
CONTINUOUS
 10
101.4994765019
 20
62.3125
  0
SEQEND
  0
POLYLINE
  8
0
 62
7
  6
CONTINUOUS
 66
1
 70
0
  0
VERTEX
  8
0
 62
7
  6
CONTINUOUS
 10
128.2392905697
 20
69.6574189841
  0
VERTEX
  8
0
 62
7
  6
CONTINUOUS
 10
128.014687498
 20
69.6203029239
  0
VERTEX
  8
0
 62
7
  6
CONTINUOUS
 10
127.6185140069
 20
69.5398224602
  0
VERTEX
  8
0
 62
7
  6
CONTINUOUS
 10
127.4505354836
 20
69.4971190535
  0
VERTEX
  8
0
 62
7
  6
CONTINUOUS
 10
127.182676657
 20
69.4086297503
  0
VERTEX
  8
0
 62
7
  6
CONTINUOUS
 10
127.0853456034
 20
69.363637589
  0
SEQEND
  0
POLYLINE
  8
0
 62
7
  6
CONTINUOUS
 66
1
 70
0
  0
VERTEX
  8
0
 62
7
  6
CONTINUOUS
 10
150.7613380722
 20
69.6574189841
  0
VERTEX
  8
0
 62
7
  6
CONTINUOUS
 10
150.4914255212
 20
69.6203029239
  0
VERTEX
  8
0
 62
7
  6
CONTINUOUS
 10
149.9809069976
 20
69.5398224602
  0
VERTEX
  8
0
 62
7
  6
CONTINUOUS
 10
149.744859016
 20
69.4971190535
  0
VERTEX
  8
0
 62
7
  6
CONTINUOUS
 10
149.3220596374
 20
69.4086297503
  0
VERTEX
  8
0
 62
7
  6
CONTINUOUS
 10
149.1392604759
 20
69.363637589
  0
SEQEND
  0
LINE
  8
0
 62
9
  6
CONTINUOUS
 10
108.0903672481
 20
62.3125
 11
101.4994765019
 21
62.3125
  0
LINE
  8
0
 62
9
  6
CONTINUOUS
 10
85.3293321536
 20
62.3125
 11
79.135920755
 21
62.3125
  0
LINE
  8
0
 62
9
  6
CONTINUOUS
 10
64.916134461
 20
62.3125
 11
59.8672192297
 21
62.3125
  0
LINE
  8
0
 62
9
  6
CONTINUOUS
 10
49.3129070788
 20
62.3125
 11
46.0174617057
 21
62.3125
  0
LINE
  8
0
 62
9
  6
CONTINUOUS
 10
40.4016295083
 20
62.3125
 11
39.2571333411
 21
62.3125
  0
LINE
  8
0
 62
9
  6
CONTINUOUS
 10
124.2605115964
 20
62.3125
 11
130.453922995
 21
62.3125
  0
LINE
  8
0
 62
9
  6
CONTINUOUS
 10
144.673709289
 20
62.3125
 11
149.7226245203
 21
62.3125
  0
LINE
  8
0
 62
9
  6
CONTINUOUS
 10
160.2769366712
 20
62.3125
 11
163.5723820443
 21
62.3125
  0
LINE
  8
0
 62
9
  6
CONTINUOUS
 10
169.1882142417
 20
62.3125
 11
170.3327104089
 21
62.3125
  0
POLYLINE
  8
0
 62
7
  6
CONTINUOUS
 66
1
 70
0
  0
VERTEX
  8
0
 62
7
  6
CONTINUOUS
 10
77.7695430828
 20
69.6574189841
  0
VERTEX
  8
0
 62
7
  6
CONTINUOUS
 10
77.7080978059
 20
69.6203029239
  0
VERTEX
  8
0
 62
7
  6
CONTINUOUS
 10
77.6639684012
 20
69.5474325009
  0
SEQEND
  0
POLYLINE
  8
0
 62
7
  6
CONTINUOUS
 66
1
 70
0
  0
VERTEX
  8
0
 62
7
  6
CONTINUOUS
 10
77.7695430828
 20
69.6574189841
  0
VERTEX
  8
0
 62
7
  6
CONTINUOUS
 10
77.8082148114
 20
69.6804419293
  0
VERTEX
  8
0
 62
7
  6
CONTINUOUS
 10
77.906365725
 20
69.7635495688
  0
VERTEX
  8
0
 62
7
  6
CONTINUOUS
 10
77.9634067359
 20
69.8221253982
  0
VERTEX
  8
0
 62
7
  6
CONTINUOUS
 10
78.0857880218
 20
69.9682728868
  0
VERTEX
  8
0
 62
7
  6
CONTINUOUS
 10
78.1468378393
 20
70.053148808
  0
SEQEND
  0
POLYLINE
  8
0
 62
7
  6
CONTINUOUS
 66
1
 70
0
  0
VERTEX
  8
0
 62
7
  6
CONTINUOUS
 10
106.7003375494
 20
82.9675810159
  0
VERTEX
  8
0
 62
7
  6
CONTINUOUS
 10
106.5420818195
 20
82.9139594076
  0
VERTEX
  8
0
 62
7
  6
CONTINUOUS
 10
106.3990697939
 20
82.8392167183
  0
VERTEX
  8
0
 62
7
  6
CONTINUOUS
 10
106.3302254521
 20
82.7956650364
  0
VERTEX
  8
0
 62
7
  6
CONTINUOUS
 10
106.1924926256
 20
82.6938711542
  0
VERTEX
  8
0
 62
7
  6
CONTINUOUS
 10
106.0573600324
 20
82.571851192
  0
SEQEND
  0
POLYLINE
  8
0
 62
7
  6
CONTINUOUS
 66
1
 70
0
  0
VERTEX
  8
0
 62
7
  6
CONTINUOUS
 10
102.8895062006
 20
69.6574189841
  0
VERTEX
  8
0
 62
7
  6
CONTINUOUS
 10
102.7373030534
 20
69.6203029239
  0
VERTEX
  8
0
 62
7
  6
CONTINUOUS
 10
102.5032589648
 20
69.5398224602
  0
VERTEX
  8
0
 62
7
  6
CONTINUOUS
 10
102.4236105887
 20
69.4971190535
  0
VERTEX
  8
0
 62
7
  6
CONTINUOUS
 10
102.3430000417
 20
69.4086297503
  0
VERTEX
  8
0
 62
7
  6
CONTINUOUS
 10
102.339569875
 20
69.3859703223
  0
SEQEND
  0
POLYLINE
  8
0
 62
7
  6
CONTINUOUS
 66
1
 70
0
  0
VERTEX
  8
0
 62
7
  6
CONTINUOUS
 10
126.9620207336
 20
69.3125
  0
VERTEX
  8
0
 62
7
  6
CONTINUOUS
 10
126.9785250652
 20
69.3138699988
  0
VERTEX
  8
0
 62
7
  6
CONTINUOUS
 10
126.9948617428
 20
69.3179786719
  0
VERTEX
  8
0
 62
7
  6
CONTINUOUS
 10
127.0109741683
 20
69.3248116594
  0
SEQEND
  0
POLYLINE
  8
0
 62
7
  6
CONTINUOUS
 66
1
 70
0
  0
VERTEX
  8
0
 62
7
  6
CONTINUOUS
 10
148.8926639607
 20
69.3125
  0
VERTEX
  8
0
 62
7
  6
CONTINUOUS
 10
148.9251566703
 20
69.3138699988
  0
VERTEX
  8
0
 62
7
  6
CONTINUOUS
 10
148.9574672643
 20
69.3179786719
  0
VERTEX
  8
0
 62
7
  6
CONTINUOUS
 10
148.9894819765
 20
69.3248116594
  0
SEQEND
  0
POLYLINE
  8
0
 62
7
  6
CONTINUOUS
 66
1
 70
0
  0
VERTEX
  8
0
 62
7
  6
CONTINUOUS
 10
165.5044686789
 20
69.3125
  0
VERTEX
  8
0
 62
7
  6
CONTINUOUS
 10
165.5490306662
 20
69.3138699988
  0
VERTEX
  8
0
 62
7
  6
CONTINUOUS
 10
165.5934180421
 20
69.3179786719
  0
VERTEX
  8
0
 62
7
  6
CONTINUOUS
 10
165.6374735942
 20
69.3248116594
  0
SEQEND
  0
POLYLINE
  8
0
 62
7
  6
CONTINUOUS
 66
1
 70
0
  0
VERTEX
  8
0
 62
7
  6
CONTINUOUS
 10
174.793806075
 20
69.3125
  0
VERTEX
  8
0
 62
7
  6
CONTINUOUS
 10
174.8450625067
 20
69.3138699988
  0
VERTEX
  8
0
 62
7
  6
CONTINUOUS
 10
174.8961728919
 20
69.3179786719
  0
VERTEX
  8
0
 62
7
  6
CONTINUOUS
 10
174.9469555342
 20
69.3248116594
  0
SEQEND
  0
LINE
  8
0
 62
7
  6
CONTINUOUS
 10
107.2321455173
 20
69.3125
 11
102.3576982327
 21
69.3125
  0
LINE
  8
0
 62
7
  6
CONTINUOUS
 10
33.9495987869
 20
69.3125
 11
40.4016295083
 21
69.3125
  0
LINE
  8
0
 62
7
  6
CONTINUOUS
 10
41.6481514288
 20
69.3125
 11
49.3129070788
 21
69.3125
  0
LINE
  8
0
 62
7
  6
CONTINUOUS
 10
56.9631365336
 20
69.3125
 11
64.916134461
 21
69.3125
  0
LINE
  8
0
 62
7
  6
CONTINUOUS
 10
78.0473408726
 20
69.3125
 11
85.3293321536
 21
69.3125
  0
LINE
  8
0
 62
7
  6
CONTINUOUS
 10
101.4994765019
 20
69.3125
 11
102.3528825795
 21
69.3125
  0
LINE
  8
0
 62
7
  6
CONTINUOUS
 10
107.2369611705
 20
69.3125
 11
108.0903672481
 21
69.3125
  0
LINE
  8
0
 62
7
  6
CONTINUOUS
 10
124.2605115964
 20
69.3125
 11
131.5425028774
 21
69.3125
  0
LINE
  8
0
 62
7
  6
CONTINUOUS
 10
144.673709289
 20
69.3125
 11
152.6267072164
 21
69.3125
  0
LINE
  8
0
 62
7
  6
CONTINUOUS
 10
160.2769366712
 20
69.3125
 11
167.9416923212
 21
69.3125
  0
LINE
  8
0
 62
7
  6
CONTINUOUS
 10
169.1882142417
 20
69.3125
 11
175.6402449631
 21
69.3125
  0
LINE
  8
0
 62
9
  6
CONTINUOUS
 10
107.2369611705
 20
69.3248116594
 11
102.3528825795
 21
69.3248116594
  0
LINE
  8
0
 62
9
  6
CONTINUOUS
 10
82.5788695817
 20
69.3248116594
 11
77.9893369704
 21
69.3248116594
  0
LINE
  8
0
 62
9
  6
CONTINUOUS
 10
60.6003617735
 20
69.3248116594
 11
56.8589405091
 21
69.3248116594
  0
LINE
  8
0
 62
9
  6
CONTINUOUS
 10
43.9523701558
 20
69.3248116594
 11
41.5103308603
 21
69.3248116594
  0
LINE
  8
0
 62
9
  6
CONTINUOUS
 10
34.6428882158
 20
69.3248116594
 11
33.7947768689
 21
69.3248116594
  0
LINE
  8
0
 62
9
  6
CONTINUOUS
 10
127.0109741683
 20
69.3248116594
 11
131.6005067796
 21
69.3248116594
  0
LINE
  8
0
 62
9
  6
CONTINUOUS
 10
148.9894819765
 20
69.3248116594
 11
152.7309032409
 21
69.3248116594
  0
LINE
  8
0
 62
9
  6
CONTINUOUS
 10
165.6374735942
 20
69.3248116594
 11
168.0795128897
 21
69.3248116594
  0
LINE
  8
0
 62
9
  6
CONTINUOUS
 10
174.9469555342
 20
69.3248116594
 11
175.7950668811
 21
69.3248116594
  0
LINE
  8
0
 62
9
  6
CONTINUOUS
 10
106.7003375494
 20
69.6574189841
 11
102.8895062006
 21
69.6574189841
  0
LINE
  8
0
 62
9
  6
CONTINUOUS
 10
81.3505531803
 20
69.6574189841
 11
77.7695430828
 21
69.6574189841
  0
LINE
  8
0
 62
9
  6
CONTINUOUS
 10
58.8285056778
 20
69.6574189841
 11
55.9092394994
 21
69.6574189841
  0
LINE
  8
0
 62
9
  6
CONTINUOUS
 10
41.8506863607
 20
69.6574189841
 11
39.9452706863
 21
69.6574189841
  0
LINE
  8
0
 62
9
  6
CONTINUOUS
 10
32.4648708046
 20
69.6574189841
 11
31.8031268855
 21
69.6574189841
  0
LINE
  8
0
 62
9
  6
CONTINUOUS
 10
128.2392905697
 20
69.6574189841
 11
131.8203006672
 21
69.6574189841
  0
LINE
  8
0
 62
9
  6
CONTINUOUS
 10
150.7613380722
 20
69.6574189841
 11
153.6806042506
 21
69.6574189841
  0
LINE
  8
0
 62
9
  6
CONTINUOUS
 10
167.7391573893
 20
69.6574189841
 11
169.6445730637
 21
69.6574189841
  0
LINE
  8
0
 62
9
  6
CONTINUOUS
 10
177.1249729454
 20
69.6574189841
 11
177.7867168645
 21
69.6574189841
  0
LINE
  8
0
 62
9
  6
CONTINUOUS
 10
178.4240453578
 20
70.6451073247
 11
178.1916907454
 21
70.6451073247
  0
LINE
  8
0
 62
9
  6
CONTINUOUS
 10
169.7756410281
 20
70.6451073247
 11
169.1066025863
 21
70.6451073247
  0
LINE
  8
0
 62
9
  6
CONTINUOUS
 10
153.2896029552
 20
70.6451073247
 11
152.2645765941
 21
70.6451073247
  0
LINE
  8
0
 62
9
  6
CONTINUOUS
 10
130.9543906387
 20
70.6451073247
 11
129.6970096653
 21
70.6451073247
  0
LINE
  8
0
 62
9
  6
CONTINUOUS
 10
79.8928340847
 20
70.6451073247
 11
78.6354531113
 21
70.6451073247
  0
LINE
  8
0
 62
9
  6
CONTINUOUS
 10
57.3252671559
 20
70.6451073247
 11
56.3002407948
 21
70.6451073247
  0
LINE
  8
0
 62
9
  6
CONTINUOUS
 10
40.4832411637
 20
70.6451073247
 11
39.8142027219
 21
70.6451073247
  0
LINE
  8
0
 62
9
  6
CONTINUOUS
 10
31.3981530046
 20
70.6451073247
 11
31.1657983922
 21
70.6451073247
  0
LINE
  8
0
 62
9
  6
CONTINUOUS
 10
104.1258834332
 20
70.6451073247
 11
105.4639603168
 21
70.6451073247
  0
POLYLINE
  8
0
 62
7
  6
CONTINUOUS
 66
1
 70
0
  0
VERTEX
  8
0
 62
7
  6
CONTINUOUS
 10
33.9495987869
 20
69.3125
  0
VERTEX
  8
0
 62
7
  6
CONTINUOUS
 10
33.8978301929
 20
69.3138699988
  0
VERTEX
  8
0
 62
7
  6
CONTINUOUS
 10
33.8461614652
 20
69.3179786719
  0
VERTEX
  8
0
 62
7
  6
CONTINUOUS
 10
33.7947768689
 20
69.3248116594
  0
SEQEND
  0
POLYLINE
  8
0
 62
7
  6
CONTINUOUS
 66
1
 70
0
  0
VERTEX
  8
0
 62
7
  6
CONTINUOUS
 10
41.6481514288
 20
69.3125
  0
VERTEX
  8
0
 62
7
  6
CONTINUOUS
 10
41.6021147291
 20
69.3138699988
  0
VERTEX
  8
0
 62
7
  6
CONTINUOUS
 10
41.5561196699
 20
69.3179786719
  0
VERTEX
  8
0
 62
7
  6
CONTINUOUS
 10
41.5103308603
 20
69.3248116594
  0
SEQEND
  0
POLYLINE
  8
0
 62
7
  6
CONTINUOUS
 66
1
 70
0
  0
VERTEX
  8
0
 62
7
  6
CONTINUOUS
 10
56.9631365336
 20
69.3125
  0
VERTEX
  8
0
 62
7
  6
CONTINUOUS
 10
56.9283844335
 20
69.3138699988
  0
VERTEX
  8
0
 62
7
  6
CONTINUOUS
 10
56.8936107259
 20
69.3179786719
  0
VERTEX
  8
0
 62
7
  6
CONTINUOUS
 10
56.8589405091
 20
69.3248116594
  0
SEQEND
  0
POLYLINE
  8
0
 62
7
  6
CONTINUOUS
 66
1
 70
0
  0
VERTEX
  8
0
 62
7
  6
CONTINUOUS
 10
78.0473408726
 20
69.3125
  0
VERTEX
  8
0
 62
7
  6
CONTINUOUS
 10
78.0280649882
 20
69.3138699988
  0
VERTEX
  8
0
 62
7
  6
CONTINUOUS
 10
78.0087068545
 20
69.3179786719
  0
VERTEX
  8
0
 62
7
  6
CONTINUOUS
 10
77.9893369704
 20
69.3248116594
  0
SEQEND
  0
POLYLINE
  8
0
 62
7
  6
CONTINUOUS
 66
1
 70
0
  0
VERTEX
  8
0
 62
7
  6
CONTINUOUS
 10
77.7695430828
 20
82.9675810159
  0
VERTEX
  8
0
 62
7
  6
CONTINUOUS
 10
77.7080978059
 20
83.0046970761
  0
VERTEX
  8
0
 62
7
  6
CONTINUOUS
 10
77.6639684012
 20
83.0775674991
  0
SEQEND
  0
POLYLINE
  8
0
 62
7
  6
CONTINUOUS
 66
1
 70
0
  0
VERTEX
  8
0
 62
7
  6
CONTINUOUS
 10
102.3576982327
 20
69.3125
  0
VERTEX
  8
0
 62
7
  6
CONTINUOUS
 10
102.3562235203
 20
69.3138699988
  0
VERTEX
  8
0
 62
7
  6
CONTINUOUS
 10
102.354615837
 20
69.3179786719
  0
VERTEX
  8
0
 62
7
  6
CONTINUOUS
 10
102.3528825795
 20
69.3248116594
  0
SEQEND
  0
POLYLINE
  8
0
 62
7
  6
CONTINUOUS
 66
1
 70
0
  0
VERTEX
  8
0
 62
7
  6
CONTINUOUS
 10
101.4994765019
 20
90.3125
  0
VERTEX
  8
0
 62
7
  6
CONTINUOUS
 10
101.4888675911
 20
90.5224564727
  0
VERTEX
  8
0
 62
7
  6
CONTINUOUS
 10
101.4569341535
 20
90.7237301401
  0
VERTEX
  8
0
 62
7
  6
CONTINUOUS
 10
101.4025684942
 20
90.9099984563
  0
VERTEX
  8
0
 62
7
  6
CONTINUOUS
 10
101.3249543998
 20
91.0712390626
  0
VERTEX
  8
0
 62
7
  6
CONTINUOUS
 10
101.2223576315
 20
91.1991749564
  0
VERTEX
  8
0
 62
7
  6
CONTINUOUS
 10
101.0955235726
 20
91.2826414788
  0
VERTEX
  8
0
 62
7
  6
CONTINUOUS
 10
100.9457138315
 20
91.3125
  0
SEQEND
  0
LINE
  8
0
 62
7
  6
CONTINUOUS
 10
101.4994765019
 20
69.3125
 11
101.4994765019
 21
62.3125
  0
LINE
  8
0
 62
7
  6
CONTINUOUS
 10
101.4994765019
 20
83.3125
 11
101.4994765019
 21
90.3125
  0
LINE
  8
0
 62
7
  6
CONTINUOUS
 10
102.063246347
 20
83.3125
 11
102.063246347
 21
69.3125
  0
LINE
  8
0
 62
7
  6
CONTINUOUS
 10
102.339569875
 20
83.2390541058
 11
102.339569875
 21
69.3859458942
  0
LINE
  8
0
 62
9
  6
CONTINUOUS
 10
103.5324837176
 20
82.571851192
 11
103.5324837176
 21
70.053148808
  0
LINE
  8
0
 62
9
  6
CONTINUOUS
 10
104.1258834332
 20
81.9798926753
 11
104.1258834332
 21
70.6451073247
  0
LINE
  8
DEFAULT_1
 62
2
  6
CENTER
 10
104.794921875
 20
59.3125
 11
104.794921875
 21
93.3125
  0
LINE
  8
0
 62
9
  6
CONTINUOUS
 10
105.4639603168
 20
81.9798926753
 11
105.4639603168
 21
70.6451073247
  0
LINE
  8
0
 62
7
  6
CONTINUOUS
 10
102.339569875
 20
83.2390296777
 11
102.3428766576
 21
83.261362411
  0
POLYLINE
  8
0
 62
7
  6
CONTINUOUS
 66
1
 70
0
  0
VERTEX
  8
0
 62
7
  6
CONTINUOUS
 10
102.3528825795
 20
83.3001883406
  0
VERTEX
  8
0
 62
7
  6
CONTINUOUS
 10
102.3498808655
 20
83.2872460349
  0
VERTEX
  8
0
 62
7
  6
CONTINUOUS
 10
102.3465455387
 20
83.2743039843
  0
VERTEX
  8
0
 62
7
  6
CONTINUOUS
 10
102.3428766576
 20
83.261362411
  0
SEQEND
  0
POLYLINE
  8
0
 62
7
  6
CONTINUOUS
 66
1
 70
0
  0
VERTEX
  8
0
 62
7
  6
CONTINUOUS
 10
102.3528825795
 20
83.3001883406
  0
VERTEX
  8
0
 62
7
  6
CONTINUOUS
 10
102.3546156134
 20
83.3070205959
  0
VERTEX
  8
0
 62
7
  6
CONTINUOUS
 10
102.3562235379
 20
83.3111300326
  0
VERTEX
  8
0
 62
7
  6
CONTINUOUS
 10
102.3576982327
 20
83.3125
  0
SEQEND
  0
POLYLINE
  8
0
 62
7
  6
CONTINUOUS
 66
1
 70
0
  0
VERTEX
  8
0
 62
7
  6
CONTINUOUS
 10
106.0573600324
 20
82.571851192
  0
VERTEX
  8
0
 62
7
  6
CONTINUOUS
 10
105.7228896576
 20
82.2374551718
  0
VERTEX
  8
0
 62
7
  6
CONTINUOUS
 10
105.4639603168
 20
81.9798926753
  0
SEQEND
  0
POLYLINE
  8
0
 62
7
  6
CONTINUOUS
 66
1
 70
0
  0
VERTEX
  8
0
 62
7
  6
CONTINUOUS
 10
130.6214195672
 20
91.3125
  0
VERTEX
  8
0
 62
7
  6
CONTINUOUS
 10
130.5667097714
 20
91.2826414195
  0
VERTEX
  8
0
 62
7
  6
CONTINUOUS
 10
130.5252491785
 20
91.1991693103
  0
VERTEX
  8
0
 62
7
  6
CONTINUOUS
 10
130.495462439
 20
91.0712337663
  0
VERTEX
  8
0
 62
7
  6
CONTINUOUS
 10
130.4754521559
 20
90.9099965932
  0
VERTEX
  8
0
 62
7
  6
CONTINUOUS
 10
130.4628713259
 20
90.7237286659
  0
VERTEX
  8
0
 62
7
  6
CONTINUOUS
 10
130.4560775588
 20
90.5224541626
  0
VERTEX
  8
0
 62
7
  6
CONTINUOUS
 10
130.453922995
 20
90.3125
  0
SEQEND
  0
POLYLINE
  8
0
 62
7
  6
CONTINUOUS
 66
1
 70
0
  0
VERTEX
  8
0
 62
7
  6
CONTINUOUS
 10
106.0573600324
 20
70.053148808
  0
VERTEX
  8
0
 62
7
  6
CONTINUOUS
 10
106.1484716666
 20
69.9681507221
  0
VERTEX
  8
0
 62
7
  6
CONTINUOUS
 10
106.3413070578
 20
69.8220021406
  0
VERTEX
  8
0
 62
7
  6
CONTINUOUS
 10
106.4376715811
 20
69.7634657833
  0
VERTEX
  8
0
 62
7
  6
CONTINUOUS
 10
106.6195003872
 20
69.6804305535
  0
VERTEX
  8
0
 62
7
  6
CONTINUOUS
 10
106.7003375494
 20
69.6574189841
  0
SEQEND
  0
POLYLINE
  8
0
 62
7
  6
CONTINUOUS
 66
1
 70
0
  0
VERTEX
  8
0
 62
7
  6
CONTINUOUS
 10
105.4639603168
 20
70.6451073247
  0
VERTEX
  8
0
 62
7
  6
CONTINUOUS
 10
105.8444898096
 20
70.2662572856
  0
VERTEX
  8
0
 62
7
  6
CONTINUOUS
 10
106.0573600324
 20
70.053148808
  0
SEQEND
  0
POLYLINE
  8
0
 62
7
  6
CONTINUOUS
 66
1
 70
0
  0
VERTEX
  8
0
 62
7
  6
CONTINUOUS
 10
102.3528825795
 20
69.3248116594
  0
VERTEX
  8
0
 62
7
  6
CONTINUOUS
 10
102.3498808655
 20
69.3377539651
  0
VERTEX
  8
0
 62
7
  6
CONTINUOUS
 10
102.3465455387
 20
69.3506960157
  0
VERTEX
  8
0
 62
7
  6
CONTINUOUS
 10
102.3428766576
 20
69.363637589
  0
SEQEND
  0
LINE
  8
0
 62
7
  6
CONTINUOUS
 10
102.339569875
 20
69.3859703223
 11
102.3428766576
 21
69.363637589
  0
POLYLINE
  8
0
 62
7
  6
CONTINUOUS
 66
1
 70
0
  0
VERTEX
  8
0
 62
7
  6
CONTINUOUS
 10
108.0903672481
 20
62.3125
  0
VERTEX
  8
0
 62
7
  6
CONTINUOUS
 10
108.1009614558
 20
62.1026869346
  0
VERTEX
  8
0
 62
7
  6
CONTINUOUS
 10
108.1329140916
 20
61.901249421
  0
VERTEX
  8
0
 62
7
  6
CONTINUOUS
 10
108.1872560398
 20
61.7150527041
  0
VERTEX
  8
0
 62
7
  6
CONTINUOUS
 10
108.2648851235
 20
61.5537678152
  0
VERTEX
  8
0
 62
7
  6
CONTINUOUS
 10
108.3674454413
 20
61.4258630433
  0
VERTEX
  8
0
 62
7
  6
CONTINUOUS
 10
108.4943612121
 20
61.3423413071
  0
VERTEX
  8
0
 62
7
  6
CONTINUOUS
 10
108.6441299185
 20
61.3125
  0
SEQEND
  0
LINE
  8
0
 62
9
  6
CONTINUOUS
 10
106.0573600324
 20
82.571851192
 11
106.0573600324
 21
70.053148808
  0
LINE
  8
0
 62
7
  6
CONTINUOUS
 10
107.250273875
 20
83.2390541058
 11
107.250273875
 21
69.3859458942
  0
LINE
  8
0
 62
7
  6
CONTINUOUS
 10
107.526597403
 20
83.3125
 11
107.526597403
 21
69.3125
  0
LINE
  8
0
 62
7
  6
CONTINUOUS
 10
108.0903672481
 20
90.3125
 11
108.0903672481
 21
83.3125
  0
LINE
  8
0
 62
7
  6
CONTINUOUS
 10
108.0903672481
 20
69.3125
 11
108.0903672481
 21
62.3125
  0
LINE
  8
0
 62
7
  6
CONTINUOUS
 10
107.2469670924
 20
69.363637589
 11
107.250273875
 21
69.3859702977
  0
POLYLINE
  8
0
 62
7
  6
CONTINUOUS
 66
1
 70
0
  0
VERTEX
  8
0
 62
7
  6
CONTINUOUS
 10
107.250273875
 20
83.2390297023
  0
VERTEX
  8
0
 62
7
  6
CONTINUOUS
 10
107.2468517379
 20
83.2163967789
  0
VERTEX
  8
0
 62
7
  6
CONTINUOUS
 10
107.1662960215
 20
83.1279217813
  0
VERTEX
  8
0
 62
7
  6
CONTINUOUS
 10
107.0866522603
 20
83.0852082049
  0
VERTEX
  8
0
 62
7
  6
CONTINUOUS
 10
106.8525141798
 20
83.0046898749
  0
VERTEX
  8
0
 62
7
  6
CONTINUOUS
 10
106.7003375494
 20
82.9675810159
  0
SEQEND
  0
POLYLINE
  8
0
 62
7
  6
CONTINUOUS
 66
1
 70
0
  0
VERTEX
  8
0
 62
7
  6
CONTINUOUS
 10
107.2369611705
 20
69.3248116594
  0
VERTEX
  8
0
 62
7
  6
CONTINUOUS
 10
107.235227913
 20
69.3179786719
  0
VERTEX
  8
0
 62
7
  6
CONTINUOUS
 10
107.2336202297
 20
69.3138699988
  0
VERTEX
  8
0
 62
7
  6
CONTINUOUS
 10
107.2321455173
 20
69.3125
  0
SEQEND
  0
POLYLINE
  8
0
 62
7
  6
CONTINUOUS
 66
1
 70
0
  0
VERTEX
  8
0
 62
7
  6
CONTINUOUS
 10
107.2469670924
 20
69.363637589
  0
VERTEX
  8
0
 62
7
  6
CONTINUOUS
 10
107.2432982116
 20
69.3506960168
  0
VERTEX
  8
0
 62
7
  6
CONTINUOUS
 10
107.2399628851
 20
69.3377539673
  0
VERTEX
  8
0
 62
7
  6
CONTINUOUS
 10
107.2369611705
 20
69.3248116594
  0
SEQEND
  0
POLYLINE
  8
0
 62
7
  6
CONTINUOUS
 66
1
 70
0
  0
VERTEX
  8
0
 62
7
  6
CONTINUOUS
 10
103.5324837176
 20
70.053148808
  0
VERTEX
  8
0
 62
7
  6
CONTINUOUS
 10
103.8668403645
 20
70.3874315093
  0
VERTEX
  8
0
 62
7
  6
CONTINUOUS
 10
104.1258834332
 20
70.6451073247
  0
SEQEND
  0
POLYLINE
  8
0
 62
7
  6
CONTINUOUS
 66
1
 70
0
  0
VERTEX
  8
0
 62
7
  6
CONTINUOUS
 10
78.9684241828
 20
61.3125
  0
VERTEX
  8
0
 62
7
  6
CONTINUOUS
 10
79.023119544
 20
61.342341048
  0
VERTEX
  8
0
 62
7
  6
CONTINUOUS
 10
79.0646034516
 20
61.4258576687
  0
VERTEX
  8
0
 62
7
  6
CONTINUOUS
 10
79.094380805
 20
61.5537632111
  0
VERTEX
  8
0
 62
7
  6
CONTINUOUS
 10
79.1143959367
 20
61.715051048
  0
VERTEX
  8
0
 62
7
  6
CONTINUOUS
 10
79.1269712844
 20
61.9012477614
  0
VERTEX
  8
0
 62
7
  6
CONTINUOUS
 10
79.1337691109
 20
62.1026843897
  0
VERTEX
  8
0
 62
7
  6
CONTINUOUS
 10
79.135920755
 20
62.3125
  0
SEQEND
  0
LINE
  8
0
 62
9
  6
CONTINUOUS
 10
178.4240453578
 20
81.9798926753
 11
178.1916907454
 21
81.9798926753
  0
LINE
  8
0
 62
9
  6
CONTINUOUS
 10
169.7756410281
 20
81.9798926753
 11
169.1066025863
 21
81.9798926753
  0
LINE
  8
0
 62
9
  6
CONTINUOUS
 10
153.2896029552
 20
81.9798926753
 11
152.2645765941
 21
81.9798926753
  0
LINE
  8
0
 62
9
  6
CONTINUOUS
 10
130.9543906387
 20
81.9798926753
 11
129.6970096653
 21
81.9798926753
  0
LINE
  8
0
 62
9
  6
CONTINUOUS
 10
105.4639603168
 20
81.9798926753
 11
104.1258834332
 21
81.9798926753
  0
LINE
  8
0
 62
9
  6
CONTINUOUS
 10
79.8928340847
 20
81.9798926753
 11
78.6354531113
 21
81.9798926753
  0
LINE
  8
0
 62
9
  6
CONTINUOUS
 10
57.3252671559
 20
81.9798926753
 11
56.3002407948
 21
81.9798926753
  0
LINE
  8
0
 62
9
  6
CONTINUOUS
 10
40.4832411637
 20
81.9798926753
 11
39.8142027219
 21
81.9798926753
  0
LINE
  8
0
 62
9
  6
CONTINUOUS
 10
31.3981530046
 20
81.9798926753
 11
31.1657983922
 21
81.9798926753
  0
POLYLINE
  8
0
 62
7
  6
CONTINUOUS
 66
1
 70
0
  0
VERTEX
  8
0
 62
7
  6
CONTINUOUS
 10
103.5324837176
 20
82.571851192
  0
VERTEX
  8
0
 62
7
  6
CONTINUOUS
 10
103.397168684
 20
82.6940197217
  0
VERTEX
  8
0
 62
7
  6
CONTINUOUS
 10
103.2592519918
 20
82.7959094062
  0
VERTEX
  8
0
 62
7
  6
CONTINUOUS
 10
103.1903081053
 20
82.8394951234
  0
VERTEX
  8
0
 62
7
  6
CONTINUOUS
 10
103.0472722725
 20
82.914176402
  0
VERTEX
  8
0
 62
7
  6
CONTINUOUS
 10
102.8895062006
 20
82.9675810159
  0
SEQEND
  0
POLYLINE
  8
0
 62
7
  6
CONTINUOUS
 66
1
 70
0
  0
VERTEX
  8
0
 62
7
  6
CONTINUOUS
 10
104.1258834332
 20
81.9798926753
  0
VERTEX
  8
0
 62
7
  6
CONTINUOUS
 10
103.7452677626
 20
82.3588287673
  0
VERTEX
  8
0
 62
7
  6
CONTINUOUS
 10
103.5324837176
 20
82.571851192
  0
SEQEND
  0
POLYLINE
  8
0
 62
7
  6
CONTINUOUS
 66
1
 70
0
  0
VERTEX
  8
0
 62
7
  6
CONTINUOUS
 10
107.2469670924
 20
83.261362411
  0
VERTEX
  8
0
 62
7
  6
CONTINUOUS
 10
107.2432982116
 20
83.2743039832
  0
VERTEX
  8
0
 62
7
  6
CONTINUOUS
 10
107.2399628851
 20
83.2872460327
  0
VERTEX
  8
0
 62
7
  6
CONTINUOUS
 10
107.2369611705
 20
83.3001883406
  0
SEQEND
  0
POLYLINE
  8
0
 62
7
  6
CONTINUOUS
 66
1
 70
0
  0
VERTEX
  8
0
 62
7
  6
CONTINUOUS
 10
107.250273875
 20
69.3859702977
  0
VERTEX
  8
0
 62
7
  6
CONTINUOUS
 10
107.2468517379
 20
69.4086032211
  0
VERTEX
  8
0
 62
7
  6
CONTINUOUS
 10
107.1662960215
 20
69.4970782187
  0
VERTEX
  8
0
 62
7
  6
CONTINUOUS
 10
107.0866522603
 20
69.5397917951
  0
VERTEX
  8
0
 62
7
  6
CONTINUOUS
 10
106.8525141798
 20
69.6203101251
  0
VERTEX
  8
0
 62
7
  6
CONTINUOUS
 10
106.7003375494
 20
69.6574189841
  0
SEQEND
  0
LINE
  8
0
 62
7
  6
CONTINUOUS
 10
107.2469670924
 20
83.261362411
 11
107.250273875
 21
83.2390297023
  0
LINE
  8
0
 62
7
  6
CONTINUOUS
 10
115.4383369312
 20
91.3125
 11
115.4383369312
 21
61.3125
  0
POLYLINE
  8
0
 62
7
  6
CONTINUOUS
 66
1
 70
0
  0
VERTEX
  8
0
 62
7
  6
CONTINUOUS
 10
131.8203006672
 20
82.9675810159
  0
VERTEX
  8
0
 62
7
  6
CONTINUOUS
 10
131.74157899
 20
82.9139594076
  0
VERTEX
  8
0
 62
7
  6
CONTINUOUS
 10
131.6610967838
 20
82.8392167183
  0
VERTEX
  8
0
 62
7
  6
CONTINUOUS
 10
131.6198030406
 20
82.7956650364
  0
VERTEX
  8
0
 62
7
  6
CONTINUOUS
 10
131.5329709015
 20
82.6938711542
  0
SEQEND
  0
POLYLINE
  8
0
 62
7
  6
CONTINUOUS
 66
1
 70
0
  0
VERTEX
  8
0
 62
7
  6
CONTINUOUS
 10
102.8895062006
 20
69.6574189841
  0
VERTEX
  8
0
 62
7
  6
CONTINUOUS
 10
102.9703763608
 20
69.6804419293
  0
VERTEX
  8
0
 62
7
  6
CONTINUOUS
 10
103.1523222262
 20
69.7635495688
  0
VERTEX
  8
0
 62
7
  6
CONTINUOUS
 10
103.2487245226
 20
69.8221253982
  0
VERTEX
  8
0
 62
7
  6
CONTINUOUS
 10
103.4415127377
 20
69.9682728868
  0
VERTEX
  8
0
 62
7
  6
CONTINUOUS
 10
103.5324837176
 20
70.053148808
  0
SEQEND
  0
POLYLINE
  8
0
 62
7
  6
CONTINUOUS
 66
1
 70
0
  0
VERTEX
  8
0
 62
7
  6
CONTINUOUS
 10
82.6278230164
 20
83.3125
  0
VERTEX
  8
0
 62
7
  6
CONTINUOUS
 10
82.6113188732
 20
83.3111300326
  0
VERTEX
  8
0
 62
7
  6
CONTINUOUS
 10
82.5949798359
 20
83.3070205959
  0
VERTEX
  8
0
 62
7
  6
CONTINUOUS
 10
82.5788695817
 20
83.3001883406
  0
SEQEND
  0
POLYLINE
  8
0
 62
7
  6
CONTINUOUS
 66
1
 70
0
  0
VERTEX
  8
0
 62
7
  6
CONTINUOUS
 10
60.6971797893
 20
83.3125
  0
VERTEX
  8
0
 62
7
  6
CONTINUOUS
 10
60.6646874514
 20
83.3111300326
  0
VERTEX
  8
0
 62
7
  6
CONTINUOUS
 10
60.6323721814
 20
83.3070205959
  0
VERTEX
  8
0
 62
7
  6
CONTINUOUS
 10
60.6003617735
 20
83.3001883406
  0
SEQEND
  0
POLYLINE
  8
0
 62
7
  6
CONTINUOUS
 66
1
 70
0
  0
VERTEX
  8
0
 62
7
  6
CONTINUOUS
 10
44.0853750711
 20
83.3125
  0
VERTEX
  8
0
 62
7
  6
CONTINUOUS
 10
44.040813594
 20
83.3111300326
  0
VERTEX
  8
0
 62
7
  6
CONTINUOUS
 10
43.9964197897
 20
83.3070205959
  0
VERTEX
  8
0
 62
7
  6
CONTINUOUS
 10
43.9523701558
 20
83.3001883406
  0
SEQEND
  0
POLYLINE
  8
0
 62
7
  6
CONTINUOUS
 66
1
 70
0
  0
VERTEX
  8
0
 62
7
  6
CONTINUOUS
 10
34.796037675
 20
83.3125
  0
VERTEX
  8
0
 62
7
  6
CONTINUOUS
 10
34.7447818304
 20
83.3111300326
  0
VERTEX
  8
0
 62
7
  6
CONTINUOUS
 10
34.6936640399
 20
83.3070205959
  0
VERTEX
  8
0
 62
7
  6
CONTINUOUS
 10
34.6428882158
 20
83.3001883406
  0
SEQEND
  0
LINE
  8
0
 62
9
  6
CONTINUOUS
 10
106.7003375494
 20
82.9675810159
 11
102.8895062006
 21
82.9675810159
  0
LINE
  8
0
 62
9
  6
CONTINUOUS
 10
81.3505531803
 20
82.9675810159
 11
77.7695430828
 21
82.9675810159
  0
LINE
  8
0
 62
9
  6
CONTINUOUS
 10
58.8285056778
 20
82.9675810159
 11
55.9092394994
 21
82.9675810159
  0
LINE
  8
0
 62
9
  6
CONTINUOUS
 10
41.8506863607
 20
82.9675810159
 11
39.9452706863
 21
82.9675810159
  0
LINE
  8
0
 62
9
  6
CONTINUOUS
 10
32.4648708046
 20
82.9675810159
 11
31.8031268855
 21
82.9675810159
  0
LINE
  8
0
 62
9
  6
CONTINUOUS
 10
128.2392905697
 20
82.9675810159
 11
131.8203006672
 21
82.9675810159
  0
LINE
  8
0
 62
9
  6
CONTINUOUS
 10
150.7613380722
 20
82.9675810159
 11
153.6806042506
 21
82.9675810159
  0
LINE
  8
0
 62
9
  6
CONTINUOUS
 10
167.7391573893
 20
82.9675810159
 11
169.6445730637
 21
82.9675810159
  0
LINE
  8
0
 62
9
  6
CONTINUOUS
 10
177.1249729454
 20
82.9675810159
 11
177.7867168645
 21
82.9675810159
  0
LINE
  8
0
 62
9
  6
CONTINUOUS
 10
107.2369611705
 20
83.3001883406
 11
102.3528825795
 21
83.3001883406
  0
LINE
  8
0
 62
9
  6
CONTINUOUS
 10
82.5788695817
 20
83.3001883406
 11
77.9893369704
 21
83.3001883406
  0
LINE
  8
0
 62
9
  6
CONTINUOUS
 10
60.6003617735
 20
83.3001883406
 11
56.8589405091
 21
83.3001883406
  0
LINE
  8
0
 62
9
  6
CONTINUOUS
 10
43.9523701558
 20
83.3001883406
 11
41.5103308603
 21
83.3001883406
  0
LINE
  8
0
 62
9
  6
CONTINUOUS
 10
34.6428882158
 20
83.3001883406
 11
33.7947768689
 21
83.3001883406
  0
LINE
  8
0
 62
9
  6
CONTINUOUS
 10
127.0109741683
 20
83.3001883406
 11
131.6005067796
 21
83.3001883406
  0
LINE
  8
0
 62
9
  6
CONTINUOUS
 10
148.9894819765
 20
83.3001883406
 11
152.7309032409
 21
83.3001883406
  0
LINE
  8
0
 62
9
  6
CONTINUOUS
 10
165.6374735942
 20
83.3001883406
 11
168.0795128897
 21
83.3001883406
  0
LINE
  8
0
 62
9
  6
CONTINUOUS
 10
174.9469555342
 20
83.3001883406
 11
175.7950668811
 21
83.3001883406
  0
LINE
  8
0
 62
7
  6
CONTINUOUS
 10
33.9495987869
 20
83.3125
 11
40.4016295083
 21
83.3125
  0
LINE
  8
0
 62
7
  6
CONTINUOUS
 10
41.6481514288
 20
83.3125
 11
49.3129070788
 21
83.3125
  0
LINE
  8
0
 62
7
  6
CONTINUOUS
 10
56.9631365336
 20
83.3125
 11
64.916134461
 21
83.3125
  0
LINE
  8
0
 62
7
  6
CONTINUOUS
 10
78.0473408726
 20
83.3125
 11
85.3293321536
 21
83.3125
  0
LINE
  8
0
 62
7
  6
CONTINUOUS
 10
101.4994765019
 20
83.3125
 11
102.3528825795
 21
83.3125
  0
LINE
  8
0
 62
7
  6
CONTINUOUS
 10
102.3576982327
 20
83.3125
 11
107.2321455173
 21
83.3125
  0
LINE
  8
0
 62
7
  6
CONTINUOUS
 10
107.2369611705
 20
83.3125
 11
108.0903672481
 21
83.3125
  0
LINE
  8
0
 62
7
  6
CONTINUOUS
 10
124.2605115964
 20
83.3125
 11
131.5425028774
 21
83.3125
  0
LINE
  8
0
 62
7
  6
CONTINUOUS
 10
144.673709289
 20
83.3125
 11
152.6267072164
 21
83.3125
  0
LINE
  8
0
 62
7
  6
CONTINUOUS
 10
160.2769366712
 20
83.3125
 11
167.9416923212
 21
83.3125
  0
LINE
  8
0
 62
7
  6
CONTINUOUS
 10
169.1882142417
 20
83.3125
 11
175.6402449631
 21
83.3125
  0
POLYLINE
  8
0
 62
7
  6
CONTINUOUS
 66
1
 70
0
  0
VERTEX
  8
0
 62
7
  6
CONTINUOUS
 10
175.6402449631
 20
83.3125
  0
VERTEX
  8
0
 62
7
  6
CONTINUOUS
 10
175.6920129638
 20
83.3111300326
  0
VERTEX
  8
0
 62
7
  6
CONTINUOUS
 10
175.7436891807
 20
83.3070205959
  0
VERTEX
  8
0
 62
7
  6
CONTINUOUS
 10
175.7950668811
 20
83.3001883406
  0
SEQEND
  0
POLYLINE
  8
0
 62
7
  6
CONTINUOUS
 66
1
 70
0
  0
VERTEX
  8
0
 62
7
  6
CONTINUOUS
 10
167.9416923212
 20
83.3125
  0
VERTEX
  8
0
 62
7
  6
CONTINUOUS
 10
167.9877284931
 20
83.3111300326
  0
VERTEX
  8
0
 62
7
  6
CONTINUOUS
 10
168.0337302219
 20
83.3070205959
  0
VERTEX
  8
0
 62
7
  6
CONTINUOUS
 10
168.0795128897
 20
83.3001883406
  0
SEQEND
  0
POLYLINE
  8
0
 62
7
  6
CONTINUOUS
 66
1
 70
0
  0
VERTEX
  8
0
 62
7
  6
CONTINUOUS
 10
152.6267072164
 20
83.3125
  0
VERTEX
  8
0
 62
7
  6
CONTINUOUS
 10
152.6614589177
 20
83.3111300326
  0
VERTEX
  8
0
 62
7
  6
CONTINUOUS
 10
152.696237671
 20
83.3070205959
  0
VERTEX
  8
0
 62
7
  6
CONTINUOUS
 10
152.7309032409
 20
83.3001883406
  0
SEQEND
  0
POLYLINE
  8
0
 62
7
  6
CONTINUOUS
 66
1
 70
0
  0
VERTEX
  8
0
 62
7
  6
CONTINUOUS
 10
131.5425028774
 20
83.3125
  0
VERTEX
  8
0
 62
7
  6
CONTINUOUS
 10
131.5617785402
 20
83.3111300326
  0
VERTEX
  8
0
 62
7
  6
CONTINUOUS
 10
131.581139487
 20
83.3070205959
  0
VERTEX
  8
0
 62
7
  6
CONTINUOUS
 10
131.6005067796
 20
83.3001883406
  0
SEQEND
  0
POLYLINE
  8
0
 62
7
  6
CONTINUOUS
 66
1
 70
0
  0
VERTEX
  8
0
 62
7
  6
CONTINUOUS
 10
128.2392905697
 20
82.9675810159
  0
VERTEX
  8
0
 62
7
  6
CONTINUOUS
 10
128.014687498
 20
83.0046970761
  0
VERTEX
  8
0
 62
7
  6
CONTINUOUS
 10
127.6185140069
 20
83.0851775398
  0
VERTEX
  8
0
 62
7
  6
CONTINUOUS
 10
127.4505354836
 20
83.1278809465
  0
VERTEX
  8
0
 62
7
  6
CONTINUOUS
 10
127.182676657
 20
83.2163702497
  0
VERTEX
  8
0
 62
7
  6
CONTINUOUS
 10
127.0853456034
 20
83.261362411
  0
SEQEND
  0
POLYLINE
  8
0
 62
7
  6
CONTINUOUS
 66
1
 70
0
  0
VERTEX
  8
0
 62
7
  6
CONTINUOUS
 10
102.8895062006
 20
82.9675810159
  0
VERTEX
  8
0
 62
7
  6
CONTINUOUS
 10
102.7373030534
 20
83.0046970761
  0
VERTEX
  8
0
 62
7
  6
CONTINUOUS
 10
102.5032589648
 20
83.0851775398
  0
VERTEX
  8
0
 62
7
  6
CONTINUOUS
 10
102.4236105887
 20
83.1278809465
  0
VERTEX
  8
0
 62
7
  6
CONTINUOUS
 10
102.3430000417
 20
83.2163702497
  0
VERTEX
  8
0
 62
7
  6
CONTINUOUS
 10
102.339569875
 20
83.2390296777
  0
SEQEND
  0
POLYLINE
  8
0
 62
7
  6
CONTINUOUS
 66
1
 70
0
  0
VERTEX
  8
0
 62
7
  6
CONTINUOUS
 10
107.2321455173
 20
83.3125
  0
VERTEX
  8
0
 62
7
  6
CONTINUOUS
 10
107.2336202121
 20
83.3111300326
  0
VERTEX
  8
0
 62
7
  6
CONTINUOUS
 10
107.2352281366
 20
83.3070205959
  0
VERTEX
  8
0
 62
7
  6
CONTINUOUS
 10
107.2369611705
 20
83.3001883406
  0
SEQEND
  0
POLYLINE
  8
0
 62
7
  6
CONTINUOUS
 66
1
 70
0
  0
VERTEX
  8
0
 62
7
  6
CONTINUOUS
 10
131.6005067796
 20
69.3248116594
  0
VERTEX
  8
0
 62
7
  6
CONTINUOUS
 10
131.5811368955
 20
69.3179786719
  0
VERTEX
  8
0
 62
7
  6
CONTINUOUS
 10
131.5617787618
 20
69.3138699988
  0
VERTEX
  8
0
 62
7
  6
CONTINUOUS
 10
131.5425028774
 20
69.3125
  0
SEQEND
  0
POLYLINE
  8
0
 62
7
  6
CONTINUOUS
 66
1
 70
0
  0
VERTEX
  8
0
 62
7
  6
CONTINUOUS
 10
81.3505531803
 20
82.9675810159
  0
VERTEX
  8
0
 62
7
  6
CONTINUOUS
 10
81.1318513744
 20
82.9139594076
  0
VERTEX
  8
0
 62
7
  6
CONTINUOUS
 10
80.9435588903
 20
82.8392167183
  0
VERTEX
  8
0
 62
7
  6
CONTINUOUS
 10
80.8554675936
 20
82.7956650364
  0
VERTEX
  8
0
 62
7
  6
CONTINUOUS
 10
80.6834466912
 20
82.6938711542
  0
VERTEX
  8
0
 62
7
  6
CONTINUOUS
 10
80.5194454808
 20
82.571851192
  0
SEQEND
  0
POLYLINE
  8
0
 62
7
  6
CONTINUOUS
 66
1
 70
0
  0
VERTEX
  8
0
 62
7
  6
CONTINUOUS
 10
108.6441299185
 20
91.3125
  0
VERTEX
  8
0
 62
7
  6
CONTINUOUS
 10
108.4943200359
 20
91.2826414195
  0
VERTEX
  8
0
 62
7
  6
CONTINUOUS
 10
108.367480074
 20
91.1991693103
  0
VERTEX
  8
0
 62
7
  6
CONTINUOUS
 10
108.2648860954
 20
91.0712337663
  0
VERTEX
  8
0
 62
7
  6
CONTINUOUS
 10
108.187274556
 20
90.9099965932
  0
VERTEX
  8
0
 62
7
  6
CONTINUOUS
 10
108.1329092723
 20
90.7237286659
  0
VERTEX
  8
0
 62
7
  6
CONTINUOUS
 10
108.100975922
 20
90.5224541626
  0
VERTEX
  8
0
 62
7
  6
CONTINUOUS
 10
108.0903672481
 20
90.3125
  0
SEQEND
  0
LINE
  8
0
 62
9
  6
CONTINUOUS
 10
108.0903672481
 20
90.3125
 11
101.4994765019
 21
90.3125
  0
LINE
  8
0
 62
9
  6
CONTINUOUS
 10
85.3293321536
 20
90.3125
 11
79.135920755
 21
90.3125
  0
LINE
  8
0
 62
9
  6
CONTINUOUS
 10
64.916134461
 20
90.3125
 11
59.8672192297
 21
90.3125
  0
LINE
  8
0
 62
9
  6
CONTINUOUS
 10
49.3129070788
 20
90.3125
 11
46.0174617057
 21
90.3125
  0
LINE
  8
0
 62
9
  6
CONTINUOUS
 10
40.4016295083
 20
90.3125
 11
39.2571333411
 21
90.3125
  0
LINE
  8
0
 62
9
  6
CONTINUOUS
 10
124.2605115964
 20
90.3125
 11
130.453922995
 21
90.3125
  0
LINE
  8
0
 62
9
  6
CONTINUOUS
 10
144.673709289
 20
90.3125
 11
149.7226245203
 21
90.3125
  0
LINE
  8
0
 62
9
  6
CONTINUOUS
 10
160.2769366712
 20
90.3125
 11
163.5723820443
 21
90.3125
  0
LINE
  8
0
 62
9
  6
CONTINUOUS
 10
169.1882142417
 20
90.3125
 11
170.3327104089
 21
90.3125
  0
LINE
  8
0
 62
7
  6
CONTINUOUS
 10
40.1770224865
 20
91.3125
 11
169.4128212635
 21
91.3125
  0
POLYLINE
  8
0
 62
7
  6
CONTINUOUS
 66
1
 70
0
  0
VERTEX
  8
0
 62
7
  6
CONTINUOUS
 10
167.7391573893
 20
82.9675810159
  0
VERTEX
  8
0
 62
7
  6
CONTINUOUS
 10
167.4564907961
 20
83.0046970761
  0
VERTEX
  8
0
 62
7
  6
CONTINUOUS
 10
166.8932033084
 20
83.0851775398
  0
VERTEX
  8
0
 62
7
  6
CONTINUOUS
 10
166.6175567387
 20
83.1278809465
  0
VERTEX
  8
0
 62
7
  6
CONTINUOUS
 10
166.0908126532
 20
83.2163702497
  0
VERTEX
  8
0
 62
7
  6
CONTINUOUS
 10
165.8445936604
 20
83.261362411
  0
SEQEND
  0
POLYLINE
  8
0
 62
7
  6
CONTINUOUS
 66
1
 70
0
  0
VERTEX
  8
0
 62
7
  6
CONTINUOUS
 10
150.7613380722
 20
82.9675810159
  0
VERTEX
  8
0
 62
7
  6
CONTINUOUS
 10
150.4914255212
 20
83.0046970761
  0
VERTEX
  8
0
 62
7
  6
CONTINUOUS
 10
149.9809069976
 20
83.0851775398
  0
VERTEX
  8
0
 62
7
  6
CONTINUOUS
 10
149.744859016
 20
83.1278809465
  0
VERTEX
  8
0
 62
7
  6
CONTINUOUS
 10
149.3220596374
 20
83.2163702497
  0
VERTEX
  8
0
 62
7
  6
CONTINUOUS
 10
149.1392604759
 20
83.261362411
  0
SEQEND
  0
POLYLINE
  8
0
 62
7
  6
CONTINUOUS
 66
1
 70
0
  0
VERTEX
  8
0
 62
7
  6
CONTINUOUS
 10
127.0109741683
 20
83.3001883406
  0
VERTEX
  8
0
 62
7
  6
CONTINUOUS
 10
126.9948639141
 20
83.3070205959
  0
VERTEX
  8
0
 62
7
  6
CONTINUOUS
 10
126.9785248768
 20
83.3111300326
  0
VERTEX
  8
0
 62
7
  6
CONTINUOUS
 10
126.9620207336
 20
83.3125
  0
SEQEND
  0
POLYLINE
  8
0
 62
7
  6
CONTINUOUS
 66
1
 70
0
  0
VERTEX
  8
0
 62
7
  6
CONTINUOUS
 10
130.9543906387
 20
70.6451073247
  0
VERTEX
  8
0
 62
7
  6
CONTINUOUS
 10
131.1852738444
 20
70.3874780021
  0
VERTEX
  8
0
 62
7
  6
CONTINUOUS
 10
131.2849757737
 20
70.2662572856
  0
VERTEX
  8
0
 62
7
  6
CONTINUOUS
 10
131.4430059107
 20
70.053148808
  0
SEQEND
  0
POLYLINE
  8
0
 62
7
  6
CONTINUOUS
 66
1
 70
0
  0
VERTEX
  8
0
 62
7
  6
CONTINUOUS
 10
124.2605115964
 20
90.3125
  0
VERTEX
  8
0
 62
7
  6
CONTINUOUS
 10
124.2427279786
 20
90.5224564727
  0
VERTEX
  8
0
 62
7
  6
CONTINUOUS
 10
124.1895065368
 20
90.7237301401
  0
VERTEX
  8
0
 62
7
  6
CONTINUOUS
 10
124.0999134477
 20
90.9099984563
  0
VERTEX
  8
0
 62
7
  6
CONTINUOUS
 10
123.9740576641
 20
91.0712390626
  0
VERTEX
  8
0
 62
7
  6
CONTINUOUS
 10
123.8110265232
 20
91.1991749564
  0
VERTEX
  8
0
 62
7
  6
CONTINUOUS
 10
123.6141152481
 20
91.2826414788
  0
VERTEX
  8
0
 62
7
  6
CONTINUOUS
 10
123.3872747785
 20
91.3125
  0
SEQEND
  0
LINE
  8
0
 62
7
  6
CONTINUOUS
 10
124.2605115964
 20
90.3125
 11
124.2605115964
 21
83.3125
  0
LINE
  8
0
 62
7
  6
CONTINUOUS
 10
124.2605115964
 20
69.3125
 11
124.2605115964
 21
62.3125
  0
LINE
  8
0
 62
7
  6
CONTINUOUS
 10
125.3178869073
 20
83.3125
 11
125.3178869073
 21
69.3125
  0
POLYLINE
  8
0
 62
7
  6
CONTINUOUS
 66
1
 70
0
  0
VERTEX
  8
0
 62
7
  6
CONTINUOUS
 10
131.9258753488
 20
83.0775675426
  0
VERTEX
  8
0
 62
7
  6
CONTINUOUS
 10
131.8817368367
 20
83.0046898749
  0
VERTEX
  8
0
 62
7
  6
CONTINUOUS
 10
131.8203006672
 20
82.9675810159
  0
SEQEND
  0
POLYLINE
  8
0
 62
7
  6
CONTINUOUS
 66
1
 70
0
  0
VERTEX
  8
0
 62
7
  6
CONTINUOUS
 10
131.5329709015
 20
82.6938711542
  0
VERTEX
  8
0
 62
7
  6
CONTINUOUS
 10
131.2850152802
 20
82.3587923332
  0
VERTEX
  8
0
 62
7
  6
CONTINUOUS
 10
131.1852172008
 20
82.2374551718
  0
VERTEX
  8
0
 62
7
  6
CONTINUOUS
 10
130.9543906387
 20
81.9798926753
  0
SEQEND
  0
POLYLINE
  8
0
 62
7
  6
CONTINUOUS
 66
1
 70
0
  0
VERTEX
  8
0
 62
7
  6
CONTINUOUS
 10
127.0109741683
 20
69.3248116594
  0
VERTEX
  8
0
 62
7
  6
CONTINUOUS
 10
127.0360827229
 20
69.3377539651
  0
VERTEX
  8
0
 62
7
  6
CONTINUOUS
 10
127.0608733437
 20
69.3506960157
  0
VERTEX
  8
0
 62
7
  6
CONTINUOUS
 10
127.0853456034
 20
69.363637589
  0
SEQEND
  0
POLYLINE
  8
0
 62
7
  6
CONTINUOUS
 66
1
 70
0
  0
VERTEX
  8
0
 62
7
  6
CONTINUOUS
 10
131.6936831966
 20
69.363637589
  0
VERTEX
  8
0
 62
7
  6
CONTINUOUS
 10
131.7907324951
 20
69.4086032211
  0
VERTEX
  8
0
 62
7
  6
CONTINUOUS
 10
131.9071130599
 20
69.4970782187
  0
VERTEX
  8
0
 62
7
  6
CONTINUOUS
 10
131.9258753488
 20
69.5474324574
  0
SEQEND
  0
POLYLINE
  8
0
 62
7
  6
CONTINUOUS
 66
1
 70
0
  0
VERTEX
  8
0
 62
7
  6
CONTINUOUS
 10
131.6936831966
 20
69.363637589
  0
VERTEX
  8
0
 62
7
  6
CONTINUOUS
 10
131.6623156985
 20
69.3506960168
  0
VERTEX
  8
0
 62
7
  6
CONTINUOUS
 10
131.6005067796
 20
69.3248116594
  0
SEQEND
  0
LINE
  8
0
 62
7
  6
CONTINUOUS
 10
60.4505832741
 20
83.261362411
 11
60.6003617735
 21
83.3001883406
  0
POLYLINE
  8
0
 62
7
  6
CONTINUOUS
 66
1
 70
0
  0
VERTEX
  8
0
 62
7
  6
CONTINUOUS
 10
60.4505832741
 20
83.261362411
  0
VERTEX
  8
0
 62
7
  6
CONTINUOUS
 10
60.2678981671
 20
83.2163967789
  0
VERTEX
  8
0
 62
7
  6
CONTINUOUS
 10
59.8452000168
 20
83.1279217813
  0
VERTEX
  8
0
 62
7
  6
CONTINUOUS
 10
59.6091143148
 20
83.0852082049
  0
VERTEX
  8
0
 62
7
  6
CONTINUOUS
 10
59.0983682021
 20
83.0046898749
  0
VERTEX
  8
0
 62
7
  6
CONTINUOUS
 10
58.8285056778
 20
82.9675810159
  0
SEQEND
  0
LINE
  8
0
 62
7
  6
CONTINUOUS
 10
56.8589405091
 20
83.3001883406
 11
56.693832048
 21
83.261362411
  0
POLYLINE
  8
0
 62
7
  6
CONTINUOUS
 66
1
 70
0
  0
VERTEX
  8
0
 62
7
  6
CONTINUOUS
 10
58.8285056778
 20
82.9675810159
  0
VERTEX
  8
0
 62
7
  6
CONTINUOUS
 10
58.5757364613
 20
82.9139594076
  0
VERTEX
  8
0
 62
7
  6
CONTINUOUS
 10
58.3648743713
 20
82.8392167183
  0
VERTEX
  8
0
 62
7
  6
CONTINUOUS
 10
58.2681612302
 20
82.7956650364
  0
VERTEX
  8
0
 62
7
  6
CONTINUOUS
 10
58.0826005114
 20
82.6938711542
  0
VERTEX
  8
0
 62
7
  6
CONTINUOUS
 10
57.9095116502
 20
82.571851192
  0
SEQEND
  0
POLYLINE
  8
0
 62
7
  6
CONTINUOUS
 66
1
 70
0
  0
VERTEX
  8
0
 62
7
  6
CONTINUOUS
 10
41.8506863607
 20
82.9675810159
  0
VERTEX
  8
0
 62
7
  6
CONTINUOUS
 10
41.5943374317
 20
82.9139594076
  0
VERTEX
  8
0
 62
7
  6
CONTINUOUS
 10
41.3863388158
 20
82.8392167183
  0
VERTEX
  8
0
 62
7
  6
CONTINUOUS
 10
41.2926688623
 20
82.7956650364
  0
VERTEX
  8
0
 62
7
  6
CONTINUOUS
 10
41.1159496886
 20
82.6938711542
  0
VERTEX
  8
0
 62
7
  6
CONTINUOUS
 10
40.9546502476
 20
82.571851192
  0
SEQEND
  0
POLYLINE
  8
0
 62
7
  6
CONTINUOUS
 66
1
 70
0
  0
VERTEX
  8
0
 62
7
  6
CONTINUOUS
 10
56.8589405091
 20
83.3001883406
  0
VERTEX
  8
0
 62
7
  6
CONTINUOUS
 10
56.893606079
 20
83.3070205959
  0
VERTEX
  8
0
 62
7
  6
CONTINUOUS
 10
56.9283848323
 20
83.3111300326
  0
VERTEX
  8
0
 62
7
  6
CONTINUOUS
 10
56.9631365336
 20
83.3125
  0
SEQEND
  0
LINE
  8
0
 62
7
  6
CONTINUOUS
 10
43.7452500896
 20
83.261362411
 11
43.9523701558
 21
83.3001883406
  0
POLYLINE
  8
0
 62
7
  6
CONTINUOUS
 66
1
 70
0
  0
VERTEX
  8
0
 62
7
  6
CONTINUOUS
 10
32.4648708046
 20
82.9675810159
  0
VERTEX
  8
0
 62
7
  6
CONTINUOUS
 10
32.349510342
 20
82.9460121904
  0
VERTEX
  8
0
 62
7
  6
CONTINUOUS
 10
32.1055965661
 20
82.863046977
  0
VERTEX
  8
0
 62
7
  6
CONTINUOUS
 10
31.988604328
 20
82.8027894509
  0
VERTEX
  8
0
 62
7
  6
CONTINUOUS
 10
31.7827479202
 20
82.6538087326
  0
VERTEX
  8
0
 62
7
  6
CONTINUOUS
 10
31.6998677854
 20
82.571851192
  0
SEQEND
  0
POLYLINE
  8
0
 62
7
  6
CONTINUOUS
 66
1
 70
0
  0
VERTEX
  8
0
 62
7
  6
CONTINUOUS
 10
43.7452500896
 20
83.261362411
  0
VERTEX
  8
0
 62
7
  6
CONTINUOUS
 10
43.4991804896
 20
83.2163967789
  0
VERTEX
  8
0
 62
7
  6
CONTINUOUS
 10
42.9725436138
 20
83.1279217813
  0
VERTEX
  8
0
 62
7
  6
CONTINUOUS
 10
42.6968437681
 20
83.0852082049
  0
VERTEX
  8
0
 62
7
  6
CONTINUOUS
 10
42.1332996624
 20
83.0046898749
  0
VERTEX
  8
0
 62
7
  6
CONTINUOUS
 10
41.8506863607
 20
82.9675810159
  0
SEQEND
  0
LINE
  8
0
 62
7
  6
CONTINUOUS
 10
41.5103308603
 20
83.3001883406
 11
41.2932048722
 21
83.261362411
  0
POLYLINE
  8
0
 62
7
  6
CONTINUOUS
 66
1
 70
0
  0
VERTEX
  8
0
 62
7
  6
CONTINUOUS
 10
31.8031268855
 20
82.9675810159
  0
VERTEX
  8
0
 62
7
  6
CONTINUOUS
 10
32.0115941597
 20
83.0046970761
  0
VERTEX
  8
0
 62
7
  6
CONTINUOUS
 10
32.4784271684
 20
83.0851775398
  0
VERTEX
  8
0
 62
7
  6
CONTINUOUS
 10
32.7327636909
 20
83.1278809465
  0
VERTEX
  8
0
 62
7
  6
CONTINUOUS
 10
33.2719236237
 20
83.2163702497
  0
SEQEND
  0
POLYLINE
  8
0
 62
7
  6
CONTINUOUS
 66
1
 70
0
  0
VERTEX
  8
0
 62
7
  6
CONTINUOUS
 10
34.6428882158
 20
83.3001883406
  0
VERTEX
  8
0
 62
7
  6
CONTINUOUS
 10
34.123633852
 20
83.2163967789
  0
VERTEX
  8
0
 62
7
  6
CONTINUOUS
 10
33.5565784301
 20
83.1279217813
  0
VERTEX
  8
0
 62
7
  6
CONTINUOUS
 10
33.2745179111
 20
83.0852082049
  0
VERTEX
  8
0
 62
7
  6
CONTINUOUS
 10
32.7261475486
 20
83.0046898749
  0
VERTEX
  8
0
 62
7
  6
CONTINUOUS
 10
32.4648708046
 20
82.9675810159
  0
SEQEND
  0
LINE
  8
0
 62
7
  6
CONTINUOUS
 10
33.7947768689
 20
83.3001883406
 11
33.2719236237
 21
83.2163702497
  0
POLYLINE
  8
0
 62
7
  6
CONTINUOUS
 66
1
 70
0
  0
VERTEX
  8
0
 62
7
  6
CONTINUOUS
 10
41.5103308603
 20
83.3001883406
  0
VERTEX
  8
0
 62
7
  6
CONTINUOUS
 10
41.5561135281
 20
83.3070205959
  0
VERTEX
  8
0
 62
7
  6
CONTINUOUS
 10
41.6021152569
 20
83.3111300326
  0
VERTEX
  8
0
 62
7
  6
CONTINUOUS
 10
41.6481514288
 20
83.3125
  0
SEQEND
  0
POLYLINE
  8
0
 62
7
  6
CONTINUOUS
 66
1
 70
0
  0
VERTEX
  8
0
 62
7
  6
CONTINUOUS
 10
33.7947768689
 20
83.3001883406
  0
VERTEX
  8
0
 62
7
  6
CONTINUOUS
 10
33.8461545693
 20
83.3070205959
  0
VERTEX
  8
0
 62
7
  6
CONTINUOUS
 10
33.8978307862
 20
83.3111300326
  0
VERTEX
  8
0
 62
7
  6
CONTINUOUS
 10
33.9495987869
 20
83.3125
  0
SEQEND
  0
POLYLINE
  8
0
 62
7
  6
CONTINUOUS
 66
1
 70
0
  0
VERTEX
  8
0
 62
7
  6
CONTINUOUS
 10
86.2025689715
 20
91.3125
  0
VERTEX
  8
0
 62
7
  6
CONTINUOUS
 10
85.9757282849
 20
91.2826414195
  0
VERTEX
  8
0
 62
7
  6
CONTINUOUS
 10
85.7788077255
 20
91.1991693103
  0
VERTEX
  8
0
 62
7
  6
CONTINUOUS
 10
85.6157808556
 20
91.0712337663
  0
VERTEX
  8
0
 62
7
  6
CONTINUOUS
 10
85.4899291569
 20
90.9099965932
  0
VERTEX
  8
0
 62
7
  6
CONTINUOUS
 10
85.4003366752
 20
90.7237286659
  0
VERTEX
  8
0
 62
7
  6
CONTINUOUS
 10
85.3471153749
 20
90.5224541626
  0
VERTEX
  8
0
 62
7
  6
CONTINUOUS
 10
85.3293321536
 20
90.3125
  0
SEQEND
  0
POLYLINE
  8
0
 62
7
  6
CONTINUOUS
 66
1
 70
0
  0
VERTEX
  8
0
 62
7
  6
CONTINUOUS
 10
66.0035201786
 20
91.3125
  0
VERTEX
  8
0
 62
7
  6
CONTINUOUS
 10
65.7270090225
 20
91.2826414195
  0
VERTEX
  8
0
 62
7
  6
CONTINUOUS
 10
65.4837593913
 20
91.1991693103
  0
VERTEX
  8
0
 62
7
  6
CONTINUOUS
 10
65.2799630768
 20
91.0712337663
  0
VERTEX
  8
0
 62
7
  6
CONTINUOUS
 10
65.1210507911
 20
90.9099965932
  0
VERTEX
  8
0
 62
7
  6
CONTINUOUS
 10
65.0070372867
 20
90.7237286659
  0
VERTEX
  8
0
 62
7
  6
CONTINUOUS
 10
64.9389473107
 20
90.5224541626
  0
VERTEX
  8
0
 62
7
  6
CONTINUOUS
 10
64.916134461
 20
90.3125
  0
SEQEND
  0
POLYLINE
  8
0
 62
7
  6
CONTINUOUS
 66
1
 70
0
  0
VERTEX
  8
0
 62
7
  6
CONTINUOUS
 10
50.4832869304
 20
91.3125
  0
VERTEX
  8
0
 62
7
  6
CONTINUOUS
 10
50.1904566312
 20
91.2826414195
  0
VERTEX
  8
0
 62
7
  6
CONTINUOUS
 10
49.9302174236
 20
91.1991693103
  0
VERTEX
  8
0
 62
7
  6
CONTINUOUS
 10
49.7102325077
 20
91.0712337663
  0
VERTEX
  8
0
 62
7
  6
CONTINUOUS
 10
49.5374268019
 20
90.9099965932
  0
VERTEX
  8
0
 62
7
  6
CONTINUOUS
 10
49.4127439862
 20
90.7237286659
  0
VERTEX
  8
0
 62
7
  6
CONTINUOUS
 10
49.3379979906
 20
90.5224541626
  0
VERTEX
  8
0
 62
7
  6
CONTINUOUS
 10
49.3129070788
 20
90.3125
  0
SEQEND
  0
POLYLINE
  8
0
 62
7
  6
CONTINUOUS
 66
1
 70
0
  0
VERTEX
  8
0
 62
7
  6
CONTINUOUS
 10
174.9469555342
 20
83.3001883406
  0
VERTEX
  8
0
 62
7
  6
CONTINUOUS
 10
174.8961797101
 20
83.3070205959
  0
VERTEX
  8
0
 62
7
  6
CONTINUOUS
 10
174.8450619196
 20
83.3111300326
  0
VERTEX
  8
0
 62
7
  6
CONTINUOUS
 10
174.793806075
 20
83.3125
  0
SEQEND
  0
POLYLINE
  8
0
 62
7
  6
CONTINUOUS
 66
1
 70
0
  0
VERTEX
  8
0
 62
7
  6
CONTINUOUS
 10
177.1249729454
 20
82.9675810159
  0
VERTEX
  8
0
 62
7
  6
CONTINUOUS
 10
176.8636460729
 20
83.0046970761
  0
VERTEX
  8
0
 62
7
  6
CONTINUOUS
 10
176.3155304052
 20
83.0851775398
  0
VERTEX
  8
0
 62
7
  6
CONTINUOUS
 10
176.033532292
 20
83.1278809465
  0
VERTEX
  8
0
 62
7
  6
CONTINUOUS
 10
175.46637661
 20
83.2163702497
  0
SEQEND
  0
POLYLINE
  8
0
 62
7
  6
CONTINUOUS
 66
1
 70
0
  0
VERTEX
  8
0
 62
7
  6
CONTINUOUS
 10
165.6374735942
 20
83.3001883406
  0
VERTEX
  8
0
 62
7
  6
CONTINUOUS
 10
165.5934239603
 20
83.3070205959
  0
VERTEX
  8
0
 62
7
  6
CONTINUOUS
 10
165.549030156
 20
83.3111300326
  0
VERTEX
  8
0
 62
7
  6
CONTINUOUS
 10
165.5044686789
 20
83.3125
  0
SEQEND
  0
POLYLINE
  8
0
 62
7
  6
CONTINUOUS
 66
1
 70
0
  0
VERTEX
  8
0
 62
7
  6
CONTINUOUS
 10
175.7950668811
 20
83.3001883406
  0
VERTEX
  8
0
 62
7
  6
CONTINUOUS
 10
176.3177562029
 20
83.2163967789
  0
VERTEX
  8
0
 62
7
  6
CONTINUOUS
 10
176.8568349181
 20
83.1279217813
  0
VERTEX
  8
0
 62
7
  6
CONTINUOUS
 10
177.1112354491
 20
83.0852082049
  0
VERTEX
  8
0
 62
7
  6
CONTINUOUS
 10
177.5782905096
 20
83.0046898749
  0
VERTEX
  8
0
 62
7
  6
CONTINUOUS
 10
177.7867168645
 20
82.9675810159
  0
SEQEND
  0
LINE
  8
0
 62
7
  6
CONTINUOUS
 10
174.9469555342
 20
83.3001883406
 11
175.46637661
 21
83.2163702497
  0
LINE
  8
0
 62
7
  6
CONTINUOUS
 10
168.2966388778
 20
83.261362411
 11
168.0795128897
 21
83.3001883406
  0
POLYLINE
  8
0
 62
7
  6
CONTINUOUS
 66
1
 70
0
  0
VERTEX
  8
0
 62
7
  6
CONTINUOUS
 10
168.2966388778
 20
83.261362411
  0
VERTEX
  8
0
 62
7
  6
CONTINUOUS
 10
168.5425931233
 20
83.2163967789
  0
VERTEX
  8
0
 62
7
  6
CONTINUOUS
 10
168.9886742827
 20
83.1279217813
  0
VERTEX
  8
0
 62
7
  6
CONTINUOUS
 10
169.1847303671
 20
83.0852082049
  0
VERTEX
  8
0
 62
7
  6
CONTINUOUS
 10
169.5141363923
 20
83.0046898749
  0
VERTEX
  8
0
 62
7
  6
CONTINUOUS
 10
169.6445730637
 20
82.9675810159
  0
SEQEND
  0
LINE
  8
0
 62
7
  6
CONTINUOUS
 10
165.6374735942
 20
83.3001883406
 11
165.8445936604
 21
83.261362411
  0
POLYLINE
  8
0
 62
7
  6
CONTINUOUS
 66
1
 70
0
  0
VERTEX
  8
0
 62
7
  6
CONTINUOUS
 10
148.9894819765
 20
83.3001883406
  0
VERTEX
  8
0
 62
7
  6
CONTINUOUS
 10
148.9574715686
 20
83.3070205959
  0
VERTEX
  8
0
 62
7
  6
CONTINUOUS
 10
148.9251562986
 20
83.3111300326
  0
VERTEX
  8
0
 62
7
  6
CONTINUOUS
 10
148.8926639607
 20
83.3125
  0
SEQEND
  0
LINE
  8
0
 62
7
  6
CONTINUOUS
 10
152.896011702
 20
83.261362411
 11
152.7309032409
 21
83.3001883406
  0
POLYLINE
  8
0
 62
7
  6
CONTINUOUS
 66
1
 70
0
  0
VERTEX
  8
0
 62
7
  6
CONTINUOUS
 10
152.896011702
 20
83.261362411
  0
VERTEX
  8
0
 62
7
  6
CONTINUOUS
 10
153.0785200757
 20
83.2163967789
  0
VERTEX
  8
0
 62
7
  6
CONTINUOUS
 10
153.3777997081
 20
83.1279217813
  0
VERTEX
  8
0
 62
7
  6
CONTINUOUS
 10
153.4918640887
 20
83.0852082049
  0
VERTEX
  8
0
 62
7
  6
CONTINUOUS
 10
153.6438898504
 20
83.0046898749
  0
VERTEX
  8
0
 62
7
  6
CONTINUOUS
 10
153.6806042506
 20
82.9675810159
  0
SEQEND
  0
LINE
  8
0
 62
7
  6
CONTINUOUS
 10
148.9894819765
 20
83.3001883406
 11
149.1392604759
 21
83.261362411
  0
POLYLINE
  8
0
 62
7
  6
CONTINUOUS
 66
1
 70
0
  0
VERTEX
  8
0
 62
7
  6
CONTINUOUS
 10
131.6936831966
 20
83.261362411
  0
VERTEX
  8
0
 62
7
  6
CONTINUOUS
 10
131.6312567166
 20
83.2872460327
  0
VERTEX
  8
0
 62
7
  6
CONTINUOUS
 10
131.6005067796
 20
83.3001883406
  0
SEQEND
  0
POLYLINE
  8
0
 62
7
  6
CONTINUOUS
 66
1
 70
0
  0
VERTEX
  8
0
 62
7
  6
CONTINUOUS
 10
131.6936831966
 20
83.261362411
  0
VERTEX
  8
0
 62
7
  6
CONTINUOUS
 10
131.7907324951
 20
83.2163967789
  0
VERTEX
  8
0
 62
7
  6
CONTINUOUS
 10
131.9071130599
 20
83.1279217813
  0
VERTEX
  8
0
 62
7
  6
CONTINUOUS
 10
131.9258753488
 20
83.0775675426
  0
SEQEND
  0
POLYLINE
  8
0
 62
7
  6
CONTINUOUS
 66
1
 70
0
  0
VERTEX
  8
0
 62
7
  6
CONTINUOUS
 10
127.0109741683
 20
83.3001883406
  0
VERTEX
  8
0
 62
7
  6
CONTINUOUS
 10
127.0360827229
 20
83.2872460349
  0
VERTEX
  8
0
 62
7
  6
CONTINUOUS
 10
127.0608733437
 20
83.2743039843
  0
VERTEX
  8
0
 62
7
  6
CONTINUOUS
 10
127.0853456034
 20
83.261362411
  0
SEQEND
  0
POLYLINE
  8
0
 62
7
  6
CONTINUOUS
 66
1
 70
0
  0
VERTEX
  8
0
 62
7
  6
CONTINUOUS
 10
129.0703982692
 20
82.571851192
  0
VERTEX
  8
0
 62
7
  6
CONTINUOUS
 10
128.9061726121
 20
82.6940197217
  0
VERTEX
  8
0
 62
7
  6
CONTINUOUS
 10
128.7339113856
 20
82.7959094062
  0
VERTEX
  8
0
 62
7
  6
CONTINUOUS
 10
128.6456835268
 20
82.8394951234
  0
VERTEX
  8
0
 62
7
  6
CONTINUOUS
 10
128.4573339321
 20
82.914176402
  0
VERTEX
  8
0
 62
7
  6
CONTINUOUS
 10
128.2392905697
 20
82.9675810159
  0
SEQEND
  0
POLYLINE
  8
0
 62
7
  6
CONTINUOUS
 66
1
 70
0
  0
VERTEX
  8
0
 62
7
  6
CONTINUOUS
 10
131.4430059107
 20
70.053148808
  0
VERTEX
  8
0
 62
7
  6
CONTINUOUS
 10
131.5041485949
 20
69.9681507221
  0
VERTEX
  8
0
 62
7
  6
CONTINUOUS
 10
131.6265510769
 20
69.8220021406
  0
VERTEX
  8
0
 62
7
  6
CONTINUOUS
 10
131.6835643574
 20
69.7634657833
  0
VERTEX
  8
0
 62
7
  6
CONTINUOUS
 10
131.7816454173
 20
69.6804305535
  0
VERTEX
  8
0
 62
7
  6
CONTINUOUS
 10
131.8203006672
 20
69.6574189841
  0
SEQEND
  0
POLYLINE
  8
0
 62
7
  6
CONTINUOUS
 66
1
 70
0
  0
VERTEX
  8
0
 62
7
  6
CONTINUOUS
 10
131.9258753488
 20
69.5474324574
  0
VERTEX
  8
0
 62
7
  6
CONTINUOUS
 10
131.8817368367
 20
69.6203101251
  0
VERTEX
  8
0
 62
7
  6
CONTINUOUS
 10
131.8203006672
 20
69.6574189841
  0
SEQEND
  0
POLYLINE
  8
0
 62
7
  6
CONTINUOUS
 66
1
 70
0
  0
VERTEX
  8
0
 62
7
  6
CONTINUOUS
 10
130.453922995
 20
62.3125
  0
VERTEX
  8
0
 62
7
  6
CONTINUOUS
 10
130.4560745855
 20
62.1026869346
  0
VERTEX
  8
0
 62
7
  6
CONTINUOUS
 10
130.4628723854
 20
61.901249421
  0
VERTEX
  8
0
 62
7
  6
CONTINUOUS
 10
130.4754476623
 20
61.7150527041
  0
VERTEX
  8
0
 62
7
  6
CONTINUOUS
 10
130.4954621742
 20
61.5537678152
  0
VERTEX
  8
0
 62
7
  6
CONTINUOUS
 10
130.5252385296
 20
61.4258630433
  0
VERTEX
  8
0
 62
7
  6
CONTINUOUS
 10
130.5667239926
 20
61.3423413071
  0
VERTEX
  8
0
 62
7
  6
CONTINUOUS
 10
130.6214195672
 20
61.3125
  0
SEQEND
  0
LINE
  8
0
 62
9
  6
CONTINUOUS
 10
127.0853456034
 20
83.261362411
 11
127.0853456034
 21
69.363637589
  0
LINE
  8
0
 62
9
  6
CONTINUOUS
 10
129.0703982692
 20
82.571851192
 11
129.0703982692
 21
70.053148808
  0
LINE
  8
0
 62
9
  6
CONTINUOUS
 10
129.6970096653
 20
81.9798926753
 11
129.6970096653
 21
70.6451073247
  0
LINE
  8
0
 62
7
  6
CONTINUOUS
 10
130.453922995
 20
90.3125
 11
130.453922995
 21
83.3125
  0
LINE
  8
0
 62
7
  6
CONTINUOUS
 10
130.453922995
 20
69.3125
 11
130.453922995
 21
62.3125
  0
POLYLINE
  8
0
 62
7
  6
CONTINUOUS
 66
1
 70
0
  0
VERTEX
  8
0
 62
7
  6
CONTINUOUS
 10
129.0703982692
 20
70.053148808
  0
VERTEX
  8
0
 62
7
  6
CONTINUOUS
 10
129.3123971855
 20
70.2662240399
  0
VERTEX
  8
0
 62
7
  6
CONTINUOUS
 10
129.4410905583
 20
70.3874315093
  0
VERTEX
  8
0
 62
7
  6
CONTINUOUS
 10
129.6970096653
 20
70.6451073247
  0
SEQEND
  0
POLYLINE
  8
0
 62
7
  6
CONTINUOUS
 66
1
 70
0
  0
VERTEX
  8
0
 62
7
  6
CONTINUOUS
 10
39.9452706863
 20
82.9675810159
  0
VERTEX
  8
0
 62
7
  6
CONTINUOUS
 10
40.0757341322
 20
83.0046970761
  0
VERTEX
  8
0
 62
7
  6
CONTINUOUS
 10
40.4049775315
 20
83.0851775398
  0
VERTEX
  8
0
 62
7
  6
CONTINUOUS
 10
40.600975725
 20
83.1278809465
  0
VERTEX
  8
0
 62
7
  6
CONTINUOUS
 10
41.0471092636
 20
83.2163702497
  0
VERTEX
  8
0
 62
7
  6
CONTINUOUS
 10
41.2932048722
 20
83.261362411
  0
SEQEND
  0
POLYLINE
  8
0
 62
7
  6
CONTINUOUS
 66
1
 70
0
  0
VERTEX
  8
0
 62
7
  6
CONTINUOUS
 10
41.5138384109
 20
91.3125
  0
VERTEX
  8
0
 62
7
  6
CONTINUOUS
 10
41.2400086243
 20
91.2826414195
  0
VERTEX
  8
0
 62
7
  6
CONTINUOUS
 10
40.9941685296
 20
91.1991693103
  0
VERTEX
  8
0
 62
7
  6
CONTINUOUS
 10
40.7845284397
 20
91.0712337663
  0
VERTEX
  8
0
 62
7
  6
CONTINUOUS
 10
40.6186722323
 20
90.9099965932
  0
VERTEX
  8
0
 62
7
  6
CONTINUOUS
 10
40.498358693
 20
90.7237286659
  0
VERTEX
  8
0
 62
7
  6
CONTINUOUS
 10
40.4259721479
 20
90.5224541626
  0
VERTEX
  8
0
 62
7
  6
CONTINUOUS
 10
40.4016295083
 20
90.3125
  0
SEQEND
  0
POLYLINE
  8
0
 62
7
  6
CONTINUOUS
 66
1
 70
0
  0
VERTEX
  8
0
 62
7
  6
CONTINUOUS
 10
169.4128212635
 20
91.3125
  0
VERTEX
  8
0
 62
7
  6
CONTINUOUS
 10
169.6346226239
 20
91.2826414195
  0
VERTEX
  8
0
 62
7
  6
CONTINUOUS
 10
169.8364116622
 20
91.1991693103
  0
VERTEX
  8
0
 62
7
  6
CONTINUOUS
 10
170.0104212372
 20
91.0712337663
  0
VERTEX
  8
0
 62
7
  6
CONTINUOUS
 10
170.1493232398
 20
90.9099965932
  0
VERTEX
  8
0
 62
7
  6
CONTINUOUS
 10
170.2507559143
 20
90.7237286659
  0
VERTEX
  8
0
 62
7
  6
CONTINUOUS
 10
170.3120521231
 20
90.5224541626
  0
VERTEX
  8
0
 62
7
  6
CONTINUOUS
 10
170.3327104089
 20
90.3125
  0
SEQEND
  0
POLYLINE
  8
0
 62
7
  6
CONTINUOUS
 66
1
 70
0
  0
VERTEX
  8
0
 62
7
  6
CONTINUOUS
 10
129.6970096653
 20
81.9798926753
  0
VERTEX
  8
0
 62
7
  6
CONTINUOUS
 10
129.4411577046
 20
82.2375038373
  0
VERTEX
  8
0
 62
7
  6
CONTINUOUS
 10
129.3123398407
 20
82.3588287673
  0
VERTEX
  8
0
 62
7
  6
CONTINUOUS
 10
129.0703982692
 20
82.571851192
  0
SEQEND
  0
LINE
  8
0
 62
9
  6
CONTINUOUS
 10
130.9543906387
 20
81.9798926753
 11
130.9543906387
 21
70.6451073247
  0
LINE
  8
0
 62
9
  6
CONTINUOUS
 10
131.4430059107
 20
82.571851192
 11
131.4430059107
 21
70.053148808
  0
LINE
  8
0
 62
7
  6
CONTINUOUS
 10
131.9258753488
 20
83.0775619075
 11
131.9258753488
 21
69.5474380925
  0
LINE
  8
0
 62
7
  6
CONTINUOUS
 10
135.4414141079
 20
91.3125
 11
135.4414141079
 21
61.3125
  0
POLYLINE
  8
0
 62
7
  6
CONTINUOUS
 66
1
 70
0
  0
VERTEX
  8
0
 62
7
  6
CONTINUOUS
 10
162.9557648631
 20
91.3125
  0
VERTEX
  8
0
 62
7
  6
CONTINUOUS
 10
163.0987852797
 20
91.2826414195
  0
VERTEX
  8
0
 62
7
  6
CONTINUOUS
 10
163.2321845254
 20
91.1991693103
  0
VERTEX
  8
0
 62
7
  6
CONTINUOUS
 10
163.3495754627
 20
91.0712337663
  0
VERTEX
  8
0
 62
7
  6
CONTINUOUS
 10
163.4447696291
 20
90.9099965932
  0
VERTEX
  8
0
 62
7
  6
CONTINUOUS
 10
163.5150871611
 20
90.7237286659
  0
VERTEX
  8
0
 62
7
  6
CONTINUOUS
 10
163.5578998064
 20
90.5224541626
  0
VERTEX
  8
0
 62
7
  6
CONTINUOUS
 10
163.5723820443
 20
90.3125
  0
SEQEND
  0
POLYLINE
  8
0
 62
7
  6
CONTINUOUS
 66
1
 70
0
  0
VERTEX
  8
0
 62
7
  6
CONTINUOUS
 10
177.7867168645
 20
82.9675810159
  0
VERTEX
  8
0
 62
7
  6
CONTINUOUS
 10
177.9607644036
 20
82.9139594076
  0
VERTEX
  8
0
 62
7
  6
CONTINUOUS
 10
178.0911442875
 20
82.8392167183
  0
VERTEX
  8
0
 62
7
  6
CONTINUOUS
 10
178.1465636854
 20
82.7956650364
  0
VERTEX
  8
0
 62
7
  6
CONTINUOUS
 10
178.245292265
 20
82.6938711542
  0
VERTEX
  8
0
 62
7
  6
CONTINUOUS
 10
178.3284161355
 20
82.571851192
  0
SEQEND
  0
POLYLINE
  8
0
 62
7
  6
CONTINUOUS
 66
1
 70
0
  0
VERTEX
  8
0
 62
7
  6
CONTINUOUS
 10
151.6803320998
 20
70.053148808
  0
VERTEX
  8
0
 62
7
  6
CONTINUOUS
 10
151.9223043627
 20
70.2662240399
  0
VERTEX
  8
0
 62
7
  6
CONTINUOUS
 10
152.0426490701
 20
70.3874315093
  0
VERTEX
  8
0
 62
7
  6
CONTINUOUS
 10
152.2645765941
 20
70.6451073247
  0
SEQEND
  0
POLYLINE
  8
0
 62
7
  6
CONTINUOUS
 66
1
 70
0
  0
VERTEX
  8
0
 62
7
  6
CONTINUOUS
 10
151.6803320998
 20
82.571851192
  0
VERTEX
  8
0
 62
7
  6
CONTINUOUS
 10
151.5070038573
 20
82.6940197217
  0
VERTEX
  8
0
 62
7
  6
CONTINUOUS
 10
151.3211753426
 20
82.7959094062
  0
VERTEX
  8
0
 62
7
  6
CONTINUOUS
 10
151.2243050932
 20
82.8394951234
  0
VERTEX
  8
0
 62
7
  6
CONTINUOUS
 10
151.0133594776
 20
82.914176402
  0
VERTEX
  8
0
 62
7
  6
CONTINUOUS
 10
150.7613380722
 20
82.9675810159
  0
SEQEND
  0
LINE
  8
0
 62
7
  6
CONTINUOUS
 10
144.673709289
 20
90.3125
 11
144.673709289
 21
83.3125
  0
LINE
  8
0
 62
7
  6
CONTINUOUS
 10
144.673709289
 20
69.3125
 11
144.673709289
 21
62.3125
  0
POLYLINE
  8
0
 62
7
  6
CONTINUOUS
 66
1
 70
0
  0
VERTEX
  8
0
 62
7
  6
CONTINUOUS
 10
169.6445730637
 20
82.9675810159
  0
VERTEX
  8
0
 62
7
  6
CONTINUOUS
 10
169.7426662627
 20
82.9139594076
  0
VERTEX
  8
0
 62
7
  6
CONTINUOUS
 10
169.8076528532
 20
82.8392167183
  0
VERTEX
  8
0
 62
7
  6
CONTINUOUS
 10
169.8324784648
 20
82.7956650364
  0
VERTEX
  8
0
 62
7
  6
CONTINUOUS
 10
169.871464812
 20
82.6938711542
  0
VERTEX
  8
0
 62
7
  6
CONTINUOUS
 10
169.8976316598
 20
82.571851192
  0
SEQEND
  0
POLYLINE
  8
0
 62
7
  6
CONTINUOUS
 66
1
 70
0
  0
VERTEX
  8
0
 62
7
  6
CONTINUOUS
 10
149.4836524356
 20
91.3125
  0
VERTEX
  8
0
 62
7
  6
CONTINUOUS
 10
149.5306415355
 20
91.2826414195
  0
VERTEX
  8
0
 62
7
  6
CONTINUOUS
 10
149.5795610709
 20
91.1991693103
  0
VERTEX
  8
0
 62
7
  6
CONTINUOUS
 10
149.6261742909
 20
91.0712337663
  0
VERTEX
  8
0
 62
7
  6
CONTINUOUS
 10
149.6661787996
 20
90.9099965932
  0
VERTEX
  8
0
 62
7
  6
CONTINUOUS
 10
149.6968998572
 20
90.7237286659
  0
VERTEX
  8
0
 62
7
  6
CONTINUOUS
 10
149.7160651019
 20
90.5224541626
  0
VERTEX
  8
0
 62
7
  6
CONTINUOUS
 10
149.7226245203
 20
90.3125
  0
SEQEND
  0
POLYLINE
  8
0
 62
7
  6
CONTINUOUS
 66
1
 70
0
  0
VERTEX
  8
0
 62
7
  6
CONTINUOUS
 10
152.2645765941
 20
81.9798926753
  0
VERTEX
  8
0
 62
7
  6
CONTINUOUS
 10
152.0427103772
 20
82.2375038373
  0
VERTEX
  8
0
 62
7
  6
CONTINUOUS
 10
151.9222494735
 20
82.3588287673
  0
VERTEX
  8
0
 62
7
  6
CONTINUOUS
 10
151.6803320998
 20
82.571851192
  0
SEQEND
  0
POLYLINE
  8
0
 62
7
  6
CONTINUOUS
 66
1
 70
0
  0
VERTEX
  8
0
 62
7
  6
CONTINUOUS
 10
153.2896029552
 20
70.6451073247
  0
VERTEX
  8
0
 62
7
  6
CONTINUOUS
 10
153.4645250364
 20
70.3874780021
  0
VERTEX
  8
0
 62
7
  6
CONTINUOUS
 10
153.530370286
 20
70.2662572856
  0
VERTEX
  8
0
 62
7
  6
CONTINUOUS
 10
153.6144995704
 20
70.053148808
  0
SEQEND
  0
POLYLINE
  8
0
 62
7
  6
CONTINUOUS
 66
1
 70
0
  0
VERTEX
  8
0
 62
7
  6
CONTINUOUS
 10
144.673709289
 20
90.3125
  0
VERTEX
  8
0
 62
7
  6
CONTINUOUS
 10
144.6508959309
 20
90.5224564727
  0
VERTEX
  8
0
 62
7
  6
CONTINUOUS
 10
144.5828057764
 20
90.7237301401
  0
VERTEX
  8
0
 62
7
  6
CONTINUOUS
 10
144.4687915061
 20
90.9099984563
  0
VERTEX
  8
0
 62
7
  6
CONTINUOUS
 10
144.3098740983
 20
91.0712390626
  0
VERTEX
  8
0
 62
7
  6
CONTINUOUS
 10
144.1060725466
 20
91.1991749564
  0
VERTEX
  8
0
 62
7
  6
CONTINUOUS
 10
143.862834461
 20
91.2826414788
  0
VERTEX
  8
0
 62
7
  6
CONTINUOUS
 10
143.5863235714
 20
91.3125
  0
SEQEND
  0
LINE
  8
0
 62
7
  6
CONTINUOUS
 10
146.0971549981
 20
83.3125
 11
146.0971549981
 21
69.3125
  0
LINE
  8
0
 62
9
  6
CONTINUOUS
 10
149.1392604759
 20
83.261362411
 11
149.1392604759
 21
69.363637589
  0
LINE
  8
0
 62
7
  6
CONTINUOUS
 10
149.7226245203
 20
90.3125
 11
149.7226245203
 21
83.3125
  0
LINE
  8
0
 62
7
  6
CONTINUOUS
 10
149.7226245203
 20
69.3125
 11
149.7226245203
 21
62.3125
  0
POLYLINE
  8
0
 62
7
  6
CONTINUOUS
 66
1
 70
0
  0
VERTEX
  8
0
 62
7
  6
CONTINUOUS
 10
149.7226245203
 20
62.3125
  0
VERTEX
  8
0
 62
7
  6
CONTINUOUS
 10
149.71607398
 20
62.1026869346
  0
VERTEX
  8
0
 62
7
  6
CONTINUOUS
 10
149.6968970291
 20
61.901249421
  0
VERTEX
  8
0
 62
7
  6
CONTINUOUS
 10
149.6661888707
 20
61.7150527041
  0
VERTEX
  8
0
 62
7
  6
CONTINUOUS
 10
149.6261747652
 20
61.5537678152
  0
VERTEX
  8
0
 62
7
  6
CONTINUOUS
 10
149.5795756903
 20
61.4258630433
  0
VERTEX
  8
0
 62
7
  6
CONTINUOUS
 10
149.5306270864
 20
61.3423413071
  0
VERTEX
  8
0
 62
7
  6
CONTINUOUS
 10
149.4836524356
 20
61.3125
  0
SEQEND
  0
POLYLINE
  8
0
 62
7
  6
CONTINUOUS
 66
1
 70
0
  0
VERTEX
  8
0
 62
7
  6
CONTINUOUS
 10
153.6144995704
 20
82.571851192
  0
VERTEX
  8
0
 62
7
  6
CONTINUOUS
 10
153.5303948431
 20
82.3587923332
  0
VERTEX
  8
0
 62
7
  6
CONTINUOUS
 10
153.4644856484
 20
82.2374551718
  0
VERTEX
  8
0
 62
7
  6
CONTINUOUS
 10
153.2896029552
 20
81.9798926753
  0
SEQEND
  0
POLYLINE
  8
0
 62
7
  6
CONTINUOUS
 66
1
 70
0
  0
VERTEX
  8
0
 62
7
  6
CONTINUOUS
 10
168.6351935024
 20
82.571851192
  0
VERTEX
  8
0
 62
7
  6
CONTINUOUS
 10
168.4736686184
 20
82.6940197217
  0
VERTEX
  8
0
 62
7
  6
CONTINUOUS
 10
168.2966864771
 20
82.7959094062
  0
VERTEX
  8
0
 62
7
  6
CONTINUOUS
 10
168.2028578189
 20
82.8394951234
  0
VERTEX
  8
0
 62
7
  6
CONTINUOUS
 10
167.9947593367
 20
82.914176402
  0
VERTEX
  8
0
 62
7
  6
CONTINUOUS
 10
167.7391573893
 20
82.9675810159
  0
SEQEND
  0
POLYLINE
  8
0
 62
7
  6
CONTINUOUS
 66
1
 70
0
  0
VERTEX
  8
0
 62
7
  6
CONTINUOUS
 10
153.6144995704
 20
70.053148808
  0
VERTEX
  8
0
 62
7
  6
CONTINUOUS
 10
153.6382985945
 20
69.9681507221
  0
VERTEX
  8
0
 62
7
  6
CONTINUOUS
 10
153.6755046215
 20
69.8220021406
  0
VERTEX
  8
0
 62
7
  6
CONTINUOUS
 10
153.6862900163
 20
69.7634657833
  0
VERTEX
  8
0
 62
7
  6
CONTINUOUS
 10
153.6909276987
 20
69.7082615532
  0
SEQEND
  0
LINE
  8
0
 62
9
  6
CONTINUOUS
 10
151.6803320998
 20
82.571851192
 11
151.6803320998
 21
70.053148808
  0
LINE
  8
0
 62
7
  6
CONTINUOUS
 10
151.7480720272
 20
91.3125
 11
151.7480720272
 21
83.3125
  0
LINE
  8
0
 62
7
  6
CONTINUOUS
 10
151.7480720272
 20
69.3125
 11
151.7480720272
 21
61.3125
  0
LINE
  8
0
 62
9
  6
CONTINUOUS
 10
152.2645765941
 20
81.9798926753
 11
152.2645765941
 21
70.6451073247
  0
LINE
  8
0
 62
9
  6
CONTINUOUS
 10
153.2896029552
 20
81.9798926753
 11
153.2896029552
 21
70.6451073247
  0
LINE
  8
0
 62
9
  6
CONTINUOUS
 10
153.6144995704
 20
82.571851192
 11
153.6144995704
 21
70.053148808
  0
LINE
  8
0
 62
7
  6
CONTINUOUS
 10
153.6909276987
 20
82.9167406277
 11
153.6909276987
 21
69.7082593723
  0
POLYLINE
  8
0
 62
7
  6
CONTINUOUS
 66
1
 70
0
  0
VERTEX
  8
0
 62
7
  6
CONTINUOUS
 10
153.6909276987
 20
69.7082615532
  0
VERTEX
  8
0
 62
7
  6
CONTINUOUS
 10
153.6887933066
 20
69.6804305535
  0
VERTEX
  8
0
 62
7
  6
CONTINUOUS
 10
153.6806042506
 20
69.6574189841
  0
SEQEND
  0
POLYLINE
  8
0
 62
7
  6
CONTINUOUS
 66
1
 70
0
  0
VERTEX
  8
0
 62
7
  6
CONTINUOUS
 10
153.6909276987
 20
82.9167185694
  0
VERTEX
  8
0
 62
7
  6
CONTINUOUS
 10
153.6826665772
 20
82.8392167183
  0
VERTEX
  8
0
 62
7
  6
CONTINUOUS
 10
153.6739040674
 20
82.7956650364
  0
VERTEX
  8
0
 62
7
  6
CONTINUOUS
 10
153.6484458532
 20
82.6938711542
  0
VERTEX
  8
0
 62
7
  6
CONTINUOUS
 10
153.6144995704
 20
82.571851192
  0
SEQEND
  0
POLYLINE
  8
0
 62
7
  6
CONTINUOUS
 66
1
 70
0
  0
VERTEX
  8
0
 62
7
  6
CONTINUOUS
 10
168.6351935024
 20
70.053148808
  0
VERTEX
  8
0
 62
7
  6
CONTINUOUS
 10
168.8479536859
 20
70.2662240399
  0
VERTEX
  8
0
 62
7
  6
CONTINUOUS
 10
168.94543438
 20
70.3874315093
  0
VERTEX
  8
0
 62
7
  6
CONTINUOUS
 10
169.1066025863
 20
70.6451073247
  0
SEQEND
  0
LINE
  8
0
 62
7
  6
CONTINUOUS
 10
153.6806042506
 20
82.9675810159
 11
153.6909276987
 21
82.9167185694
  0
LINE
  8
0
 62
7
  6
CONTINUOUS
 10
160.2769366712
 20
90.3125
 11
160.2769366712
 21
83.3125
  0
LINE
  8
0
 62
7
  6
CONTINUOUS
 10
160.2769366712
 20
69.3125
 11
160.2769366712
 21
62.3125
  0
LINE
  8
0
 62
7
  6
CONTINUOUS
 10
161.8947642181
 20
83.3125
 11
161.8947642181
 21
69.3125
  0
LINE
  8
0
 62
7
  6
CONTINUOUS
 10
163.5723820443
 20
90.3125
 11
163.5723820443
 21
83.3125
  0
LINE
  8
0
 62
7
  6
CONTINUOUS
 10
163.5723820443
 20
69.3125
 11
163.5723820443
 21
62.3125
  0
POLYLINE
  8
0
 62
7
  6
CONTINUOUS
 66
1
 70
0
  0
VERTEX
  8
0
 62
7
  6
CONTINUOUS
 10
163.5723820443
 20
62.3125
  0
VERTEX
  8
0
 62
7
  6
CONTINUOUS
 10
163.557919465
 20
62.1026869346
  0
VERTEX
  8
0
 62
7
  6
CONTINUOUS
 10
163.5150807866
 20
61.901249421
  0
VERTEX
  8
0
 62
7
  6
CONTINUOUS
 10
163.44479305
 20
61.7150527041
  0
VERTEX
  8
0
 62
7
  6
CONTINUOUS
 10
163.3495766188
 20
61.5537678152
  0
VERTEX
  8
0
 62
7
  6
CONTINUOUS
 10
163.2322226497
 20
61.4258630433
  0
VERTEX
  8
0
 62
7
  6
CONTINUOUS
 10
163.0987439031
 20
61.3423413071
  0
VERTEX
  8
0
 62
7
  6
CONTINUOUS
 10
162.9557648631
 20
61.3125
  0
SEQEND
  0
POLYLINE
  8
0
 62
7
  6
CONTINUOUS
 66
1
 70
0
  0
VERTEX
  8
0
 62
7
  6
CONTINUOUS
 10
177.8899759646
 20
82.571851192
  0
VERTEX
  8
0
 62
7
  6
CONTINUOUS
 10
177.8070556949
 20
82.6538446347
  0
VERTEX
  8
0
 62
7
  6
CONTINUOUS
 10
177.6014708731
 20
82.8026550395
  0
VERTEX
  8
0
 62
7
  6
CONTINUOUS
 10
177.484677895
 20
82.8628516894
  0
VERTEX
  8
0
 62
7
  6
CONTINUOUS
 10
177.2408350775
 20
82.9458946526
  0
VERTEX
  8
0
 62
7
  6
CONTINUOUS
 10
177.1249729454
 20
82.9675810159
  0
SEQEND
  0
POLYLINE
  8
0
 62
7
  6
CONTINUOUS
 66
1
 70
0
  0
VERTEX
  8
0
 62
7
  6
CONTINUOUS
 10
169.1066025863
 20
81.9798926753
  0
VERTEX
  8
0
 62
7
  6
CONTINUOUS
 10
168.9454824533
 20
82.2375038373
  0
VERTEX
  8
0
 62
7
  6
CONTINUOUS
 10
168.8479078727
 20
82.3588287673
  0
VERTEX
  8
0
 62
7
  6
CONTINUOUS
 10
168.6351935024
 20
82.571851192
  0
SEQEND
  0
POLYLINE
  8
0
 62
7
  6
CONTINUOUS
 66
1
 70
0
  0
VERTEX
  8
0
 62
7
  6
CONTINUOUS
 10
169.7756410281
 20
70.6451073247
  0
VERTEX
  8
0
 62
7
  6
CONTINUOUS
 10
169.8735038002
 20
70.3874780021
  0
VERTEX
  8
0
 62
7
  6
CONTINUOUS
 10
169.8975504614
 20
70.2662572856
  0
VERTEX
  8
0
 62
7
  6
CONTINUOUS
 10
169.9051692377
 20
70.1557738301
  0
SEQEND
  0
POLYLINE
  8
0
 62
7
  6
CONTINUOUS
 66
1
 70
0
  0
VERTEX
  8
0
 62
7
  6
CONTINUOUS
 10
160.2769366712
 20
90.3125
  0
VERTEX
  8
0
 62
7
  6
CONTINUOUS
 10
160.2518452005
 20
90.5224564727
  0
VERTEX
  8
0
 62
7
  6
CONTINUOUS
 10
160.1770990108
 20
90.7237301401
  0
VERTEX
  8
0
 62
7
  6
CONTINUOUS
 10
160.0524153631
 20
90.9099984563
  0
VERTEX
  8
0
 62
7
  6
CONTINUOUS
 10
159.8796041158
 20
91.0712390626
  0
VERTEX
  8
0
 62
7
  6
CONTINUOUS
 10
159.6596136282
 20
91.1991749564
  0
VERTEX
  8
0
 62
7
  6
CONTINUOUS
 10
159.3993868351
 20
91.2826414788
  0
VERTEX
  8
0
 62
7
  6
CONTINUOUS
 10
159.1065568196
 20
91.3125
  0
SEQEND
  0
LINE
  8
0
 62
7
  6
CONTINUOUS
 10
169.8976316598
 20
82.571851192
 11
169.9051692377
 21
82.4692261601
  0
LINE
  8
0
 62
9
  6
CONTINUOUS
 10
165.8445936604
 20
83.261362411
 11
165.8445936604
 21
69.363637589
  0
LINE
  8
0
 62
9
  6
CONTINUOUS
 10
168.6351935024
 20
82.571851192
 11
168.6351935024
 21
70.053148808
  0
LINE
  8
0
 62
9
  6
CONTINUOUS
 10
169.1066025863
 20
81.9798926753
 11
169.1066025863
 21
70.6451073247
  0
LINE
  8
0
 62
7
  6
CONTINUOUS
 10
169.1882142417
 20
90.3125
 11
169.1882142417
 21
83.3125
  0
LINE
  8
0
 62
7
  6
CONTINUOUS
 10
169.1882142417
 20
69.3125
 11
169.1882142417
 21
62.3125
  0
LINE
  8
0
 62
9
  6
CONTINUOUS
 10
169.7756410281
 20
81.9798926753
 11
169.7756410281
 21
70.6451073247
  0
LINE
  8
0
 62
7
  6
CONTINUOUS
 10
169.9051692377
 20
82.4692250747
 11
169.9051692377
 21
70.1557749253
  0
LINE
  8
0
 62
7
  6
CONTINUOUS
 10
170.3327104089
 20
90.3125
 11
170.3327104089
 21
83.3125
  0
LINE
  8
0
 62
7
  6
CONTINUOUS
 10
170.3327104089
 20
69.3125
 11
170.3327104089
 21
62.3125
  0
POLYLINE
  8
0
 62
7
  6
CONTINUOUS
 66
1
 70
0
  0
VERTEX
  8
0
 62
7
  6
CONTINUOUS
 10
169.9051692377
 20
82.4692261601
  0
VERTEX
  8
0
 62
7
  6
CONTINUOUS
 10
169.8975571071
 20
82.3587923332
  0
VERTEX
  8
0
 62
7
  6
CONTINUOUS
 10
169.8734864187
 20
82.2374551718
  0
VERTEX
  8
0
 62
7
  6
CONTINUOUS
 10
169.7756410281
 20
81.9798926753
  0
SEQEND
  0
LINE
  8
0
 62
7
  6
CONTINUOUS
 10
169.9051692377
 20
70.1557738301
 11
169.8976316598
 21
70.053148808
  0
POLYLINE
  8
0
 62
7
  6
CONTINUOUS
 66
1
 70
0
  0
VERTEX
  8
0
 62
7
  6
CONTINUOUS
 10
169.8976316598
 20
70.053148808
  0
VERTEX
  8
0
 62
7
  6
CONTINUOUS
 10
169.8812165104
 20
69.9681507221
  0
VERTEX
  8
0
 62
7
  6
CONTINUOUS
 10
169.8287384864
 20
69.8220021406
  0
VERTEX
  8
0
 62
7
  6
CONTINUOUS
 10
169.7919951176
 20
69.7634657833
  0
VERTEX
  8
0
 62
7
  6
CONTINUOUS
 10
169.6986187045
 20
69.6804305535
  0
VERTEX
  8
0
 62
7
  6
CONTINUOUS
 10
169.6445730637
 20
69.6574189841
  0
SEQEND
  0
POLYLINE
  8
0
 62
7
  6
CONTINUOUS
 66
1
 70
0
  0
VERTEX
  8
0
 62
7
  6
CONTINUOUS
 10
178.3284161355
 20
70.053148808
  0
VERTEX
  8
0
 62
7
  6
CONTINUOUS
 10
178.2737667218
 20
69.9681507221
  0
VERTEX
  8
0
 62
7
  6
CONTINUOUS
 10
178.137934271
 20
69.8220021406
  0
VERTEX
  8
0
 62
7
  6
CONTINUOUS
 10
178.0580939312
 20
69.7634657833
  0
VERTEX
  8
0
 62
7
  6
CONTINUOUS
 10
177.8801003882
 20
69.6804305535
  0
VERTEX
  8
0
 62
7
  6
CONTINUOUS
 10
177.7867168645
 20
69.6574189841
  0
SEQEND
  0
POLYLINE
  8
0
 62
7
  6
CONTINUOUS
 66
1
 70
0
  0
VERTEX
  8
0
 62
7
  6
CONTINUOUS
 10
177.8899759646
 20
70.053148808
  0
VERTEX
  8
0
 62
7
  6
CONTINUOUS
 10
178.0478620505
 20
70.2662240399
  0
VERTEX
  8
0
 62
7
  6
CONTINUOUS
 10
178.1107211211
 20
70.3874315093
  0
VERTEX
  8
0
 62
7
  6
CONTINUOUS
 10
178.1916907454
 20
70.6451073247
  0
SEQEND
  0
POLYLINE
  8
0
 62
7
  6
CONTINUOUS
 66
1
 70
0
  0
VERTEX
  8
0
 62
7
  6
CONTINUOUS
 10
169.1882142417
 20
90.3125
  0
VERTEX
  8
0
 62
7
  6
CONTINUOUS
 10
169.1638710601
 20
90.5224564727
  0
VERTEX
  8
0
 62
7
  6
CONTINUOUS
 10
169.0914843287
 20
90.7237301401
  0
VERTEX
  8
0
 62
7
  6
CONTINUOUS
 10
168.9711699917
 20
90.9099984563
  0
VERTEX
  8
0
 62
7
  6
CONTINUOUS
 10
168.8053084918
 20
91.0712390626
  0
VERTEX
  8
0
 62
7
  6
CONTINUOUS
 10
168.5956631677
 20
91.1991749564
  0
VERTEX
  8
0
 62
7
  6
CONTINUOUS
 10
168.349834859
 20
91.2826414788
  0
VERTEX
  8
0
 62
7
  6
CONTINUOUS
 10
168.0760053391
 20
91.3125
  0
SEQEND
  0
LINE
  8
0
 62
7
  6
CONTINUOUS
 10
178.4240453578
 20
70.6451073247
 11
178.4377208636
 21
70.4814033318
  0
LINE
  8
0
 62
7
  6
CONTINUOUS
 10
170.8052897477
 20
83.3125
 11
170.8052897477
 21
69.3125
  0
LINE
  8
0
 62
9
  6
CONTINUOUS
 10
175.1864354304
 20
83.261362411
 11
175.1864354304
 21
69.363637589
  0
LINE
  8
0
 62
9
  6
CONTINUOUS
 10
177.8899759646
 20
82.571851192
 11
177.8899759646
 21
70.053148808
  0
LINE
  8
0
 62
9
  6
CONTINUOUS
 10
178.1916907454
 20
81.9798926753
 11
178.1916907454
 21
70.6451073247
  0
LINE
  8
0
 62
9
  6
CONTINUOUS
 10
178.4240453578
 20
81.9798926753
 11
178.4240453578
 21
70.6451073247
  0
LINE
  8
0
 62
7
  6
CONTINUOUS
 10
178.4377208638
 20
82.1436149571
 11
178.4377208638
 21
70.4813850429
  0
POLYLINE
  8
0
 62
7
  6
CONTINUOUS
 66
1
 70
0
  0
VERTEX
  8
0
 62
7
  6
CONTINUOUS
 10
178.4377208636
 20
70.4814033318
  0
VERTEX
  8
0
 62
7
  6
CONTINUOUS
 10
178.4330451263
 20
70.3874780021
  0
VERTEX
  8
0
 62
7
  6
CONTINUOUS
 10
178.4123928167
 20
70.2662572856
  0
VERTEX
  8
0
 62
7
  6
CONTINUOUS
 10
178.3284161355
 20
70.053148808
  0
SEQEND
  0
LINE
  8
0
 62
7
  6
CONTINUOUS
 10
178.4377208636
 20
82.1435966386
 11
178.4240453578
 21
81.9798926753
  0
POLYLINE
  8
0
 62
7
  6
CONTINUOUS
 66
1
 70
0
  0
VERTEX
  8
0
 62
7
  6
CONTINUOUS
 10
170.3327104089
 20
62.3125
  0
VERTEX
  8
0
 62
7
  6
CONTINUOUS
 10
170.3120801912
 20
62.1026869346
  0
VERTEX
  8
0
 62
7
  6
CONTINUOUS
 10
170.2507467622
 20
61.901249421
  0
VERTEX
  8
0
 62
7
  6
CONTINUOUS
 10
170.1493571857
 20
61.7150527041
  0
VERTEX
  8
0
 62
7
  6
CONTINUOUS
 10
170.0104229356
 20
61.5537678152
  0
VERTEX
  8
0
 62
7
  6
CONTINUOUS
 10
169.836468693
 20
61.4258630433
  0
VERTEX
  8
0
 62
7
  6
CONTINUOUS
 10
169.6345593104
 20
61.3423413071
  0
VERTEX
  8
0
 62
7
  6
CONTINUOUS
 10
169.4128212635
 20
61.3125
  0
SEQEND
  0
POLYLINE
  8
0
 62
7
  6
CONTINUOUS
 66
1
 70
0
  0
VERTEX
  8
0
 62
7
  6
CONTINUOUS
 10
178.3284161355
 20
82.571851192
  0
VERTEX
  8
0
 62
7
  6
CONTINUOUS
 10
178.4123807495
 20
82.3587923332
  0
VERTEX
  8
0
 62
7
  6
CONTINUOUS
 10
178.4330518478
 20
82.2374551718
  0
VERTEX
  8
0
 62
7
  6
CONTINUOUS
 10
178.4377208636
 20
82.1435966386
  0
SEQEND
  0
POLYLINE
  8
0
 62
7
  6
CONTINUOUS
 66
1
 70
0
  0
VERTEX
  8
0
 62
7
  6
CONTINUOUS
 10
178.1916907454
 20
81.9798926753
  0
VERTEX
  8
0
 62
7
  6
CONTINUOUS
 10
178.1107501623
 20
82.2375038373
  0
VERTEX
  8
0
 62
7
  6
CONTINUOUS
 10
178.0478308392
 20
82.3588287673
  0
VERTEX
  8
0
 62
7
  6
CONTINUOUS
 10
177.8899759646
 20
82.571851192
  0
SEQEND
  0
ARC
  8
0
 62
7
  6
CONTINUOUS
 10
59.4441082348
 20
131.7266900152
 40
20.0
 50
337.309582213
 51
349.9641461547
  0
ARC
  8
0
 62
7
  6
CONTINUOUS
 10
41.9932720263
 20
150.7968873584
 40
20.0
 50
317.309582213
 51
329.9641461547
  0
ARC
  8
0
 62
7
  6
CONTINUOUS
 10
54.5472416432
 20
135.8356489662
 40
20.0
 50
110.0358538453
 51
122.690417787
  0
ARC
  8
0
 62
7
  6
CONTINUOUS
 10
50.3120318645
 20
144.920202439
 40
9.9
 50
335.3174042721
 51
40.4846629724
  0
ARC
  8
0
 62
7
  6
CONTINUOUS
 10
50.2043742589
 20
145.0485037773
 40
9.9
 50
39.5153370276
 51
104.6825957279
  0
ARC
  8
0
 62
7
  6
CONTINUOUS
 10
58.8989160513
 20
135.202042053
 40
3.0
 50
137.309582213
 51
192.9607448368
  0
ARC
  8
0
 62
7
  6
CONTINUOUS
 10
58.0644669035
 20
135.9022280251
 40
3.0
 50
267.0392551632
 51
322.690417787
  0
ARC
  8
0
 62
7
  6
CONTINUOUS
 10
41.3447506173
 20
153.3509300605
 40
1.0
 50
210.5135109476
 51
247.0392551632
  0
ARC
  8
0
 62
7
  6
CONTINUOUS
 10
57.9611634013
 20
133.9048977103
 40
1.0
 50
230.5135109476
 51
267.0392551632
  0
ARC
  8
0
 62
7
  6
CONTINUOUS
 10
56.9498681368
 20
134.7534751937
 40
1.0
 50
192.9607448368
 51
229.4864890524
  0
ARC
  8
0
 62
7
  6
CONTINUOUS
 10
38.7970693545
 20
156.3328727772
 40
20.0
 50
90.0358538453
 51
102.690417787
  0
ARC
  8
0
 62
7
  6
CONTINUOUS
 10
31.0072121044
 20
180.9808389227
 40
20.0
 50
70.0358538453
 51
82.690417787
  0
ARC
  8
0
 62
7
  6
CONTINUOUS
 10
32.1172416432
 20
174.6855485799
 40
20.0
 50
297.309582213
 51
309.9641461547
  0
ARC
  8
0
 62
7
  6
CONTINUOUS
 10
37.9243742589
 20
166.3180876943
 40
9.9
 50
315.3174042721
 51
20.4846629724
  0
ARC
  8
0
 62
7
  6
CONTINUOUS
 10
37.8670908434
 20
166.4754725849
 40
9.9
 50
19.5153370276
 51
84.6825957279
  0
ARC
  8
0
 62
7
  6
CONTINUOUS
 10
33.6022915999
 20
190.6623509988
 40
9.9
 50
295.3174042721
 51
0.4846629724
  0
ARC
  8
0
 62
7
  6
CONTINUOUS
 10
33.9335134297
 20
177.6982654768
 40
3.0
 50
97.309582213
 51
152.9607448368
  0
ARC
  8
0
 62
7
  6
CONTINUOUS
 10
33.7443591644
 20
178.7710126229
 40
3.0
 50
227.0392551632
 51
282.690417787
  0
ARC
  8
0
 62
7
  6
CONTINUOUS
 10
42.1249513566
 20
155.1924747399
 40
3.0
 50
247.0392551632
 51
302.690417787
  0
ARC
  8
0
 62
7
  6
CONTINUOUS
 10
42.6695993566
 20
154.2491167317
 40
3.0
 50
117.309582213
 51
172.9607448368
  0
ARC
  8
0
 62
7
  6
CONTINUOUS
 10
32.3813649117
 20
177.3073710455
 40
1.0
 50
190.5135109476
 51
227.0392551632
  0
ARC
  8
0
 62
7
  6
CONTINUOUS
 10
32.1521228862
 20
178.607467177
 40
1.0
 50
152.9607448368
 51
189.4864890524
  0
ARC
  8
0
 62
7
  6
CONTINUOUS
 10
40.6846745123
 20
154.4942154111
 40
1.0
 50
172.9607448368
 51
209.4864890524
  0
ARC
  8
0
 62
7
  6
CONTINUOUS
 10
82.364921875
 20
119.7751037961
 40
20.0
 50
357.309582213
 51
9.9641461547
  0
ARC
  8
0
 62
7
  6
CONTINUOUS
 10
101.5987192032
 20
116.3836663856
 40
20.0
 50
150.0358538453
 51
162.690417787
  0
ARC
  8
0
 62
7
  6
CONTINUOUS
 10
76.3580257446
 20
121.9614351879
 40
20.0
 50
130.0358538453
 51
142.690417787
  0
ARC
  8
0
 62
7
  6
CONTINUOUS
 10
92.514921875
 20
120.6204977216
 40
9.9
 50
15.3174042721
 51
80.4846629724
  0
ARC
  8
0
 62
7
  6
CONTINUOUS
 10
92.3499808538
 20
120.6495812738
 40
9.9
 50
79.5153370276
 51
144.6825957279
  0
ARC
  8
0
 62
7
  6
CONTINUOUS
 10
69.2711300873
 20
129.0495959939
 40
9.9
 50
355.3174042721
 51
60.4846629724
  0
ARC
  8
0
 62
7
  6
CONTINUOUS
 10
69.1260833876
 20
129.1333387451
 40
9.9
 50
59.5153370276
 51
124.6825957279
  0
ARC
  8
0
 62
7
  6
CONTINUOUS
 10
104.250273875
 20
118.6954977216
 40
3.0
 50
307.0392551632
 51
2.690417787
  0
ARC
  8
0
 62
7
  6
CONTINUOUS
 10
80.6639684012
 20
122.8543997518
 40
3.0
 50
157.309582213
 51
212.9607448368
  0
ARC
  8
0
 62
7
  6
CONTINUOUS
 10
79.6403649881
 20
123.2269609259
 40
3.0
 50
287.0392551632
 51
342.690417787
  0
ARC
  8
0
 62
7
  6
CONTINUOUS
 10
80.2264186499
 20
121.3147524892
 40
1.0
 50
250.5135109476
 51
287.0392551632
  0
ARC
  8
0
 62
7
  6
CONTINUOUS
 10
78.9858813599
 20
121.7662711372
 40
1.0
 50
212.9607448368
 51
249.4864890524
  0
ARC
  8
0
 62
7
  6
CONTINUOUS
 10
104.13484577
 20
117.0990517216
 40
1.0
 50
232.9607448368
 51
269.4864890524
  0
ARC
  8
0
 62
7
  6
CONTINUOUS
 10
31.0072121044
 20
200.5113485773
 40
20.0
 50
277.309582213
 51
289.9641461547
  0
ARC
  8
0
 62
7
  6
CONTINUOUS
 10
38.7970693545
 20
225.1593147228
 40
20.0
 50
257.309582213
 51
269.9641461547
  0
ARC
  8
0
 62
7
  6
CONTINUOUS
 10
32.1172416432
 20
206.8066389201
 40
20.0
 50
50.0358538453
 51
62.690417787
  0
ARC
  8
0
 62
7
  6
CONTINUOUS
 10
33.6022915999
 20
190.8298365012
 40
9.9
 50
359.5153370276
 51
64.6825957279
  0
ARC
  8
0
 62
7
  6
CONTINUOUS
 10
37.8670908434
 20
215.0167149151
 40
9.9
 50
275.3174042721
 51
340.4846629724
  0
ARC
  8
0
 62
7
  6
CONTINUOUS
 10
37.9243742589
 20
215.1740998057
 40
9.9
 50
339.5153370276
 51
44.6825957279
  0
ARC
  8
CURVE
 62
8
  6
PHANTOM
 10
36.9126708811
 20
190.74609375
 40
4.0
 50
75.0
 51
285.0
  0
ARC
  8
0
 62
7
  6
CONTINUOUS
 10
33.7443591644
 20
202.7211748771
 40
3.0
 50
77.309582213
 51
132.9607448368
  0
ARC
  8
0
 62
7
  6
CONTINUOUS
 10
33.9335134297
 20
203.7939220232
 40
3.0
 50
207.0392551632
 51
262.690417787
  0
ARC
  8
0
 62
7
  6
CONTINUOUS
 10
42.1249513566
 20
226.2997127601
 40
3.0
 50
57.309582213
 51
112.9607448368
  0
ARC
  8
0
 62
7
  6
CONTINUOUS
 10
42.6695993566
 20
227.2430707683
 40
3.0
 50
187.0392551632
 51
242.690417787
  0
ARC
  8
0
 62
7
  6
CONTINUOUS
 10
40.6846745123
 20
226.9979720889
 40
1.0
 50
150.5135109476
 51
187.0392551632
  0
ARC
  8
0
 62
7
  6
CONTINUOUS
 10
32.1521228862
 20
202.884720323
 40
1.0
 50
170.5135109476
 51
207.0392551632
  0
ARC
  8
0
 62
7
  6
CONTINUOUS
 10
32.3813649117
 20
204.1848164545
 40
1.0
 50
132.9607448368
 51
169.4864890524
  0
ARC
  8
0
 62
7
  6
CONTINUOUS
 10
54.5472416432
 20
245.6565385338
 40
20.0
 50
237.309582213
 51
249.9641461547
  0
ARC
  8
0
 62
7
  6
CONTINUOUS
 10
41.9932720263
 20
230.6953001416
 40
20.0
 50
30.0358538453
 51
42.690417787
  0
ARC
  8
0
 62
7
  6
CONTINUOUS
 10
59.4441082348
 20
249.7654974848
 40
20.0
 50
10.0358538453
 51
22.690417787
  0
ARC
  8
0
 62
7
  6
CONTINUOUS
 10
50.2043742589
 20
236.4436837227
 40
9.9
 50
255.3174042721
 51
320.4846629724
  0
ARC
  8
0
 62
7
  6
CONTINUOUS
 10
50.3120318645
 20
236.571985061
 40
9.9
 50
319.5153370276
 51
24.6825957279
  0
ARC
  8
0
 62
7
  6
CONTINUOUS
 10
58.0644669035
 20
245.5899594749
 40
3.0
 50
37.309582213
 51
92.9607448368
  0
ARC
  8
0
 62
7
  6
CONTINUOUS
 10
58.8989160513
 20
246.290145447
 40
3.0
 50
167.0392551632
 51
222.690417787
  0
ARC
  8
0
 62
7
  6
CONTINUOUS
 10
56.9498681368
 20
246.7387123063
 40
1.0
 50
130.5135109476
 51
167.0392551632
  0
ARC
  8
0
 62
7
  6
CONTINUOUS
 10
57.9611634013
 20
247.5872897897
 40
1.0
 50
92.9607448368
 51
129.4864890524
  0
ARC
  8
0
 62
7
  6
CONTINUOUS
 10
41.3447506173
 20
228.1412574395
 40
1.0
 50
112.9607448368
 51
149.4864890524
  0
ARC
  8
0
 62
7
  6
CONTINUOUS
 10
82.364921875
 20
261.7170837039
 40
20.0
 50
350.0358538453
 51
2.690417787
  0
ARC
  8
0
 62
7
  6
CONTINUOUS
 10
76.3580257446
 20
259.5307523121
 40
20.0
 50
217.309582213
 51
229.9641461547
  0
ARC
  8
0
 62
7
  6
CONTINUOUS
 10
101.5987192032
 20
265.1085211144
 40
20.0
 50
197.309582213
 51
209.9641461547
  0
ARC
  8
0
 62
7
  6
CONTINUOUS
 10
69.1260833876
 20
252.3588487549
 40
9.9
 50
235.3174042721
 51
300.4846629724
  0
ARC
  8
0
 62
7
  6
CONTINUOUS
 10
69.2711300873
 20
252.4425915061
 40
9.9
 50
299.5153370276
 51
4.6825957279
  0
ARC
  8
0
 62
7
  6
CONTINUOUS
 10
92.3499808538
 20
260.8426062262
 40
9.9
 50
215.3174042721
 51
280.4846629724
  0
ARC
  8
0
 62
7
  6
CONTINUOUS
 10
92.514921875
 20
260.8716897784
 40
9.9
 50
279.5153370276
 51
344.6825957279
  0
ARC
  8
0
 62
7
  6
CONTINUOUS
 10
104.250273875
 20
262.7966897784
 40
3.0
 50
357.309582213
 51
52.9607448368
  0
ARC
  8
0
 62
7
  6
CONTINUOUS
 10
79.6403649881
 20
258.2652265741
 40
3.0
 50
17.309582213
 51
72.9607448368
  0
ARC
  8
0
 62
7
  6
CONTINUOUS
 10
80.6639684012
 20
258.6377877482
 40
3.0
 50
147.0392551632
 51
202.690417787
  0
ARC
  8
0
 62
7
  6
CONTINUOUS
 10
78.9858813599
 20
259.7259163628
 40
1.0
 50
110.5135109476
 51
147.0392551632
  0
ARC
  8
0
 62
7
  6
CONTINUOUS
 10
80.2264186499
 20
260.1774350108
 40
1.0
 50
72.9607448368
 51
109.4864890524
  0
ARC
  8
0
 62
7
  6
CONTINUOUS
 10
104.13484577
 20
264.3931357784
 40
1.0
 50
90.5135109476
 51
127.0392551632
  0
ARC
  8
0
 62
7
  6
CONTINUOUS
 10
133.2318180054
 20
121.9614351879
 40
20.0
 50
37.309582213
 51
49.9641461547
  0
ARC
  8
0
 62
7
  6
CONTINUOUS
 10
107.9911245468
 20
116.3836663856
 40
20.0
 50
17.309582213
 51
29.9641461547
  0
ARC
  8
0
 62
7
  6
CONTINUOUS
 10
127.224921875
 20
119.7751037961
 40
20.0
 50
170.0358538453
 51
182.690417787
  0
ARC
  8
0
 62
7
  6
CONTINUOUS
 10
140.4637603624
 20
129.1333387451
 40
9.9
 50
55.3174042721
 51
120.4846629724
  0
ARC
  8
0
 62
7
  6
CONTINUOUS
 10
140.3187136627
 20
129.0495959939
 40
9.9
 50
119.5153370276
 51
184.6825957279
  0
ARC
  8
0
 62
7
  6
CONTINUOUS
 10
117.2398628962
 20
120.6495812738
 40
9.9
 50
35.3174042721
 51
100.4846629724
  0
ARC
  8
0
 62
7
  6
CONTINUOUS
 10
117.074921875
 20
120.6204977216
 40
9.9
 50
99.5153370276
 51
164.6825957279
  0
ARC
  8
CURVE
 62
8
  6
PHANTOM
 10
104.794921875
 20
122.8638427561
 40
4.0
 50
165.0
 51
15.0
  0
ARC
  8
0
 62
7
  6
CONTINUOUS
 10
129.9494787619
 20
123.2269609259
 40
3.0
 50
197.309582213
 51
252.9607448368
  0
ARC
  8
0
 62
7
  6
CONTINUOUS
 10
128.9258753488
 20
122.8543997518
 40
3.0
 50
327.0392551632
 51
22.690417787
  0
ARC
  8
0
 62
7
  6
CONTINUOUS
 10
105.339569875
 20
118.6954977216
 40
3.0
 50
177.309582213
 51
232.9607448368
  0
ARC
  8
0
 62
7
  6
CONTINUOUS
 10
105.45499798
 20
117.0990517216
 40
1.0
 50
270.5135109476
 51
307.0392551632
  0
ARC
  8
0
 62
7
  6
CONTINUOUS
 10
130.6039623901
 20
121.7662711372
 40
1.0
 50
290.5135109476
 51
327.0392551632
  0
ARC
  8
0
 62
7
  6
CONTINUOUS
 10
129.3634251001
 20
121.3147524892
 40
1.0
 50
252.9607448368
 51
289.4864890524
  0
ARC
  8
0
 62
7
  6
CONTINUOUS
 10
167.5965717237
 20
150.7968873584
 40
20.0
 50
210.0358538453
 51
222.690417787
  0
ARC
  8
0
 62
7
  6
CONTINUOUS
 10
150.1457355152
 20
131.7266900152
 40
20.0
 50
190.0358538453
 51
202.690417787
  0
ARC
  8
0
 62
7
  6
CONTINUOUS
 10
155.0426021068
 20
135.8356489662
 40
20.0
 50
57.309582213
 51
69.9641461547
  0
ARC
  8
0
 62
7
  6
CONTINUOUS
 10
159.3854694911
 20
145.0485037773
 40
9.9
 50
75.3174042721
 51
140.4846629724
  0
ARC
  8
0
 62
7
  6
CONTINUOUS
 10
159.2778118855
 20
144.920202439
 40
9.9
 50
139.5153370276
 51
204.6825957279
  0
ARC
  8
0
 62
7
  6
CONTINUOUS
 10
151.5253768465
 20
135.9022280251
 40
3.0
 50
217.309582213
 51
272.9607448368
  0
ARC
  8
0
 62
7
  6
CONTINUOUS
 10
150.6909276987
 20
135.202042053
 40
3.0
 50
347.0392551632
 51
42.690417787
  0
ARC
  8
0
 62
7
  6
CONTINUOUS
 10
152.6399756132
 20
134.7534751937
 40
1.0
 50
310.5135109476
 51
347.0392551632
  0
ARC
  8
0
 62
7
  6
CONTINUOUS
 10
151.6286803487
 20
133.9048977103
 40
1.0
 50
272.9607448368
 51
309.4864890524
  0
ARC
  8
0
 62
7
  6
CONTINUOUS
 10
168.2450931327
 20
153.3509300605
 40
1.0
 50
292.9607448368
 51
329.4864890524
  0
ARC
  8
0
 62
7
  6
CONTINUOUS
 10
178.5826316456
 20
180.9808389227
 40
20.0
 50
97.309582213
 51
109.9641461547
  0
ARC
  8
0
 62
7
  6
CONTINUOUS
 10
170.7927743955
 20
156.3328727772
 40
20.0
 50
77.309582213
 51
89.9641461547
  0
ARC
  8
0
 62
7
  6
CONTINUOUS
 10
177.4726021068
 20
174.6855485799
 40
20.0
 50
230.0358538453
 51
242.690417787
  0
ARC
  8
0
 62
7
  6
CONTINUOUS
 10
175.9875521501
 20
190.6623509988
 40
9.9
 50
179.5153370276
 51
244.6825957279
  0
ARC
  8
0
 62
7
  6
CONTINUOUS
 10
171.7227529066
 20
166.4754725849
 40
9.9
 50
95.3174042721
 51
160.4846629724
  0
ARC
  8
0
 62
7
  6
CONTINUOUS
 10
171.6654694911
 20
166.3180876943
 40
9.9
 50
159.5153370276
 51
224.6825957279
  0
ARC
  8
0
 62
7
  6
CONTINUOUS
 10
175.8454845856
 20
178.7710126229
 40
3.0
 50
257.309582213
 51
312.9607448368
  0
ARC
  8
0
 62
7
  6
CONTINUOUS
 10
175.6563303203
 20
177.6982654768
 40
3.0
 50
27.0392551632
 51
82.690417787
  0
ARC
  8
0
 62
7
  6
CONTINUOUS
 10
166.9202443934
 20
154.2491167317
 40
3.0
 50
7.0392551632
 51
62.690417787
  0
ARC
  8
0
 62
7
  6
CONTINUOUS
 10
167.4648923934
 20
155.1924747399
 40
3.0
 50
237.309582213
 51
292.9607448368
  0
ARC
  8
0
 62
7
  6
CONTINUOUS
 10
168.9051692377
 20
154.4942154111
 40
1.0
 50
330.5135109476
 51
7.0392551632
  0
ARC
  8
0
 62
7
  6
CONTINUOUS
 10
177.4377208638
 20
178.607467177
 40
1.0
 50
350.5135109476
 51
27.0392551632
  0
ARC
  8
0
 62
7
  6
CONTINUOUS
 10
177.2084788383
 20
177.3073710455
 40
1.0
 50
312.9607448368
 51
349.4864890524
  0
ARC
  8
0
 62
7
  6
CONTINUOUS
 10
104.794921875
 20
190.74609375
 40
74.65
 50
269.4864890524
 51
270.5135109476
  0
ARC
  8
0
 62
7
  6
CONTINUOUS
 10
104.794921875
 20
190.74609375
 40
74.65
 50
89.4864890524
 51
90.5135109476
  0
ARC
  8
0
 62
7
  6
CONTINUOUS
 10
104.794921875
 20
190.74609375
 40
74.65
 50
109.4864890524
 51
110.5135109476
  0
ARC
  8
0
 62
7
  6
CONTINUOUS
 10
104.794921875
 20
190.74609375
 40
74.65
 50
129.4864890524
 51
130.5135109476
  0
ARC
  8
0
 62
7
  6
CONTINUOUS
 10
104.794921875
 20
190.74609375
 40
74.65
 50
149.4864890524
 51
150.5135109476
  0
ARC
  8
0
 62
7
  6
CONTINUOUS
 10
104.794921875
 20
190.74609375
 40
74.65
 50
169.4864890524
 51
170.5135109476
  0
ARC
  8
0
 62
7
  6
CONTINUOUS
 10
104.794921875
 20
190.74609375
 40
74.65
 50
189.4864890524
 51
190.5135109476
  0
ARC
  8
0
 62
7
  6
CONTINUOUS
 10
104.794921875
 20
190.74609375
 40
74.65
 50
209.4864890524
 51
210.5135109476
  0
ARC
  8
0
 62
7
  6
CONTINUOUS
 10
104.794921875
 20
190.74609375
 40
74.65
 50
229.4864890524
 51
230.5135109476
  0
ARC
  8
0
 62
7
  6
CONTINUOUS
 10
104.794921875
 20
190.74609375
 40
74.65
 50
249.4864890524
 51
250.5135109476
  0
ARC
  8
0
 62
7
  6
CONTINUOUS
 10
104.794921875
 20
190.74609375
 40
74.65
 50
289.4864890524
 51
290.5135109476
  0
ARC
  8
0
 62
7
  6
CONTINUOUS
 10
104.794921875
 20
190.74609375
 40
74.65
 50
309.4864890524
 51
310.5135109476
  0
ARC
  8
0
 62
7
  6
CONTINUOUS
 10
104.794921875
 20
190.74609375
 40
74.65
 50
329.4864890524
 51
330.5135109476
  0
ARC
  8
0
 62
7
  6
CONTINUOUS
 10
104.794921875
 20
190.74609375
 40
74.65
 50
349.4864890524
 51
350.5135109476
  0
ARC
  8
0
 62
7
  6
CONTINUOUS
 10
104.794921875
 20
190.74609375
 40
74.65
 50
9.4864890524
 51
10.5135109476
  0
ARC
  8
0
 62
7
  6
CONTINUOUS
 10
104.794921875
 20
190.74609375
 40
74.65
 50
29.4864890524
 51
30.5135109476
  0
ARC
  8
0
 62
7
  6
CONTINUOUS
 10
104.794921875
 20
190.74609375
 40
74.65
 50
49.4864890524
 51
50.5135109476
  0
ARC
  8
0
 62
7
  6
CONTINUOUS
 10
104.794921875
 20
190.74609375
 40
74.65
 50
69.4864890524
 51
70.5135109476
  0
CIRCLE
  8
CURVE
 62
8
  6
PHANTOM
 10
104.794921875
 20
190.74609375
 40
73.1363851359
  0
ARC
  8
0
 62
7
  6
CONTINUOUS
 10
104.794921875
 20
190.74609375
 40
66.05
 50
167.1401432765
 51
172.8598567235
  0
ARC
  8
0
 62
7
  6
CONTINUOUS
 10
104.794921875
 20
190.74609375
 40
66.05
 50
187.1401432765
 51
192.8598567235
  0
ARC
  8
0
 62
7
  6
CONTINUOUS
 10
104.794921875
 20
190.74609375
 40
66.05
 50
207.1401432765
 51
212.8598567235
  0
ARC
  8
0
 62
7
  6
CONTINUOUS
 10
104.794921875
 20
190.74609375
 40
66.05
 50
227.1401432765
 51
232.8598567235
  0
ARC
  8
0
 62
7
  6
CONTINUOUS
 10
104.794921875
 20
190.74609375
 40
66.05
 50
247.1401432765
 51
252.8598567235
  0
ARC
  8
0
 62
7
  6
CONTINUOUS
 10
104.794921875
 20
190.74609375
 40
66.05
 50
267.1401432765
 51
272.8598567235
  0
ARC
  8
0
 62
7
  6
CONTINUOUS
 10
104.794921875
 20
190.74609375
 40
66.05
 50
147.1401432765
 51
152.8598567235
  0
ARC
  8
0
 62
7
  6
CONTINUOUS
 10
104.794921875
 20
190.74609375
 40
66.05
 50
127.1401432765
 51
132.8598567235
  0
ARC
  8
0
 62
7
  6
CONTINUOUS
 10
104.794921875
 20
190.74609375
 40
66.05
 50
107.1401432765
 51
112.8598567235
  0
ARC
  8
0
 62
7
  6
CONTINUOUS
 10
104.794921875
 20
190.74609375
 40
66.05
 50
87.1401432765
 51
92.8598567235
  0
ARC
  8
0
 62
7
  6
CONTINUOUS
 10
104.794921875
 20
190.74609375
 40
66.05
 50
67.1401432765
 51
72.8598567235
  0
ARC
  8
0
 62
7
  6
CONTINUOUS
 10
104.794921875
 20
190.74609375
 40
66.05
 50
47.1401432765
 51
52.8598567235
  0
ARC
  8
0
 62
7
  6
CONTINUOUS
 10
104.794921875
 20
190.74609375
 40
66.05
 50
27.1401432765
 51
32.8598567235
  0
ARC
  8
0
 62
7
  6
CONTINUOUS
 10
104.794921875
 20
190.74609375
 40
66.05
 50
7.1401432765
 51
12.8598567235
  0
ARC
  8
0
 62
7
  6
CONTINUOUS
 10
104.794921875
 20
190.74609375
 40
66.05
 50
347.1401432765
 51
352.8598567235
  0
ARC
  8
0
 62
7
  6
CONTINUOUS
 10
104.794921875
 20
190.74609375
 40
66.05
 50
327.1401432765
 51
332.8598567235
  0
ARC
  8
0
 62
7
  6
CONTINUOUS
 10
104.794921875
 20
190.74609375
 40
66.05
 50
307.1401432765
 51
312.8598567235
  0
ARC
  8
0
 62
7
  6
CONTINUOUS
 10
104.794921875
 20
190.74609375
 40
66.05
 50
287.1401432765
 51
292.8598567235
  0
ARC
  8
CURVE
 62
8
  6
PHANTOM
 10
104.794921875
 20
190.74609375
 40
15.0
 50
105.4660099534
 51
74.5339900466
  0
ARC
  8
0
 62
7
  6
CONTINUOUS
 10
107.9911245468
 20
265.1085211144
 40
20.0
 50
330.0358538453
 51
342.690417787
  0
ARC
  8
0
 62
7
  6
CONTINUOUS
 10
133.2318180054
 20
259.5307523121
 40
20.0
 50
310.0358538453
 51
322.690417787
  0
ARC
  8
0
 62
7
  6
CONTINUOUS
 10
127.224921875
 20
261.7170837039
 40
20.0
 50
177.309582213
 51
189.9641461547
  0
ARC
  8
0
 62
7
  6
CONTINUOUS
 10
117.074921875
 20
260.8716897784
 40
9.9
 50
195.3174042721
 51
260.4846629724
  0
ARC
  8
0
 62
7
  6
CONTINUOUS
 10
140.4637603624
 20
252.3588487549
 40
9.9
 50
239.5153370276
 51
304.6825957279
  0
ARC
  8
0
 62
7
  6
CONTINUOUS
 10
117.2398628962
 20
260.8426062262
 40
9.9
 50
259.5153370276
 51
324.6825957279
  0
ARC
  8
0
 62
7
  6
CONTINUOUS
 10
140.3187136627
 20
252.4425915061
 40
9.9
 50
175.3174042721
 51
240.4846629724
  0
ARC
  8
CURVE
 62
8
  6
PHANTOM
 10
104.794921875
 20
258.6283447439
 40
4.0
 50
345.0
 51
195.0
  0
ARC
  8
0
 62
7
  6
CONTINUOUS
 10
128.9258753488
 20
258.6377877482
 40
3.0
 50
337.309582213
 51
32.9607448368
  0
ARC
  8
0
 62
7
  6
CONTINUOUS
 10
129.9494787619
 20
258.2652265741
 40
3.0
 50
107.0392551632
 51
162.690417787
  0
ARC
  8
0
 62
7
  6
CONTINUOUS
 10
105.339569875
 20
262.7966897784
 40
3.0
 50
127.0392551632
 51
182.690417787
  0
ARC
  8
0
 62
7
  6
CONTINUOUS
 10
129.3634251001
 20
260.1774350108
 40
1.0
 50
70.5135109476
 51
107.0392551632
  0
ARC
  8
0
 62
7
  6
CONTINUOUS
 10
130.6039623901
 20
259.7259163628
 40
1.0
 50
32.9607448368
 51
69.4864890524
  0
ARC
  8
0
 62
7
  6
CONTINUOUS
 10
105.45499798
 20
264.3931357784
 40
1.0
 50
52.9607448368
 51
89.4864890524
  0
ARC
  8
0
 62
7
  6
CONTINUOUS
 10
177.4726021068
 20
206.8066389201
 40
20.0
 50
117.309582213
 51
129.9641461547
  0
ARC
  8
0
 62
7
  6
CONTINUOUS
 10
170.7927743955
 20
225.1593147228
 40
20.0
 50
270.0358538453
 51
282.690417787
  0
ARC
  8
0
 62
7
  6
CONTINUOUS
 10
178.5826316456
 20
200.5113485773
 40
20.0
 50
250.0358538453
 51
262.690417787
  0
ARC
  8
0
 62
7
  6
CONTINUOUS
 10
171.7227529066
 20
215.0167149151
 40
9.9
 50
199.5153370276
 51
264.6825957279
  0
ARC
  8
0
 62
7
  6
CONTINUOUS
 10
175.9875521501
 20
190.8298365012
 40
9.9
 50
115.3174042721
 51
180.4846629724
  0
ARC
  8
0
 62
7
  6
CONTINUOUS
 10
171.6654694911
 20
215.1740998057
 40
9.9
 50
135.3174042721
 51
200.4846629724
  0
ARC
  8
CURVE
 62
8
  6
PHANTOM
 10
172.6771728689
 20
190.74609375
 40
4.0
 50
255.0
 51
105.0
  0
ARC
  8
0
 62
7
  6
CONTINUOUS
 10
166.9202443934
 20
227.2430707683
 40
3.0
 50
297.309582213
 51
352.9607448368
  0
ARC
  8
0
 62
7
  6
CONTINUOUS
 10
167.4648923934
 20
226.2997127601
 40
3.0
 50
67.0392551632
 51
122.690417787
  0
ARC
  8
0
 62
7
  6
CONTINUOUS
 10
175.6563303203
 20
203.7939220232
 40
3.0
 50
277.309582213
 51
332.9607448368
  0
ARC
  8
0
 62
7
  6
CONTINUOUS
 10
175.8454845856
 20
202.7211748771
 40
3.0
 50
47.0392551632
 51
102.690417787
  0
ARC
  8
0
 62
7
  6
CONTINUOUS
 10
177.2084788383
 20
204.1848164545
 40
1.0
 50
10.5135109476
 51
47.0392551632
  0
ARC
  8
0
 62
7
  6
CONTINUOUS
 10
177.4377208638
 20
202.884720323
 40
1.0
 50
332.9607448368
 51
9.4864890524
  0
ARC
  8
0
 62
7
  6
CONTINUOUS
 10
168.9051692377
 20
226.9979720889
 40
1.0
 50
352.9607448368
 51
29.4864890524
  0
ARC
  8
0
 62
7
  6
CONTINUOUS
 10
150.1457355152
 20
249.7654974848
 40
20.0
 50
157.309582213
 51
169.9641461547
  0
ARC
  8
0
 62
7
  6
CONTINUOUS
 10
167.5965717237
 20
230.6953001416
 40
20.0
 50
137.309582213
 51
149.9641461547
  0
ARC
  8
0
 62
7
  6
CONTINUOUS
 10
155.0426021068
 20
245.6565385338
 40
20.0
 50
290.0358538453
 51
302.690417787
  0
ARC
  8
0
 62
7
  6
CONTINUOUS
 10
159.3854694911
 20
236.4436837227
 40
9.9
 50
219.5153370276
 51
284.6825957279
  0
ARC
  8
0
 62
7
  6
CONTINUOUS
 10
159.2778118855
 20
236.571985061
 40
9.9
 50
155.3174042721
 51
220.4846629724
  0
ARC
  8
0
 62
7
  6
CONTINUOUS
 10
150.6909276987
 20
246.290145447
 40
3.0
 50
317.309582213
 51
12.9607448368
  0
ARC
  8
0
 62
7
  6
CONTINUOUS
 10
151.5253768465
 20
245.5899594749
 40
3.0
 50
87.0392551632
 51
142.690417787
  0
ARC
  8
0
 62
7
  6
CONTINUOUS
 10
168.2450931327
 20
228.1412574395
 40
1.0
 50
30.5135109476
 51
67.0392551632
  0
ARC
  8
0
 62
7
  6
CONTINUOUS
 10
151.6286803487
 20
247.5872897897
 40
1.0
 50
50.5135109476
 51
87.0392551632
  0
ARC
  8
0
 62
7
  6
CONTINUOUS
 10
152.6399756132
 20
246.7387123063
 40
1.0
 50
12.9607448368
 51
49.4864890524
  0
ENDSEC
  0
EOF
