  0
SECTION
  2
HEADER
  9
$EXTMAX
 10
210.0
 20
297.0
 30
0.0
  9
$EXTMIN
 10
0.0
 20
0.0
 30
0.0
  9
$LIMMIN
 10
0.0
 20
0.0
  9
$LIMMAX
 10
210.0
 20
297.0
  9
$VIEWCTR
 10
105.0
 20
148.5
  9
$VIEWSIZE
 40
297.0
  9
$CLAYER
  8
0
  9
$LTSCALE
 40
19.36
  9
$CELTYPE
  6
BYLAYER
  9
$DIMSCALE
 40
1.0
  9
$DIMASZ
 40
3.5
  9
$DIMEXO
 40
2.2
  9
$DIMDLI
 40
13.376
  9
$DIMEXE
 40
6.336
  9
$DIMCEN
 40
3.168
  9
$DIMLFAC
 40
1.0
  9
$DIMBLK
  1
_FILLED
  9
$DIMTXT
 40
3.5
  9
$PDMODE
 70
3
  9
$PDSIZE
 40
0.3125
  9
$TILEMODE
 70
1
  0
ENDSEC
  0
SECTION
  2
TABLES
  0
TABLE
  2
LTYPE
 70
6
  0
LTYPE
  2
BYBLOCK
 70
0
  3

 72
65
 73
0
 40
0.0
  0
LTYPE
  2
BYLAYER
 70
0
  3

 72
65
 73
0
 40
0.0
  0
LTYPE
  2
CONTINUOUS
 70
64
  3
Solid line
 72
65
 73
0
 40
0.0
  0
LTYPE
  2
CENTER
 70
64
  3
____ _ ____ _ ____ _ ____ _ ____ _ ____ _ ____
 72
65
 73
4
 40
0.6
 49
0.375
 49
-0.075
 49
0.075
 49
-0.075
  0
LTYPE
  2
HIDDEN
 70
64
  3
- - - - - - - - - - - - - - - - - - - -
 72
65
 73
2
 40
0.2
 49
0.1
 49
-0.1
  0
LTYPE
  2
PHANTOM
 70
64
  3
_____ _ _ _____ _ _ _____ _ _ _____
 72
65
 73
6
 40
0.8
 49
0.45
 49
-0.05
 49
0.1
 49
-0.05
 49
0.1
 49
-0.05
  0
LTYPE
  2
DOT
 70
64
  3
. . . . . . . . . . . . . . . . . . . .
 72
65
 73
2
 40
0.2
 49
0.1
 49
-0.1
  0
LTYPE
  2
DASHED
 70
64
  3
- - - - - - - - - - - - - - - - - - - -
 72
65
 73
2
 40
0.2
 49
0.1
 49
-0.1
  0
ENDTAB
  0
TABLE
  2
LAYER
 70
36
  0
LAYER
  2
0
 70
0
 62
7
  6
CONTINUOUS
  0
LAYER
  2
DEFAULT_1
 70
0
 62
7
  6
CENTER
  0
LAYER
  2
DEFAULT_2
 70
0
 62
8
  6
HIDDEN
  0
LAYER
  2
DEFAULT_3
 70
0
 62
7
  6
PHANTOM
  0
LAYER
  2
1_DATUM_PLANE
 70
0
 62
7
  6
CONTINUOUS
  0
LAYER
  2
CURVES
 70
0
 62
7
  6
CONTINUOUS
  0
LAYER
  2
NOTES
 70
0
 62
7
  6
CONTINUOUS
  0
ENDTAB
  0
TABLE
  2
STYLE
 70
1
  0
STYLE
  2
STANDARD
 70
0
 40
0.0
 41
0.8
 50
0.0
 71
0
 42
0.2
  3
txt
  4

  0
STYLE
  2
TEXTSTYLE_1
 70
0
 40
0.0
 41
0.8
 50
0.0
 71
0
 42
0.2
  3
gdt
  4

  0
STYLE
  2
TEXTSTYLE_2
 70
0
 40
0.0
 41
1.0
 50
0.0
 71
0
 42
0.2
  3
frutiger light.ttf
  4

  0
STYLE
  2
TEXTSTYLE_3
 70
0
 40
0.0
 41
1.0
 50
0.0
 71
0
 42
0.2
  3
ftb_____.ttf
  4

  0
STYLE
  2
TEXTSTYLE_4
 70
0
 40
0.0
 41
1.0
 50
0.0
 71
0
 42
0.2
  3
fti_____.ttf
  4

  0
STYLE
  2
TEXTSTYLE_5
 70
0
 40
0.0
 41
1.0
 50
0.0
 71
0
 42
0.2
  3
frutiger light.ttf
  4

  0
STYLE
  2
TEXTSTYLE_6
 70
0
 40
0.0
 41
1.0
 50
0.0
 71
0
 42
0.2
  3
frutiger light.ttf
  4

  0
STYLE
  2
TEXTSTYLE_7
 70
0
 40
0.0
 41
1.0
 50
0.0
 71
0
 42
0.2
  3
frutiger light.ttf
  4

  0
STYLE
  2
TEXTSTYLE_8
 70
0
 40
0.0
 41
1.0
 50
0.0
 71
0
 42
0.2
  3
frutiger light.ttf
  4

  0
STYLE
  2
TEXTSTYLE_9
 70
0
 40
0.0
 41
1.0
 50
0.0
 71
0
 42
0.2
  3
ftr_____.ttf
  4

  0
STYLE
  2
TEXTSTYLE_10
 70
0
 40
0.0
 41
1.0
 50
0.0
 71
0
 42
0.2
  3
frutiger light.ttf
  4

  0
STYLE
  2
TEXTSTYLE_11
 70
0
 40
0.0
 41
1.0
 50
0.0
 71
0
 42
0.2
  3
frutiger light.ttf
  4

  0
ENDTAB
  0
ENDSEC
  0
SECTION
  2
BLOCKS
  0
BLOCK
  8
NOTES
 62
2
  6
CONTINUOUS
  2
BALLOON_BL2
 70
64
 10
15.9538349973
 20
186.8810509984
  0
CIRCLE
  8
NOTES
 62
2
  6
CONTINUOUS
 10
15.9538349973
 20
186.8810509984
 40
3.9910934831
  0
TEXT
  8
NOTES
 62
5
  6
CONTINUOUS
 10
14.5538349973
 20
185.1310509984
  7
STANDARD
 40
3.5
  1
A
 41
0.8
 72
0
  0
ENDBLK
  8
0
  6
BYBLOCK
 62
0
  0
BLOCK
  8
0
 62
2
  6
CONTINUOUS
  2
UNI_LOGO2_BL1
 70
64
 10
47.9221081579
 20
86.7496072713
  0
LINE
  8
0
 62
7
  6
CONTINUOUS
 10
14.2914039026
 20
87.624495893
 11
14.2914039026
 21
84.6408893356
  0
LINE
  8
0
 62
7
  6
CONTINUOUS
 10
14.6960913929
 20
80.4535855216
 11
14.6960913929
 21
80.5890930046
  0
LINE
  8
0
 62
7
  6
CONTINUOUS
 10
14.2914039026
 20
80.5439238436
 11
14.372341405
 21
80.2729088777
  0
LINE
  8
0
 62
7
  6
CONTINUOUS
 10
16.2422235747
 20
84.5261352373
 11
16.2422235747
 21
87.624495893
  0
LINE
  8
0
 62
7
  6
CONTINUOUS
 10
17.5289038254
 20
81.9441680241
 11
17.5289038254
 21
79.8212172045
  0
LINE
  8
0
 62
7
  6
CONTINUOUS
 10
17.9335914026
 20
79.8212172045
 11
17.9335914026
 21
80.8601080338
  0
LINE
  8
0
 62
7
  6
CONTINUOUS
 10
17.9335914026
 20
81.0407846778
 11
17.9335914026
 21
81.9441680241
  0
LINE
  8
0
 62
7
  6
CONTINUOUS
 10
14.372341405
 20
80.8149388728
 11
14.2914039026
 21
80.5439238436
  0
LINE
  8
0
 62
7
  6
CONTINUOUS
 10
14.8579663833
 20
80.2277397167
 11
14.6960913929
 21
80.4535855216
  0
LINE
  8
0
 62
7
  6
CONTINUOUS
 10
16.3957789798
 20
80.9504463558
 11
16.4767164026
 21
80.8149388728
  0
LINE
  8
0
 62
7
  6
CONTINUOUS
 10
16.8814039798
 20
80.8149388728
 11
16.8004663254
 21
80.9956155168
  0
LINE
  8
0
 62
7
  6
CONTINUOUS
 10
18.881567837
 20
87.624495893
 11
18.881567837
 21
85.0999057291
  0
LINE
  8
0
 62
7
  6
CONTINUOUS
 10
18.881567837
 20
83.2638401553
 11
18.881567837
 21
82.3458073684
  0
LINE
  8
0
 62
7
  6
CONTINUOUS
 10
19.3904664026
 20
80.7246005508
 11
19.3904664026
 21
79.8212172045
  0
LINE
  8
0
 62
7
  6
CONTINUOUS
 10
19.7951537482
 20
79.8212172045
 11
19.7951537482
 21
80.7246005508
  0
LINE
  8
0
 62
7
  6
CONTINUOUS
 10
14.6960913929
 20
80.5890930046
 11
14.7770289026
 21
80.7697697118
  0
LINE
  8
0
 62
7
  6
CONTINUOUS
 10
14.372341405
 20
80.2729088777
 11
14.5342164026
 21
80.0922322021
  0
LINE
  8
0
 62
7
  6
CONTINUOUS
 10
19.3095287482
 20
80.9052771948
 11
19.3904664026
 21
80.7246005508
  0
LINE
  8
0
 62
7
  6
CONTINUOUS
 10
20.442654057
 20
80.2277397167
 11
20.5235912482
 21
80.0470630411
  0
LINE
  8
0
 62
7
  6
CONTINUOUS
 10
19.7951537482
 20
80.7246005508
 11
19.714216557
 21
80.9504463558
  0
LINE
  8
0
 62
7
  6
CONTINUOUS
 10
20.442654057
 20
80.9956155168
 11
20.442654057
 21
80.9052771948
  0
LINE
  8
0
 62
7
  6
CONTINUOUS
 10
20.442654057
 20
80.3632471996
 11
20.442654057
 21
80.2277397167
  0
LINE
  8
0
 62
7
  6
CONTINUOUS
 10
20.8323875091
 20
82.3458073684
 11
20.8323875091
 21
87.624495893
  0
LINE
  8
0
 62
7
  6
CONTINUOUS
 10
20.8473414026
 20
80.182570524
 11
20.8473414026
 21
80.2729088777
  0
LINE
  8
0
 62
7
  6
CONTINUOUS
 10
21.2914039026
 20
87.624495893
 11
21.2914039026
 21
82.3458073684
  0
LINE
  8
0
 62
7
  6
CONTINUOUS
 10
16.8004663254
 20
80.0922322021
 11
16.8814039798
 21
80.2729088777
  0
LINE
  8
0
 62
7
  6
CONTINUOUS
 10
22.9517167113
 20
79.9567247033
 11
22.8707785938
 21
80.182570524
  0
LINE
  8
0
 62
7
  6
CONTINUOUS
 10
22.4660917113
 20
80.9052771948
 11
22.4660917113
 21
80.7697697118
  0
LINE
  8
0
 62
7
  6
CONTINUOUS
 10
22.4660917113
 20
80.5890930046
 11
22.4660917113
 21
80.3180780386
  0
LINE
  8
0
 62
7
  6
CONTINUOUS
 10
22.8707785938
 20
80.182570524
 11
22.8707785938
 21
80.9052771948
  0
LINE
  8
0
 62
7
  6
CONTINUOUS
 10
23.2422235747
 20
82.3458073684
 11
23.2422235747
 21
84.8703975323
  0
LINE
  8
0
 62
7
  6
CONTINUOUS
 10
23.2422235747
 20
86.7064631061
 11
23.2422235747
 21
87.624495893
  0
LINE
  8
0
 62
7
  6
CONTINUOUS
 10
23.6801542113
 20
81.9441680241
 11
23.6801542113
 21
81.7183222192
  0
LINE
  8
0
 62
7
  6
CONTINUOUS
 10
23.6801542113
 20
81.2666304827
 11
23.6801542113
 21
79.8212172045
  0
LINE
  8
0
 62
7
  6
CONTINUOUS
 10
24.0848410938
 20
79.8212172045
 11
24.0848410938
 21
81.2666304827
  0
LINE
  8
0
 62
7
  6
CONTINUOUS
 10
24.0848410938
 20
81.7183222192
 11
24.0848410938
 21
81.9441680241
  0
LINE
  8
0
 62
7
  6
CONTINUOUS
 10
16.4767164026
 20
80.2729088777
 11
16.3957789798
 21
80.137401363
  0
LINE
  8
0
 62
7
  6
CONTINUOUS
 10
19.714216557
 20
80.9504463558
 11
19.6332789026
 21
81.0407846778
  0
LINE
  8
0
 62
7
  6
CONTINUOUS
 10
20.928279057
 20
80.0922322021
 11
20.8473414026
 21
80.182570524
  0
LINE
  8
0
 62
7
  6
CONTINUOUS
 10
22.5470289026
 20
79.9115555344
 11
22.6279660938
 21
79.8212172045
  0
LINE
  8
0
 62
7
  6
CONTINUOUS
 10
22.4660917113
 20
80.0470630411
 11
22.5470289026
 21
79.9115555344
  0
LINE
  8
0
 62
7
  6
CONTINUOUS
 10
23.0326539026
 20
79.8212172045
 11
22.9517167113
 21
79.9567247033
  0
LINE
  8
0
 62
7
  6
CONTINUOUS
 10
22.8707785938
 20
80.9052771948
 11
22.7898414026
 21
81.0407846778
  0
LINE
  8
0
 62
7
  6
CONTINUOUS
 10
24.7323414026
 20
81.2666304827
 11
24.7323414026
 21
79.8212172045
  0
LINE
  8
0
 62
7
  6
CONTINUOUS
 10
25.1370292113
 20
79.8212172045
 11
25.1370292113
 21
80.8601080338
  0
LINE
  8
0
 62
7
  6
CONTINUOUS
 10
25.1370292113
 20
81.0407846778
 11
25.1370292113
 21
81.2666304827
  0
LINE
  8
0
 62
7
  6
CONTINUOUS
 10
25.881567837
 20
85.4441680241
 11
25.881567837
 21
82.3458073684
  0
LINE
  8
0
 62
7
  6
CONTINUOUS
 10
14.5342164026
 20
80.9956155168
 11
14.372341405
 21
80.8149388728
  0
LINE
  8
0
 62
7
  6
CONTINUOUS
 10
14.7770289026
 20
80.7697697118
 11
14.8579663833
 21
80.8601080338
  0
LINE
  8
0
 62
7
  6
CONTINUOUS
 10
14.5342164026
 20
80.0922322021
 11
14.6960913929
 21
80.0018938643
  0
LINE
  8
0
 62
7
  6
CONTINUOUS
 10
15.1007788833
 20
80.0922322021
 11
14.8579663833
 21
80.2277397167
  0
LINE
  8
0
 62
7
  6
CONTINUOUS
 10
22.3851535938
 20
80.9956155168
 11
22.4660917113
 21
80.9052771948
  0
LINE
  8
0
 62
7
  6
CONTINUOUS
 10
26.5129660938
 20
80.9052771948
 11
26.5939042113
 21
80.6794313898
  0
LINE
  8
0
 62
7
  6
CONTINUOUS
 10
26.9985910938
 20
80.6794313898
 11
26.9176539026
 21
80.9052771948
  0
LINE
  8
0
 62
7
  6
CONTINUOUS
 10
26.5939042113
 20
80.6794313898
 11
26.5939042113
 21
79.8212172045
  0
LINE
  8
0
 62
7
  6
CONTINUOUS
 10
26.9985910938
 20
79.8212172045
 11
26.9985910938
 21
80.6794313898
  0
LINE
  8
0
 62
7
  6
CONTINUOUS
 10
27.6460914026
 20
80.9956155168
 11
27.6460914026
 21
80.9052771948
  0
LINE
  8
0
 62
7
  6
CONTINUOUS
 10
27.8323875091
 20
82.3458073684
 11
27.8323875091
 21
85.3294139258
  0
LINE
  8
0
 62
7
  6
CONTINUOUS
 10
28.2914039026
 20
87.624495893
 11
28.2914039026
 21
82.3458073684
  0
LINE
  8
0
 62
7
  6
CONTINUOUS
 10
20.8473414026
 20
80.2729088777
 11
20.928279057
 21
80.4084163606
  0
LINE
  8
0
 62
7
  6
CONTINUOUS
 10
14.6960913929
 20
80.0018938643
 11
14.9389039219
 21
79.9115555344
  0
LINE
  8
0
 62
7
  6
CONTINUOUS
 10
16.8004663254
 20
80.9956155168
 11
16.5576538254
 21
81.1311229998
  0
LINE
  8
0
 62
7
  6
CONTINUOUS
 10
20.5235912482
 20
80.0470630411
 11
20.7664037482
 21
79.9115555344
  0
LINE
  8
0
 62
7
  6
CONTINUOUS
 10
19.1476539026
 20
80.9956155168
 11
19.3095287482
 21
80.9052771948
  0
LINE
  8
0
 62
7
  6
CONTINUOUS
 10
19.6332789026
 20
81.0407846778
 11
19.471404057
 21
81.1311229998
  0
LINE
  8
0
 62
7
  6
CONTINUOUS
 10
27.6460914026
 20
80.182570524
 11
27.8079667113
 21
80.0018938643
  0
LINE
  8
0
 62
7
  6
CONTINUOUS
 10
28.1317164026
 20
80.0922322021
 11
28.0507792113
 21
80.182570524
  0
LINE
  8
0
 62
7
  6
CONTINUOUS
 10
27.6460914026
 20
80.9052771948
 11
27.8079667113
 21
80.7246005508
  0
LINE
  8
0
 62
7
  6
CONTINUOUS
 10
26.9176539026
 20
80.9052771948
 11
26.8367167113
 21
81.0407846778
  0
LINE
  8
0
 62
7
  6
CONTINUOUS
 10
30.2360907851
 20
80.0922322021
 11
30.2360907851
 21
80.182570524
  0
LINE
  8
0
 62
7
  6
CONTINUOUS
 10
30.2422235747
 20
82.3458073684
 11
30.2422235747
 21
87.624495893
  0
LINE
  8
0
 62
7
  6
CONTINUOUS
 10
20.5235912482
 20
81.0859538388
 11
20.442654057
 21
80.9956155168
  0
LINE
  8
0
 62
7
  6
CONTINUOUS
 10
16.152966364
 20
81.0407846778
 11
16.3957789798
 21
80.9504463558
  0
LINE
  8
0
 62
7
  6
CONTINUOUS
 10
22.7898414026
 20
81.0407846778
 11
22.6279660938
 21
81.1311229998
  0
LINE
  8
0
 62
7
  6
CONTINUOUS
 10
28.1317164026
 20
80.8149388728
 11
28.0507792113
 21
80.9052771948
  0
LINE
  8
0
 62
7
  6
CONTINUOUS
 10
29.7504667113
 20
80.2729088777
 11
29.8314039026
 21
80.182570524
  0
LINE
  8
0
 62
7
  6
CONTINUOUS
 10
30.2360907851
 20
80.182570524
 11
30.0742164026
 21
80.3632471996
  0
LINE
  8
0
 62
7
  6
CONTINUOUS
 10
29.7504667113
 20
80.9956155168
 11
29.8314039026
 21
80.9052771948
  0
LINE
  8
0
 62
7
  6
CONTINUOUS
 10
30.2360907851
 20
80.9052771948
 11
30.0742164026
 21
81.0859538388
  0
LINE
  8
0
 62
7
  6
CONTINUOUS
 10
20.8473414026
 20
80.9052771948
 11
20.928279057
 21
80.9956155168
  0
LINE
  8
0
 62
7
  6
CONTINUOUS
 10
20.6045289026
 20
80.5439238436
 11
20.442654057
 21
80.3632471996
  0
LINE
  8
0
 62
7
  6
CONTINUOUS
 10
22.4660917113
 20
80.3180780386
 11
22.3851535938
 21
80.2277397167
  0
LINE
  8
0
 62
7
  6
CONTINUOUS
 10
22.3851535938
 20
79.9567247033
 11
22.4660917113
 21
80.0470630411
  0
LINE
  8
0
 62
7
  6
CONTINUOUS
 10
20.7664037482
 20
79.9115555344
 11
20.928279057
 21
79.8663863694
  0
LINE
  8
0
 62
7
  6
CONTINUOUS
 10
16.5576538254
 20
81.1311229998
 11
16.2339039026
 21
81.2214613217
  0
LINE
  8
0
 62
7
  6
CONTINUOUS
 10
21.2520287482
 20
80.0018938643
 11
20.928279057
 21
80.0922322021
  0
LINE
  8
0
 62
7
  6
CONTINUOUS
 10
19.471404057
 20
81.1311229998
 11
19.228591557
 21
81.2214613217
  0
LINE
  8
0
 62
7
  6
CONTINUOUS
 10
22.6279660938
 20
81.1311229998
 11
22.3851535938
 21
81.2214613217
  0
LINE
  8
0
 62
7
  6
CONTINUOUS
 10
26.3510917113
 20
80.9956155168
 11
26.5129660938
 21
80.9052771948
  0
LINE
  8
0
 62
7
  6
CONTINUOUS
 10
26.8367167113
 20
81.0407846778
 11
26.6748414026
 21
81.1311229998
  0
LINE
  8
0
 62
7
  6
CONTINUOUS
 10
14.9389039219
 20
79.9115555344
 11
15.1817164219
 21
79.8663863694
  0
LINE
  8
0
 62
7
  6
CONTINUOUS
 10
15.5864039412
 20
80.0018938643
 11
15.1007788833
 21
80.0922322021
  0
LINE
  8
0
 62
7
  6
CONTINUOUS
 10
18.985779057
 20
81.0407846778
 11
19.1476539026
 21
80.9956155168
  0
LINE
  8
0
 62
7
  6
CONTINUOUS
 10
22.2232792113
 20
81.0407846778
 11
22.3851535938
 21
80.9956155168
  0
LINE
  8
0
 62
7
  6
CONTINUOUS
 10
28.2935917113
 20
80.0470630411
 11
28.1317164026
 21
80.0922322021
  0
LINE
  8
0
 62
7
  6
CONTINUOUS
 10
26.1892164026
 20
81.0407846778
 11
26.3510917113
 21
80.9956155168
  0
LINE
  8
0
 62
7
  6
CONTINUOUS
 10
27.8079667113
 20
80.0018938643
 11
28.0507792113
 21
79.9115555344
  0
LINE
  8
0
 62
7
  6
CONTINUOUS
 10
26.6748414026
 20
81.1311229998
 11
26.4320289026
 21
81.2214613217
  0
LINE
  8
0
 62
7
  6
CONTINUOUS
 10
28.3745289026
 20
80.7246005508
 11
28.1317164026
 21
80.8149388728
  0
LINE
  8
0
 62
7
  6
CONTINUOUS
 10
29.5076542113
 20
80.3632471996
 11
29.7504667113
 21
80.2729088777
  0
LINE
  8
0
 62
7
  6
CONTINUOUS
 10
30.0742164026
 20
81.0859538388
 11
29.8314039026
 21
81.1762921607
  0
LINE
  8
0
 62
7
  6
CONTINUOUS
 10
27.8079667113
 20
80.7246005508
 11
28.1317164026
 21
80.5890930046
  0
LINE
  8
0
 62
7
  6
CONTINUOUS
 10
30.0742164026
 20
80.3632471996
 11
29.7504667113
 21
80.4987546826
  0
LINE
  8
0
 62
7
  6
CONTINUOUS
 10
28.0507792113
 20
80.9052771948
 11
28.1317164026
 21
80.9956155168
  0
LINE
  8
0
 62
7
  6
CONTINUOUS
 10
14.6960913929
 20
81.0859538388
 11
14.5342164026
 21
80.9956155168
  0
LINE
  8
0
 62
7
  6
CONTINUOUS
 10
14.8579663833
 20
80.8601080338
 11
15.1007788833
 21
80.9956155168
  0
LINE
  8
0
 62
7
  6
CONTINUOUS
 10
18.0954664798
 20
81.1311229998
 11
17.9335914026
 21
81.0407846778
  0
LINE
  8
0
 62
7
  6
CONTINUOUS
 10
17.9335914026
 20
80.8601080338
 11
18.0954664798
 21
80.9504463558
  0
LINE
  8
0
 62
7
  6
CONTINUOUS
 10
16.5576538254
 20
79.9567247033
 11
16.8004663254
 21
80.0922322021
  0
LINE
  8
0
 62
7
  6
CONTINUOUS
 10
15.1817164219
 20
79.8663863694
 11
15.667341364
 21
79.8212172045
  0
LINE
  8
0
 62
7
  6
CONTINUOUS
 10
20.928279057
 20
79.8663863694
 11
21.2520287482
 21
79.8212172045
  0
LINE
  8
0
 62
7
  6
CONTINUOUS
 10
18.6620289026
 20
81.0859538388
 11
18.985779057
 21
81.0407846778
  0
LINE
  8
0
 62
7
  6
CONTINUOUS
 10
21.899529057
 20
81.0859538388
 11
22.2232792113
 21
81.0407846778
  0
LINE
  8
0
 62
7
  6
CONTINUOUS
 10
28.1317164026
 20
80.5890930046
 11
29.5076542113
 21
80.3632471996
  0
LINE
  8
0
 62
7
  6
CONTINUOUS
 10
29.7504667113
 20
80.4987546826
 11
28.3745289026
 21
80.7246005508
  0
LINE
  8
0
 62
7
  6
CONTINUOUS
 10
19.228591557
 20
81.2214613217
 11
18.985779057
 21
81.2666304827
  0
LINE
  8
0
 62
7
  6
CONTINUOUS
 10
28.0507792113
 20
79.9115555344
 11
28.2935917113
 21
79.8663863694
  0
LINE
  8
0
 62
7
  6
CONTINUOUS
 10
26.4320289026
 20
81.2214613217
 11
26.1892164026
 21
81.2666304827
  0
LINE
  8
0
 62
7
  6
CONTINUOUS
 10
29.5885914026
 20
81.0407846778
 11
29.7504667113
 21
80.9956155168
  0
LINE
  8
0
 62
7
  6
CONTINUOUS
 10
29.8314039026
 20
80.182570524
 11
29.7504667113
 21
80.0922322021
  0
LINE
  8
0
 62
7
  6
CONTINUOUS
 10
27.8079667113
 20
81.1311229998
 11
27.6460914026
 21
80.9956155168
  0
LINE
  8
0
 62
7
  6
CONTINUOUS
 10
20.685466557
 20
81.1762921607
 11
20.5235912482
 21
81.0859538388
  0
LINE
  8
0
 62
7
  6
CONTINUOUS
 10
20.7664037482
 20
80.6342622289
 11
20.6045289026
 21
80.5439238436
  0
LINE
  8
0
 62
7
  6
CONTINUOUS
 10
20.928279057
 20
80.4084163606
 11
21.0901539026
 21
80.4987546826
  0
LINE
  8
0
 62
7
  6
CONTINUOUS
 10
17.5289038254
 20
79.8212172045
 11
17.9335914026
 21
79.8212172045
  0
LINE
  8
0
 62
7
  6
CONTINUOUS
 10
19.3904664026
 20
79.8212172045
 11
19.7951537482
 21
79.8212172045
  0
LINE
  8
0
 62
7
  6
CONTINUOUS
 10
21.2520287482
 20
79.8212172045
 11
21.7376537482
 21
79.8212172045
  0
LINE
  8
0
 62
7
  6
CONTINUOUS
 10
22.6279660938
 20
79.8212172045
 11
23.0326539026
 21
79.8212172045
  0
LINE
  8
0
 62
7
  6
CONTINUOUS
 10
23.6801542113
 20
79.8212172045
 11
24.0848410938
 21
79.8212172045
  0
LINE
  8
0
 62
7
  6
CONTINUOUS
 10
24.7323414026
 20
79.8212172045
 11
25.1370292113
 21
79.8212172045
  0
LINE
  8
0
 62
7
  6
CONTINUOUS
 10
26.5939042113
 20
79.8212172045
 11
26.9985910938
 21
79.8212172045
  0
LINE
  8
0
 62
7
  6
CONTINUOUS
 10
28.7792167113
 20
79.8212172045
 11
29.2648417113
 21
79.8212172045
  0
LINE
  8
0
 62
7
  6
CONTINUOUS
 10
29.2648417113
 20
80.0018938643
 11
28.7792167113
 21
80.0018938643
  0
LINE
  8
0
 62
7
  6
CONTINUOUS
 10
21.7376537482
 20
80.0018938643
 11
21.2520287482
 21
80.0018938643
  0
LINE
  8
0
 62
7
  6
CONTINUOUS
 10
28.0507792113
 20
80.182570524
 11
27.6460914026
 21
80.182570524
  0
LINE
  8
0
 62
7
  6
CONTINUOUS
 10
16.8814039798
 20
80.2729088777
 11
16.4767164026
 21
80.2729088777
  0
LINE
  8
0
 62
7
  6
CONTINUOUS
 10
15.5864039412
 20
81.0859538388
 11
16.152966364
 21
81.0407846778
  0
LINE
  8
0
 62
7
  6
CONTINUOUS
 10
16.2339039026
 20
81.2214613217
 11
15.667341364
 21
81.2666304827
  0
LINE
  8
0
 62
7
  6
CONTINUOUS
 10
28.2935917113
 20
79.8663863694
 11
28.7792167113
 21
79.8212172045
  0
LINE
  8
0
 62
7
  6
CONTINUOUS
 10
28.7792167113
 20
80.0018938643
 11
28.2935917113
 21
80.0470630411
  0
LINE
  8
0
 62
7
  6
CONTINUOUS
 10
22.3851535938
 20
81.2214613217
 11
21.899529057
 21
81.2666304827
  0
LINE
  8
0
 62
7
  6
CONTINUOUS
 10
29.1029664026
 20
81.0859538388
 11
29.5885914026
 21
81.0407846778
  0
LINE
  8
0
 62
7
  6
CONTINUOUS
 10
29.5885914026
 20
81.2214613217
 11
29.1029664026
 21
81.2666304827
  0
LINE
  8
0
 62
7
  6
CONTINUOUS
 10
25.8654667113
 20
81.0859538388
 11
26.1892164026
 21
81.0407846778
  0
LINE
  8
0
 62
7
  6
CONTINUOUS
 10
29.8314039026
 20
81.1762921607
 11
29.5885914026
 21
81.2214613217
  0
LINE
  8
0
 62
7
  6
CONTINUOUS
 10
30.0742164026
 20
79.9567247033
 11
30.2360907851
 21
80.0922322021
  0
LINE
  8
0
 62
7
  6
CONTINUOUS
 10
22.3851535938
 20
80.2277397167
 11
22.1423410938
 21
80.0922322021
  0
LINE
  8
0
 62
7
  6
CONTINUOUS
 10
25.2989035938
 20
81.1311229998
 11
25.1370292113
 21
81.0407846778
  0
LINE
  8
0
 62
7
  6
CONTINUOUS
 10
25.1370292113
 20
80.8601080338
 11
25.2989035938
 21
80.9504463558
  0
LINE
  8
0
 62
7
  6
CONTINUOUS
 10
14.9389039219
 20
81.1762921607
 11
14.6960913929
 21
81.0859538388
  0
LINE
  8
0
 62
7
  6
CONTINUOUS
 10
18.3382787482
 20
81.2214613217
 11
18.0954664798
 21
81.1311229998
  0
LINE
  8
0
 62
7
  6
CONTINUOUS
 10
18.0954664798
 20
80.9504463558
 11
18.3382787482
 21
81.0407846778
  0
LINE
  8
0
 62
7
  6
CONTINUOUS
 10
16.3957789798
 20
80.137401363
 11
16.152966364
 21
80.0470630411
  0
LINE
  8
0
 62
7
  6
CONTINUOUS
 10
29.5885914026
 20
80.0470630411
 11
29.2648417113
 21
80.0018938643
  0
LINE
  8
0
 62
7
  6
CONTINUOUS
 10
21.7376537482
 20
79.8212172045
 11
22.1423410938
 21
79.8663863694
  0
LINE
  8
0
 62
7
  6
CONTINUOUS
 10
29.2648417113
 20
79.8212172045
 11
29.7504667113
 21
79.8663863694
  0
LINE
  8
0
 62
7
  6
CONTINUOUS
 10
15.667341364
 20
79.8212172045
 11
16.2339039026
 21
79.8663863694
  0
LINE
  8
0
 62
7
  6
CONTINUOUS
 10
16.152966364
 20
80.0470630411
 11
15.5864039412
 21
80.0018938643
  0
LINE
  8
0
 62
7
  6
CONTINUOUS
 10
21.5757789026
 20
80.5890930046
 11
22.4660917113
 21
80.5890930046
  0
LINE
  8
0
 62
7
  6
CONTINUOUS
 10
22.4660917113
 20
80.7697697118
 11
21.5757789026
 21
80.7697697118
  0
LINE
  8
0
 62
7
  6
CONTINUOUS
 10
16.4767164026
 20
80.8149388728
 11
16.8814039798
 21
80.8149388728
  0
LINE
  8
0
 62
7
  6
CONTINUOUS
 10
20.442654057
 20
80.9052771948
 11
20.8473414026
 21
80.9052771948
  0
LINE
  8
0
 62
7
  6
CONTINUOUS
 10
29.8314039026
 20
80.9052771948
 11
30.2360907851
 21
80.9052771948
  0
LINE
  8
0
 62
7
  6
CONTINUOUS
 10
21.413904057
 20
81.0859538388
 11
21.899529057
 21
81.0859538388
  0
LINE
  8
0
 62
7
  6
CONTINUOUS
 10
28.6173414026
 20
81.0859538388
 11
29.1029664026
 21
81.0859538388
  0
LINE
  8
0
 62
7
  6
CONTINUOUS
 10
29.1029664026
 20
81.2666304827
 11
28.6173414026
 21
81.2666304827
  0
LINE
  8
0
 62
7
  6
CONTINUOUS
 10
26.1892164026
 20
81.2666304827
 11
25.8654667113
 21
81.2666304827
  0
LINE
  8
0
 62
7
  6
CONTINUOUS
 10
25.1370292113
 20
81.2666304827
 11
24.7323414026
 21
81.2666304827
  0
LINE
  8
0
 62
7
  6
CONTINUOUS
 10
24.0848410938
 20
81.2666304827
 11
23.6801542113
 21
81.2666304827
  0
LINE
  8
0
 62
7
  6
CONTINUOUS
 10
21.899529057
 20
81.2666304827
 11
21.413904057
 21
81.2666304827
  0
LINE
  8
0
 62
7
  6
CONTINUOUS
 10
18.985779057
 20
81.2666304827
 11
18.6620289026
 21
81.2666304827
  0
LINE
  8
0
 62
7
  6
CONTINUOUS
 10
23.6801542113
 20
81.7183222192
 11
24.0848410938
 21
81.7183222192
  0
LINE
  8
0
 62
7
  6
CONTINUOUS
 10
24.0848410938
 20
81.9441680241
 11
23.6801542113
 21
81.9441680241
  0
LINE
  8
0
 62
7
  6
CONTINUOUS
 10
17.9335914026
 20
81.9441680241
 11
17.5289038254
 21
81.9441680241
  0
LINE
  8
0
 62
7
  6
CONTINUOUS
 10
16.5864858698
 20
82.3458073684
 11
17.1640857578
 21
82.3458073684
  0
LINE
  8
0
 62
7
  6
CONTINUOUS
 10
18.881567837
 20
82.3458073684
 11
20.8323875091
 21
82.3458073684
  0
LINE
  8
0
 62
7
  6
CONTINUOUS
 10
21.2914039026
 20
82.3458073684
 11
23.2422235747
 21
82.3458073684
  0
LINE
  8
0
 62
7
  6
CONTINUOUS
 10
25.881567837
 20
82.3458073684
 11
27.8323875091
 21
82.3458073684
  0
LINE
  8
0
 62
7
  6
CONTINUOUS
 10
28.2914039026
 20
82.3458073684
 11
30.2422235747
 21
82.3458073684
  0
LINE
  8
0
 62
7
  6
CONTINUOUS
 10
25.5417160938
 20
81.2214613217
 11
25.2989035938
 21
81.1311229998
  0
LINE
  8
0
 62
7
  6
CONTINUOUS
 10
22.1423410938
 20
79.8663863694
 11
22.3851535938
 21
79.9567247033
  0
LINE
  8
0
 62
7
  6
CONTINUOUS
 10
29.7504667113
 20
79.8663863694
 11
30.0742164026
 21
79.9567247033
  0
LINE
  8
0
 62
7
  6
CONTINUOUS
 10
29.7504667113
 20
80.0922322021
 11
29.5885914026
 21
80.0470630411
  0
LINE
  8
0
 62
7
  6
CONTINUOUS
 10
28.2935917113
 20
81.0407846778
 11
28.6173414026
 21
81.0859538388
  0
LINE
  8
0
 62
7
  6
CONTINUOUS
 10
25.5417160938
 20
81.0407846778
 11
25.8654667113
 21
81.0859538388
  0
LINE
  8
0
 62
7
  6
CONTINUOUS
 10
21.2520287482
 20
80.5439238436
 11
21.5757789026
 21
80.5890930046
  0
LINE
  8
0
 62
7
  6
CONTINUOUS
 10
25.8654667113
 20
81.2666304827
 11
25.5417160938
 21
81.2214613217
  0
LINE
  8
0
 62
7
  6
CONTINUOUS
 10
21.0901539026
 20
81.0407846778
 11
21.413904057
 21
81.0859538388
  0
LINE
  8
0
 62
7
  6
CONTINUOUS
 10
28.6173414026
 20
81.2666304827
 11
28.1317164026
 21
81.2214613217
  0
LINE
  8
0
 62
7
  6
CONTINUOUS
 10
21.5757789026
 20
80.7697697118
 11
21.0901539026
 21
80.7246005508
  0
LINE
  8
0
 62
7
  6
CONTINUOUS
 10
15.667341364
 20
81.2666304827
 11
15.1817164219
 21
81.2214613217
  0
LINE
  8
0
 62
7
  6
CONTINUOUS
 10
21.413904057
 20
81.2666304827
 11
20.8473414026
 21
81.2214613217
  0
LINE
  8
0
 62
7
  6
CONTINUOUS
 10
17.7340268534
 20
83.9523647455
 11
16.8159940665
 21
83.9523647455
  0
LINE
  8
0
 62
7
  6
CONTINUOUS
 10
25.2989035938
 20
80.9504463558
 11
25.5417160938
 21
81.0407846778
  0
LINE
  8
0
 62
7
  6
CONTINUOUS
 10
28.1317164026
 20
80.9956155168
 11
28.2935917113
 21
81.0407846778
  0
LINE
  8
0
 62
7
  6
CONTINUOUS
 10
28.1317164026
 20
81.2214613217
 11
27.8079667113
 21
81.1311229998
  0
LINE
  8
0
 62
7
  6
CONTINUOUS
 10
22.1423410938
 20
80.0922322021
 11
21.7376537482
 21
80.0018938643
  0
LINE
  8
0
 62
7
  6
CONTINUOUS
 10
18.3382787482
 20
81.0407846778
 11
18.6620289026
 21
81.0859538388
  0
LINE
  8
0
 62
7
  6
CONTINUOUS
 10
18.6620289026
 20
81.2666304827
 11
18.3382787482
 21
81.2214613217
  0
LINE
  8
0
 62
7
  6
CONTINUOUS
 10
15.2626539026
 20
81.0407846778
 11
15.5864039412
 21
81.0859538388
  0
LINE
  8
0
 62
7
  6
CONTINUOUS
 10
24.3897645583
 20
86.0179385159
 11
25.3077973452
 21
86.0179385159
  0
LINE
  8
0
 62
7
  6
CONTINUOUS
 10
21.0901539026
 20
80.4987546826
 11
21.2520287482
 21
80.5439238436
  0
LINE
  8
0
 62
7
  6
CONTINUOUS
 10
21.0901539026
 20
80.7246005508
 11
20.7664037482
 21
80.6342622289
  0
LINE
  8
0
 62
7
  6
CONTINUOUS
 10
20.928279057
 20
80.9956155168
 11
21.0901539026
 21
81.0407846778
  0
LINE
  8
0
 62
7
  6
CONTINUOUS
 10
16.2339039026
 20
79.8663863694
 11
16.5576538254
 21
79.9567247033
  0
LINE
  8
0
 62
7
  6
CONTINUOUS
 10
20.8473414026
 20
81.2214613217
 11
20.685466557
 21
81.1762921607
  0
LINE
  8
0
 62
7
  6
CONTINUOUS
 10
15.1817164219
 20
81.2214613217
 11
14.9389039219
 21
81.1762921607
  0
LINE
  8
0
 62
7
  6
CONTINUOUS
 10
30.2422235747
 20
87.624495893
 11
28.2914039026
 21
87.624495893
  0
LINE
  8
0
 62
7
  6
CONTINUOUS
 10
25.5373055419
 20
87.624495893
 11
24.9597056539
 21
87.624495893
  0
LINE
  8
0
 62
7
  6
CONTINUOUS
 10
23.2422235747
 20
87.624495893
 11
21.2914039026
 21
87.624495893
  0
LINE
  8
0
 62
7
  6
CONTINUOUS
 10
20.8323875091
 20
87.624495893
 11
18.881567837
 21
87.624495893
  0
LINE
  8
0
 62
7
  6
CONTINUOUS
 10
16.2422235747
 20
87.624495893
 11
14.2914039026
 21
87.624495893
  0
LINE
  8
0
 62
7
  6
CONTINUOUS
 10
15.1007788833
 20
80.9956155168
 11
15.2626539026
 21
81.0407846778
  0
CIRCLE
  8
0
 62
7
  6
CONTINUOUS
 10
29.2668137386
 20
90.8949876963
 40
2.9262295082
  0
ARC
  8
0
 62
7
  6
CONTINUOUS
 10
16.5864858698
 20
84.6408893356
 40
2.2950819672
 50
180.0
 51
270.0
  0
ARC
  8
0
 62
7
  6
CONTINUOUS
 10
25.5373055419
 20
85.3294139258
 40
2.2950819672
 50
0.0
 51
90.0
  0
ARC
  8
0
 62
7
  6
CONTINUOUS
 10
17.1640857578
 20
84.4113811389
 40
2.0655737705
 50
270.0
 51
326.2510114041
  0
ARC
  8
0
 62
7
  6
CONTINUOUS
 10
24.9597056539
 20
85.5589221225
 40
2.0655737705
 50
90.0
 51
146.2510114041
  0
ARC
  8
0
 62
7
  6
CONTINUOUS
 10
17.7340268534
 20
85.0999057291
 40
1.1475409836
 50
270.0
 51
360.0
  0
ARC
  8
0
 62
7
  6
CONTINUOUS
 10
24.3897645583
 20
84.8703975323
 40
1.1475409836
 50
90.0
 51
180.0
  0
ARC
  8
0
 62
7
  6
CONTINUOUS
 10
16.8159940665
 20
84.5261352373
 40
0.5737704918
 50
180.0
 51
270.0
  0
ARC
  8
0
 62
7
  6
CONTINUOUS
 10
25.3077973452
 20
85.4441680241
 40
0.5737704918
 50
0.0
 51
90.0
  0
SOLID
  8
0
 62
7
  6
CONTINUOUS
 10
23.6801542113
 20
81.7183227236
 11
23.6801542113
 21
81.9441686006
 12
24.0848410938
 22
81.7183227236
 13
24.0848410938
 23
81.9441686006
  0
SOLID
  8
0
 62
7
  6
CONTINUOUS
 10
15.667341364
 20
81.2666309695
 11
16.2339039026
 21
81.2214609164
 12
15.1817164219
 22
81.2214609164
 13
15.1817164219
 23
81.2214609164
  0
SOLID
  8
0
 62
7
  6
CONTINUOUS
 10
14.9389039219
 20
81.1762930432
 11
15.1817164219
 21
81.2214609164
 12
16.2339039026
 22
81.2214609164
 13
16.2339039026
 23
81.2214609164
  0
SOLID
  8
0
 62
7
  6
CONTINUOUS
 10
16.2339039026
 20
81.2214609164
 11
16.5576538254
 21
81.1311230186
 12
14.9389039219
 22
81.1762930432
 13
14.9389039219
 23
81.1762930432
  0
SOLID
  8
0
 62
7
  6
CONTINUOUS
 10
14.6960913929
 20
81.0859529385
 11
14.9389039219
 21
81.1762930432
 12
16.5576538254
 22
81.1311230186
 13
16.5576538254
 23
81.1311230186
  0
SOLID
  8
0
 62
7
  6
CONTINUOUS
 10
14.6960913929
 20
81.0859529385
 11
16.5576538254
 21
81.1311230186
 12
15.5864039412
 22
81.0859529385
 13
15.5864039412
 23
81.0859529385
  0
SOLID
  8
0
 62
7
  6
CONTINUOUS
 10
15.5864039412
 20
81.0859529385
 11
16.5576538254
 21
81.1311230186
 12
16.152966364
 22
81.0407850924
 13
16.152966364
 23
81.0407850924
  0
SOLID
  8
0
 62
7
  6
CONTINUOUS
 10
16.5576538254
 20
81.1311230186
 11
16.8004663254
 21
80.9956150678
 12
16.152966364
 22
81.0407850924
 13
16.152966364
 23
81.0407850924
  0
SOLID
  8
0
 62
7
  6
CONTINUOUS
 10
16.3957789798
 20
80.9504471662
 11
16.152966364
 21
81.0407850924
 12
16.8004663254
 22
80.9956150678
 13
16.8004663254
 23
80.9956150678
  0
SOLID
  8
0
 62
7
  6
CONTINUOUS
 10
16.3957789798
 20
80.9504471662
 11
16.8004663254
 21
80.9956150678
 12
16.4767164026
 22
80.8149392411
 13
16.4767164026
 23
80.8149392411
  0
SOLID
  8
0
 62
7
  6
CONTINUOUS
 10
16.8004663254
 20
80.9956150678
 11
16.8814039798
 21
80.8149392411
 12
16.4767164026
 22
80.8149392411
 13
16.4767164026
 23
80.8149392411
  0
SOLID
  8
0
 62
7
  6
CONTINUOUS
 10
18.3382787482
 20
81.2214616557
 11
18.6620289026
 21
81.2666316803
 12
18.985779057
 22
81.2666316803
 13
18.985779057
 23
81.2666316803
  0
SOLID
  8
0
 62
7
  6
CONTINUOUS
 10
18.985779057
 20
81.2666316803
 11
19.228591557
 21
81.2214616557
 12
18.3382787482
 22
81.2214616557
 13
18.3382787482
 23
81.2214616557
  0
SOLID
  8
0
 62
7
  6
CONTINUOUS
 10
18.0954664798
 20
81.1311237295
 11
18.3382787482
 21
81.2214616557
 12
19.228591557
 22
81.2214616557
 13
19.228591557
 23
81.2214616557
  0
SOLID
  8
0
 62
7
  6
CONTINUOUS
 10
19.228591557
 20
81.2214616557
 11
19.471404057
 21
81.1311237295
 12
18.0954664798
 22
81.1311237295
 13
18.0954664798
 23
81.1311237295
  0
SOLID
  8
0
 62
7
  6
CONTINUOUS
 10
19.471404057
 20
81.1311237295
 11
18.6620289026
 21
81.085952994
 12
18.0954664798
 22
81.1311237295
 13
18.0954664798
 23
81.1311237295
  0
SOLID
  8
0
 62
7
  6
CONTINUOUS
 10
17.9335914026
 20
81.0407858033
 11
18.0954664798
 21
81.1311237295
 12
18.6620289026
 22
81.085952994
 13
18.6620289026
 23
81.085952994
  0
SOLID
  8
0
 62
7
  6
CONTINUOUS
 10
18.6620289026
 20
81.085952994
 11
18.3382787482
 21
81.0407858033
 12
17.9335914026
 22
81.0407858033
 13
17.9335914026
 23
81.0407858033
  0
SOLID
  8
0
 62
7
  6
CONTINUOUS
 10
18.6620289026
 20
81.085952994
 11
19.471404057
 21
81.1311237295
 12
18.985779057
 22
81.0407858033
 13
18.985779057
 23
81.0407858033
  0
SOLID
  8
0
 62
7
  6
CONTINUOUS
 10
19.471404057
 20
81.1311237295
 11
19.6332789026
 21
81.0407858033
 12
18.985779057
 22
81.0407858033
 13
18.985779057
 23
81.0407858033
  0
SOLID
  8
0
 62
7
  6
CONTINUOUS
 10
19.1476539026
 20
80.9956150678
 11
18.985779057
 21
81.0407858033
 12
19.6332789026
 22
81.0407858033
 13
19.6332789026
 23
81.0407858033
  0
SOLID
  8
0
 62
7
  6
CONTINUOUS
 10
19.6332789026
 20
81.0407858033
 11
19.714216557
 21
80.950447877
 12
19.1476539026
 22
80.9956150678
 13
19.1476539026
 23
80.9956150678
  0
SOLID
  8
0
 62
7
  6
CONTINUOUS
 10
19.3095287482
 20
80.9052771416
 11
19.1476539026
 21
80.9956150678
 12
19.714216557
 22
80.950447877
 13
19.714216557
 23
80.950447877
  0
SOLID
  8
0
 62
7
  6
CONTINUOUS
 10
19.3095287482
 20
80.9052771416
 11
19.714216557
 21
80.950447877
 12
19.3904664026
 22
80.724602
 13
19.3904664026
 23
80.724602
  0
SOLID
  8
0
 62
7
  6
CONTINUOUS
 10
19.714216557
 20
80.950447877
 11
19.7951537482
 21
80.724602
 12
19.3904664026
 22
80.724602
 13
19.3904664026
 23
80.724602
  0
SOLID
  8
0
 62
7
  6
CONTINUOUS
 10
18.3382787482
 20
81.0407858033
 11
18.0954664798
 21
80.950447877
 12
17.9335914026
 22
81.0407858033
 13
17.9335914026
 23
81.0407858033
  0
SOLID
  8
0
 62
7
  6
CONTINUOUS
 10
18.0954664798
 20
80.950447877
 11
17.9335914026
 21
80.860107117
 12
17.9335914026
 22
81.0407858033
 13
17.9335914026
 23
81.0407858033
  0
SOLID
  8
0
 62
7
  6
CONTINUOUS
 10
17.9335914026
 20
80.860107117
 11
17.5289038254
 21
79.8212184918
 12
17.9335914026
 22
81.0407858033
 13
17.9335914026
 23
81.0407858033
  0
SOLID
  8
0
 62
7
  6
CONTINUOUS
 10
17.9335914026
 20
81.0407858033
 11
17.5289038254
 21
79.8212184918
 12
17.9335914026
 22
81.9441693115
 13
17.9335914026
 23
81.9441693115
  0
SOLID
  8
0
 62
7
  6
CONTINUOUS
 10
17.5289038254
 20
79.8212184918
 11
17.5289038254
 21
81.9441693115
 12
17.9335914026
 22
81.9441693115
 13
17.9335914026
 23
81.9441693115
  0
SOLID
  8
0
 62
7
  6
CONTINUOUS
 10
17.9335914026
 20
80.860107117
 11
17.9335914026
 21
79.8212184918
 12
17.5289038254
 22
79.8212184918
 13
17.5289038254
 23
79.8212184918
  0
SOLID
  8
0
 62
7
  6
CONTINUOUS
 10
19.3904664026
 20
79.8212184918
 11
19.3904664026
 21
80.724602
 12
19.7951537482
 22
80.724602
 13
19.7951537482
 23
80.724602
  0
SOLID
  8
0
 62
7
  6
CONTINUOUS
 10
19.7951537482
 20
80.724602
 11
19.7951537482
 21
79.8212184918
 12
19.3904664026
 22
79.8212184918
 13
19.3904664026
 23
79.8212184918
  0
SOLID
  8
0
 62
7
  6
CONTINUOUS
 10
20.8473414026
 20
81.2214605025
 11
21.413904057
 21
81.2666311764
 12
21.899529057
 22
81.2666311764
 13
21.899529057
 23
81.2666311764
  0
SOLID
  8
0
 62
7
  6
CONTINUOUS
 10
21.899529057
 20
81.2666311764
 11
22.3851535938
 21
81.2214605025
 12
20.8473414026
 22
81.2214605025
 13
20.8473414026
 23
81.2214605025
  0
SOLID
  8
0
 62
7
  6
CONTINUOUS
 10
20.685466557
 20
81.1762930432
 11
20.8473414026
 21
81.2214605025
 12
22.3851535938
 22
81.2214605025
 13
22.3851535938
 23
81.2214605025
  0
SOLID
  8
0
 62
7
  6
CONTINUOUS
 10
22.3851535938
 20
81.2214605025
 11
22.6279660938
 21
81.1311230186
 12
20.685466557
 22
81.1762930432
 13
20.685466557
 23
81.1762930432
  0
SOLID
  8
0
 62
7
  6
CONTINUOUS
 10
20.5235912482
 20
81.0859528171
 11
20.685466557
 21
81.1762930432
 12
22.6279660938
 22
81.1311230186
 13
22.6279660938
 23
81.1311230186
  0
SOLID
  8
0
 62
7
  6
CONTINUOUS
 10
20.5235912482
 20
81.0859528171
 11
22.6279660938
 21
81.1311230186
 12
21.413904057
 22
81.0859528171
 13
21.413904057
 23
81.0859528171
  0
SOLID
  8
0
 62
7
  6
CONTINUOUS
 10
21.413904057
 20
81.0859528171
 11
22.6279660938
 21
81.1311230186
 12
21.899529057
 22
81.0859528171
 13
21.899529057
 23
81.0859528171
  0
SOLID
  8
0
 62
7
  6
CONTINUOUS
 10
21.899529057
 20
81.0859528171
 11
22.6279660938
 21
81.1311230186
 12
22.2232792113
 22
81.0407853953
 13
22.2232792113
 23
81.0407853953
  0
SOLID
  8
0
 62
7
  6
CONTINUOUS
 10
22.6279660938
 20
81.1311230186
 11
22.7898414026
 21
81.0407853953
 12
22.2232792113
 22
81.0407853953
 13
22.2232792113
 23
81.0407853953
  0
SOLID
  8
0
 62
7
  6
CONTINUOUS
 10
20.442654057
 20
80.9956147215
 11
20.5235912482
 21
81.0859528171
 12
21.413904057
 22
81.0859528171
 13
21.413904057
 23
81.0859528171
  0
SOLID
  8
0
 62
7
  6
CONTINUOUS
 10
22.3851535938
 20
80.9956147215
 11
22.2232792113
 21
81.0407853953
 12
22.7898414026
 22
81.0407853953
 13
22.7898414026
 23
81.0407853953
  0
SOLID
  8
0
 62
7
  6
CONTINUOUS
 10
22.3851535938
 20
80.9956147215
 11
22.7898414026
 21
81.0407853953
 12
22.4660917113
 22
80.9052766258
 13
22.4660917113
 23
80.9052766258
  0
SOLID
  8
0
 62
7
  6
CONTINUOUS
 10
22.7898414026
 20
81.0407853953
 11
22.8707785938
 21
80.9052766258
 12
22.4660917113
 22
80.9052766258
 13
22.4660917113
 23
80.9052766258
  0
SOLID
  8
0
 62
7
  6
CONTINUOUS
 10
22.4660917113
 20
80.7697691908
 11
22.4660917113
 21
80.9052766258
 12
22.8707785938
 22
80.9052766258
 13
22.8707785938
 23
80.9052766258
  0
SOLID
  8
0
 62
7
  6
CONTINUOUS
 10
22.4660917113
 20
80.7697691908
 11
22.8707785938
 21
80.9052766258
 12
22.4660917113
 22
80.5890933383
 13
22.4660917113
 23
80.5890933383
  0
SOLID
  8
0
 62
7
  6
CONTINUOUS
 10
22.4660917113
 20
80.5890933383
 11
22.8707785938
 21
80.9052766258
 12
22.4660917113
 22
80.3180780386
 13
22.4660917113
 23
80.3180780386
  0
SOLID
  8
0
 62
7
  6
CONTINUOUS
 10
22.8707785938
 20
80.9052766258
 11
22.8707785938
 21
80.1825694858
 12
22.4660917113
 22
80.3180780386
 13
22.4660917113
 23
80.3180780386
  0
SOLID
  8
0
 62
7
  6
CONTINUOUS
 10
25.5417160938
 20
81.2214615393
 11
25.8654667113
 21
81.2666307014
 12
26.1892164026
 22
81.2666307014
 13
26.1892164026
 23
81.2666307014
  0
SOLID
  8
0
 62
7
  6
CONTINUOUS
 10
26.1892164026
 20
81.2666307014
 11
26.4320289026
 21
81.2214615393
 12
25.5417160938
 22
81.2214615393
 13
25.5417160938
 23
81.2214615393
  0
SOLID
  8
0
 62
7
  6
CONTINUOUS
 10
25.2989035938
 20
81.131123215
 11
25.5417160938
 21
81.2214615393
 12
26.4320289026
 22
81.2214615393
 13
26.4320289026
 23
81.2214615393
  0
SOLID
  8
0
 62
7
  6
CONTINUOUS
 10
26.4320289026
 20
81.2214615393
 11
26.6748414026
 21
81.131123215
 12
25.2989035938
 22
81.131123215
 13
25.2989035938
 23
81.131123215
  0
SOLID
  8
0
 62
7
  6
CONTINUOUS
 10
26.6748414026
 20
81.131123215
 11
25.8654667113
 21
81.085952994
 12
25.2989035938
 22
81.131123215
 13
25.2989035938
 23
81.131123215
  0
SOLID
  8
0
 62
7
  6
CONTINUOUS
 10
25.1370292113
 20
81.0407848907
 11
25.2989035938
 21
81.131123215
 12
25.8654667113
 22
81.085952994
 13
25.8654667113
 23
81.085952994
  0
SOLID
  8
0
 62
7
  6
CONTINUOUS
 10
25.8654667113
 20
81.085952994
 11
25.5417160938
 21
81.0407848907
 12
25.1370292113
 22
81.0407848907
 13
25.1370292113
 23
81.0407848907
  0
SOLID
  8
0
 62
7
  6
CONTINUOUS
 10
25.8654667113
 20
81.085952994
 11
26.6748414026
 21
81.131123215
 12
26.1892164026
 22
81.0407848907
 13
26.1892164026
 23
81.0407848907
  0
SOLID
  8
0
 62
7
  6
CONTINUOUS
 10
26.6748414026
 20
81.131123215
 11
26.8367167113
 21
81.0407848907
 12
26.1892164026
 22
81.0407848907
 13
26.1892164026
 23
81.0407848907
  0
SOLID
  8
0
 62
7
  6
CONTINUOUS
 10
26.3510917113
 20
80.9956150678
 11
26.1892164026
 21
81.0407848907
 12
26.8367167113
 22
81.0407848907
 13
26.8367167113
 23
81.0407848907
  0
SOLID
  8
0
 62
7
  6
CONTINUOUS
 10
26.3510917113
 20
80.9956150678
 11
26.8367167113
 21
81.0407848907
 12
26.5129660938
 22
80.9052774043
 13
26.5129660938
 23
80.9052774043
  0
SOLID
  8
0
 62
7
  6
CONTINUOUS
 10
26.8367167113
 20
81.0407848907
 11
26.9176539026
 21
80.9052774043
 12
26.5129660938
 22
80.9052774043
 13
26.5129660938
 23
80.9052774043
  0
SOLID
  8
0
 62
7
  6
CONTINUOUS
 10
26.5939042113
 20
80.6794315936
 11
26.5129660938
 21
80.9052774043
 12
26.9176539026
 22
80.9052774043
 13
26.9176539026
 23
80.9052774043
  0
SOLID
  8
0
 62
7
  6
CONTINUOUS
 10
26.9176539026
 20
80.9052774043
 11
26.9985910938
 21
80.6794315936
 12
26.5939042113
 22
80.6794315936
 13
26.5939042113
 23
80.6794315936
  0
SOLID
  8
0
 62
7
  6
CONTINUOUS
 10
25.5417160938
 20
81.0407848907
 11
25.2989035938
 21
80.9504471662
 12
25.1370292113
 22
81.0407848907
 13
25.1370292113
 23
81.0407848907
  0
SOLID
  8
0
 62
7
  6
CONTINUOUS
 10
25.2989035938
 20
80.9504471662
 11
25.1370292113
 21
80.860107117
 12
25.1370292113
 22
81.0407848907
 13
25.1370292113
 23
81.0407848907
  0
SOLID
  8
0
 62
7
  6
CONTINUOUS
 10
25.1370292113
 20
80.860107117
 11
24.7323414026
 21
79.8212175129
 12
25.1370292113
 22
81.0407848907
 13
25.1370292113
 23
81.0407848907
  0
SOLID
  8
0
 62
7
  6
CONTINUOUS
 10
25.1370292113
 20
81.0407848907
 11
24.7323414026
 21
79.8212175129
 12
25.1370292113
 22
81.2666307014
 13
25.1370292113
 23
81.2666307014
  0
SOLID
  8
0
 62
7
  6
CONTINUOUS
 10
24.7323414026
 20
79.8212175129
 11
24.7323414026
 21
81.2666307014
 12
25.1370292113
 22
81.2666307014
 13
25.1370292113
 23
81.2666307014
  0
SOLID
  8
0
 62
7
  6
CONTINUOUS
 10
25.1370292113
 20
80.860107117
 11
25.1370292113
 21
79.8212175129
 12
24.7323414026
 22
79.8212175129
 13
24.7323414026
 23
79.8212175129
  0
SOLID
  8
0
 62
7
  6
CONTINUOUS
 10
26.5939042113
 20
79.8212175129
 11
26.5939042113
 21
80.6794315936
 12
26.9985910938
 22
80.6794315936
 13
26.9985910938
 23
80.6794315936
  0
SOLID
  8
0
 62
7
  6
CONTINUOUS
 10
26.9985910938
 20
80.6794315936
 11
26.9985910938
 21
79.8212175129
 12
26.5939042113
 22
79.8212175129
 13
26.5939042113
 23
79.8212175129
  0
SOLID
  8
0
 62
7
  6
CONTINUOUS
 10
28.1317164026
 20
81.2214608812
 11
28.6173414026
 21
81.266630966
 12
29.1029664026
 22
81.266630966
 13
29.1029664026
 23
81.266630966
  0
SOLID
  8
0
 62
7
  6
CONTINUOUS
 10
29.1029664026
 20
81.266630966
 11
29.5885914026
 21
81.2214608812
 12
28.1317164026
 22
81.2214608812
 13
28.1317164026
 23
81.2214608812
  0
SOLID
  8
0
 62
7
  6
CONTINUOUS
 10
27.8079667113
 20
81.1311230186
 11
28.1317164026
 21
81.2214608812
 12
29.5885914026
 22
81.2214608812
 13
29.5885914026
 23
81.2214608812
  0
SOLID
  8
0
 62
7
  6
CONTINUOUS
 10
27.8079667113
 20
81.1311230186
 11
29.5885914026
 21
81.2214609449
 12
29.8314039026
 22
81.1762930432
 13
29.8314039026
 23
81.1762930432
  0
SOLID
  8
0
 62
7
  6
CONTINUOUS
 10
27.8079667113
 20
81.1311230186
 11
29.8314039026
 21
81.1762930432
 12
28.6173414026
 22
81.0859529092
 13
28.6173414026
 23
81.0859529092
  0
SOLID
  8
0
 62
7
  6
CONTINUOUS
 10
28.6173414026
 20
81.0859529092
 11
29.8314039026
 21
81.1762930432
 12
29.1029664026
 22
81.0859529092
 13
29.1029664026
 23
81.0859529092
  0
SOLID
  8
0
 62
7
  6
CONTINUOUS
 10
29.8314039026
 20
81.1762930432
 11
30.0742164026
 21
81.0859529092
 12
29.1029664026
 22
81.0859529092
 13
29.1029664026
 23
81.0859529092
  0
SOLID
  8
0
 62
7
  6
CONTINUOUS
 10
29.5885914026
 20
81.0407850924
 11
29.1029664026
 21
81.0859529092
 12
30.0742164026
 22
81.0859529092
 13
30.0742164026
 23
81.0859529092
  0
SOLID
  8
0
 62
7
  6
CONTINUOUS
 10
27.6460914026
 20
80.9956150863
 11
27.8079667113
 21
81.1311230186
 12
28.6173414026
 22
81.0859529092
 13
28.6173414026
 23
81.0859529092
  0
SOLID
  8
0
 62
7
  6
CONTINUOUS
 10
29.5885914026
 20
81.0407850924
 11
30.0742164026
 21
81.0859529092
 12
29.7504667113
 22
80.9956150863
 13
29.7504667113
 23
80.9956150863
  0
SOLID
  8
0
 62
7
  6
CONTINUOUS
 10
29.7504667113
 20
80.9956150863
 11
30.0742164026
 21
81.0859529092
 12
29.8314039026
 22
80.9052772633
 13
29.8314039026
 23
80.9052772633
  0
SOLID
  8
0
 62
7
  6
CONTINUOUS
 10
30.0742164026
 20
81.0859529092
 11
30.2360907851
 21
80.9052772633
 12
29.8314039026
 22
80.9052772633
 13
29.8314039026
 23
80.9052772633
  0
SOLID
  8
0
 62
7
  6
CONTINUOUS
 10
15.2626539026
 20
81.0407850924
 11
14.5342164026
 21
80.9956150441
 12
15.5864039412
 22
81.08595288
 13
15.5864039412
 23
81.08595288
  0
SOLID
  8
0
 62
7
  6
CONTINUOUS
 10
14.5342164026
 20
80.9956150441
 11
14.6960913929
 21
81.08595288
 12
15.5864039412
 22
81.08595288
 13
15.5864039412
 23
81.08595288
  0
SOLID
  8
0
 62
7
  6
CONTINUOUS
 10
15.2626539026
 20
81.0407850924
 11
15.1007788833
 21
80.9956150441
 12
14.5342164026
 22
80.9956150441
 13
14.5342164026
 23
80.9956150441
  0
SOLID
  8
0
 62
7
  6
CONTINUOUS
 10
14.372341405
 20
80.8149392154
 11
14.5342164026
 21
80.9956150441
 12
15.1007788833
 22
80.9956150441
 13
15.1007788833
 23
80.9956150441
  0
SOLID
  8
0
 62
7
  6
CONTINUOUS
 10
20.442654057
 20
80.9956151344
 11
21.413904057
 21
81.085952994
 12
21.0901539026
 22
81.0407850924
 13
21.0901539026
 23
81.0407850924
  0
SOLID
  8
0
 62
7
  6
CONTINUOUS
 10
21.0901539026
 20
81.0407850924
 11
20.928279057
 21
80.9956151344
 12
20.442654057
 22
80.9956151344
 13
20.442654057
 23
80.9956151344
  0
SOLID
  8
0
 62
7
  6
CONTINUOUS
 10
20.442654057
 20
80.9052772082
 11
20.442654057
 21
80.9956151344
 12
20.928279057
 22
80.9956151344
 13
20.928279057
 23
80.9956151344
  0
SOLID
  8
0
 62
7
  6
CONTINUOUS
 10
20.928279057
 20
80.9956151344
 11
20.8473414026
 21
80.9052772082
 12
20.442654057
 22
80.9052772082
 13
20.442654057
 23
80.9052772082
  0
SOLID
  8
0
 62
7
  6
CONTINUOUS
 10
27.6460914026
 20
80.9956151344
 11
28.6173414026
 21
81.085952994
 12
28.2935917113
 22
81.0407850924
 13
28.2935917113
 23
81.0407850924
  0
SOLID
  8
0
 62
7
  6
CONTINUOUS
 10
28.2935917113
 20
81.0407850924
 11
28.1317164026
 21
80.9956151344
 12
27.6460914026
 22
80.9956151344
 13
27.6460914026
 23
80.9956151344
  0
SOLID
  8
0
 62
7
  6
CONTINUOUS
 10
27.6460914026
 20
80.9052772082
 11
27.6460914026
 21
80.9956151344
 12
28.1317164026
 22
80.9956151344
 13
28.1317164026
 23
80.9956151344
  0
SOLID
  8
0
 62
7
  6
CONTINUOUS
 10
28.1317164026
 20
80.9956151344
 11
28.0507792113
 21
80.9052772082
 12
27.6460914026
 22
80.9052772082
 13
27.6460914026
 23
80.9052772082
  0
SOLID
  8
0
 62
7
  6
CONTINUOUS
 10
27.8079667113
 20
80.7246012891
 11
27.6460914026
 21
80.9052772082
 12
28.0507792113
 22
80.9052772082
 13
28.0507792113
 23
80.9052772082
  0
SOLID
  8
0
 62
7
  6
CONTINUOUS
 10
14.372341405
 20
80.8149392154
 11
15.1007788833
 21
80.9956150678
 12
14.8579663833
 22
80.860107117
 13
14.8579663833
 23
80.860107117
  0
SOLID
  8
0
 62
7
  6
CONTINUOUS
 10
14.8579663833
 20
80.860107117
 11
14.7770289026
 21
80.7697691908
 12
14.372341405
 22
80.8149392154
 13
14.372341405
 23
80.8149392154
  0
SOLID
  8
0
 62
7
  6
CONTINUOUS
 10
14.2914039026
 20
80.5439233137
 11
14.372341405
 21
80.8149392154
 12
14.7770289026
 22
80.7697691908
 13
14.7770289026
 23
80.7697691908
  0
SOLID
  8
0
 62
7
  6
CONTINUOUS
 10
21.0901539026
 20
80.7246012891
 11
21.5757789026
 21
80.7697692348
 12
22.4660917113
 22
80.7697692348
 13
22.4660917113
 23
80.7697692348
  0
SOLID
  8
0
 62
7
  6
CONTINUOUS
 10
21.0901539026
 20
80.7246012891
 11
22.4660917113
 21
80.7697692348
 12
20.7664037482
 22
80.6342622289
 13
20.7664037482
 23
80.6342622289
  0
SOLID
  8
0
 62
7
  6
CONTINUOUS
 10
20.7664037482
 20
80.6342622289
 11
22.4660917113
 21
80.7697692348
 12
21.5757789026
 22
80.5890933823
 13
21.5757789026
 23
80.5890933823
  0
SOLID
  8
0
 62
7
  6
CONTINUOUS
 10
22.4660917113
 20
80.7697692348
 11
22.4660917113
 21
80.5890933823
 12
21.5757789026
 22
80.5890933823
 13
21.5757789026
 23
80.5890933823
  0
SOLID
  8
0
 62
7
  6
CONTINUOUS
 10
27.8079667113
 20
80.7246017059
 11
28.0507792113
 21
80.9052771416
 12
28.1317164026
 22
80.8149392154
 13
28.1317164026
 23
80.8149392154
  0
SOLID
  8
0
 62
7
  6
CONTINUOUS
 10
28.1317164026
 20
80.8149392154
 11
28.3745289026
 21
80.7246017059
 12
27.8079667113
 22
80.7246017059
 13
27.8079667113
 23
80.7246017059
  0
SOLID
  8
0
 62
7
  6
CONTINUOUS
 10
28.1317164026
 20
80.5890933383
 11
27.8079667113
 21
80.7246017059
 12
28.3745289026
 22
80.7246017059
 13
28.3745289026
 23
80.7246017059
  0
SOLID
  8
0
 62
7
  6
CONTINUOUS
 10
28.3745289026
 20
80.7246017059
 11
29.7504667113
 21
80.4987554121
 12
28.1317164026
 22
80.5890933383
 13
28.1317164026
 23
80.5890933383
  0
SOLID
  8
0
 62
7
  6
CONTINUOUS
 10
29.5076542113
 20
80.363247863
 11
28.1317164026
 21
80.5890933383
 12
29.7504667113
 22
80.4987554121
 13
29.7504667113
 23
80.4987554121
  0
SOLID
  8
0
 62
7
  6
CONTINUOUS
 10
29.7504667113
 20
80.4987554121
 11
30.0742164026
 21
80.363247863
 12
29.5076542113
 22
80.363247863
 13
29.5076542113
 23
80.363247863
  0
SOLID
  8
0
 62
7
  6
CONTINUOUS
 10
29.7504667113
 20
80.272909535
 11
29.5076542113
 21
80.363247863
 12
30.0742164026
 22
80.363247863
 13
30.0742164026
 23
80.363247863
  0
SOLID
  8
0
 62
7
  6
CONTINUOUS
 10
29.7504667113
 20
80.272909535
 11
30.0742164026
 21
80.363247863
 12
29.8314039026
 22
80.1825698574
 13
29.8314039026
 23
80.1825698574
  0
SOLID
  8
0
 62
7
  6
CONTINUOUS
 10
30.0742164026
 20
80.363247863
 11
30.2360907851
 21
80.1825698574
 12
29.8314039026
 22
80.1825698574
 13
29.8314039026
 23
80.1825698574
  0
SOLID
  8
0
 62
7
  6
CONTINUOUS
 10
29.7504667113
 20
80.0922319387
 11
29.8314039026
 21
80.1825698574
 12
30.2360907851
 22
80.1825698574
 13
30.2360907851
 23
80.1825698574
  0
SOLID
  8
0
 62
7
  6
CONTINUOUS
 10
30.2360907851
 20
80.1825698574
 11
30.2360907851
 21
80.0922319387
 12
29.7504667113
 22
80.0922319387
 13
29.7504667113
 23
80.0922319387
  0
SOLID
  8
0
 62
7
  6
CONTINUOUS
 10
29.5885914026
 20
80.047063658
 11
29.7504667113
 21
80.0922319387
 12
30.2360907851
 22
80.0922319387
 13
30.2360907851
 23
80.0922319387
  0
SOLID
  8
0
 62
7
  6
CONTINUOUS
 10
29.5885914026
 20
80.047063658
 11
30.2360907851
 21
80.0922319387
 12
29.2648417113
 22
80.00189402
 13
29.2648417113
 23
80.00189402
  0
SOLID
  8
0
 62
7
  6
CONTINUOUS
 10
30.2360907851
 20
80.0922319387
 11
30.0742164026
 21
79.9567257317
 12
29.2648417113
 22
80.00189402
 13
29.2648417113
 23
80.00189402
  0
SOLID
  8
0
 62
7
  6
CONTINUOUS
 10
30.0742164026
 20
79.9567257317
 11
28.0507792113
 21
79.9115557072
 12
29.2648417113
 22
80.00189402
 13
29.2648417113
 23
80.00189402
  0
SOLID
  8
0
 62
7
  6
CONTINUOUS
 10
29.2648417113
 20
80.00189402
 11
28.0507792113
 21
79.9115557072
 12
28.7792167113
 22
80.00189402
 13
28.7792167113
 23
80.00189402
  0
SOLID
  8
0
 62
7
  6
CONTINUOUS
 10
28.0507792113
 20
79.9115557072
 11
27.8079667113
 21
80.00189402
 12
28.7792167113
 22
80.00189402
 13
28.7792167113
 23
80.00189402
  0
SOLID
  8
0
 62
7
  6
CONTINUOUS
 10
28.0507792113
 20
79.9115557072
 11
30.0742164026
 21
79.9567257317
 12
28.2935917113
 22
79.8663855159
 13
28.2935917113
 23
79.8663855159
  0
SOLID
  8
0
 62
7
  6
CONTINUOUS
 10
30.0742164026
 20
79.9567257317
 11
29.7504667113
 21
79.8663855159
 12
28.2935917113
 22
79.8663855159
 13
28.2935917113
 23
79.8663855159
  0
SOLID
  8
0
 62
7
  6
CONTINUOUS
 10
28.7792167113
 20
79.8212181826
 11
28.2935917113
 21
79.8663855159
 12
29.7504667113
 22
79.8663855159
 13
29.7504667113
 23
79.8663855159
  0
SOLID
  8
0
 62
7
  6
CONTINUOUS
 10
29.7504667113
 20
79.8663855159
 11
29.2648417113
 21
79.8212181826
 12
28.7792167113
 22
79.8212181826
 13
28.7792167113
 23
79.8212181826
  0
SOLID
  8
0
 62
7
  6
CONTINUOUS
 10
14.2914039026
 20
80.5439233137
 11
14.7770289026
 21
80.7697691908
 12
14.6960913929
 22
80.5890933383
 13
14.6960913929
 23
80.5890933383
  0
SOLID
  8
0
 62
7
  6
CONTINUOUS
 10
14.6960913929
 20
80.5890933383
 11
14.6960913929
 21
80.4535855216
 12
14.2914039026
 22
80.5439233137
 13
14.2914039026
 23
80.5439233137
  0
SOLID
  8
0
 62
7
  6
CONTINUOUS
 10
14.372341405
 20
80.272909535
 11
14.2914039026
 21
80.5439233137
 12
14.6960913929
 22
80.4535855216
 13
14.6960913929
 23
80.4535855216
  0
SOLID
  8
0
 62
7
  6
CONTINUOUS
 10
14.6960913929
 20
80.4535855216
 11
14.8579663833
 21
80.2277395104
 12
14.372341405
 22
80.272909535
 13
14.372341405
 23
80.272909535
  0
SOLID
  8
0
 62
7
  6
CONTINUOUS
 10
14.5342164026
 20
80.0922318249
 11
14.372341405
 21
80.272909535
 12
14.8579663833
 22
80.2277395104
 13
14.8579663833
 23
80.2277395104
  0
SOLID
  8
0
 62
7
  6
CONTINUOUS
 10
14.8579663833
 20
80.2277395104
 11
15.1007788833
 21
80.0922318249
 12
14.5342164026
 22
80.0922318249
 13
14.5342164026
 23
80.0922318249
  0
SOLID
  8
0
 62
7
  6
CONTINUOUS
 10
14.6960913929
 20
80.001893699
 11
14.5342164026
 21
80.0922318249
 12
15.1007788833
 22
80.0922318249
 13
15.1007788833
 23
80.0922318249
  0
SOLID
  8
0
 62
7
  6
CONTINUOUS
 10
15.1007788833
 20
80.0922318249
 11
15.5864039412
 21
80.001893699
 12
14.6960913929
 22
80.001893699
 13
14.6960913929
 23
80.001893699
  0
SOLID
  8
0
 62
7
  6
CONTINUOUS
 10
14.9389039219
 20
79.9115557072
 11
14.6960913929
 21
80.001893699
 12
15.5864039412
 22
80.001893699
 13
15.5864039412
 23
80.001893699
  0
SOLID
  8
0
 62
7
  6
CONTINUOUS
 10
20.6045289026
 20
80.5439232728
 11
20.7664037482
 21
80.6342622289
 12
21.5757789026
 22
80.5890933383
 13
21.5757789026
 23
80.5890933383
  0
SOLID
  8
0
 62
7
  6
CONTINUOUS
 10
21.5757789026
 20
80.5890933383
 11
21.2520287482
 21
80.5439232728
 12
20.6045289026
 22
80.5439232728
 13
20.6045289026
 23
80.5439232728
  0
SOLID
  8
0
 62
7
  6
CONTINUOUS
 10
20.442654057
 20
80.3632474613
 11
20.6045289026
 21
80.5439232728
 12
21.2520287482
 22
80.5439232728
 13
21.2520287482
 23
80.5439232728
  0
SOLID
  8
0
 62
7
  6
CONTINUOUS
 10
20.928279057
 20
80.4084163606
 11
20.442654057
 21
80.3632474613
 12
21.0901539026
 22
80.4987554121
 13
21.0901539026
 23
80.4987554121
  0
SOLID
  8
0
 62
7
  6
CONTINUOUS
 10
20.442654057
 20
80.3632474613
 11
21.2520287482
 21
80.5439233137
 12
21.0901539026
 22
80.4987554121
 13
21.0901539026
 23
80.4987554121
  0
SOLID
  8
0
 62
7
  6
CONTINUOUS
 10
20.928279057
 20
80.4084163606
 11
20.8473414026
 21
80.272909535
 12
20.442654057
 22
80.3632474613
 13
20.442654057
 23
80.3632474613
  0
SOLID
  8
0
 62
7
  6
CONTINUOUS
 10
20.442654057
 20
80.2277395104
 11
20.442654057
 21
80.3632474613
 12
20.8473414026
 22
80.272909535
 13
20.8473414026
 23
80.272909535
  0
SOLID
  8
0
 62
7
  6
CONTINUOUS
 10
20.8473414026
 20
80.272909535
 11
20.8473414026
 21
80.1825694858
 12
20.442654057
 22
80.2277395104
 13
20.442654057
 23
80.2277395104
  0
SOLID
  8
0
 62
7
  6
CONTINUOUS
 10
20.5235912482
 20
80.047063658
 11
20.442654057
 21
80.2277395104
 12
20.8473414026
 22
80.1825694858
 13
20.8473414026
 23
80.1825694858
  0
SOLID
  8
0
 62
7
  6
CONTINUOUS
 10
22.4660917113
 20
80.3180780386
 11
22.8707785938
 21
80.1825694858
 12
22.3851535938
 22
80.2277395104
 13
22.3851535938
 23
80.2277395104
  0
SOLID
  8
0
 62
7
  6
CONTINUOUS
 10
22.1423410938
 20
80.0922315596
 11
22.3851535938
 21
80.2277395104
 12
22.8707785938
 22
80.1825694858
 13
22.8707785938
 23
80.1825694858
  0
SOLID
  8
0
 62
7
  6
CONTINUOUS
 10
22.1423410938
 20
80.0922315596
 11
22.8707785938
 21
80.1825694858
 12
22.4660917113
 22
80.047063658
 13
22.4660917113
 23
80.047063658
  0
SOLID
  8
0
 62
7
  6
CONTINUOUS
 10
22.8707785938
 20
80.1825694858
 11
22.9517167113
 21
79.9567257317
 12
22.4660917113
 22
80.047063658
 13
22.4660917113
 23
80.047063658
  0
SOLID
  8
0
 62
7
  6
CONTINUOUS
 10
22.5470289026
 20
79.9115557072
 11
22.4660917113
 21
80.047063658
 12
22.9517167113
 22
79.9567257317
 13
22.9517167113
 23
79.9567257317
  0
SOLID
  8
0
 62
7
  6
CONTINUOUS
 10
22.5470289026
 20
79.9115557072
 11
22.9517167113
 21
79.9567257317
 12
22.6279660938
 22
79.8212179992
 13
22.6279660938
 23
79.8212179992
  0
SOLID
  8
0
 62
7
  6
CONTINUOUS
 10
22.9517167113
 20
79.9567257317
 11
23.0326539026
 21
79.8212179992
 12
22.6279660938
 22
79.8212179992
 13
22.6279660938
 23
79.8212179992
  0
SOLID
  8
0
 62
7
  6
CONTINUOUS
 10
16.3957789798
 20
80.137401363
 11
16.4767164026
 21
80.2729095879
 12
16.8814039798
 22
80.2729095879
 13
16.8814039798
 23
80.2729095879
  0
SOLID
  8
0
 62
7
  6
CONTINUOUS
 10
16.8814039798
 20
80.2729095879
 11
16.8004663254
 21
80.0922315596
 12
16.3957789798
 22
80.137401363
 13
16.3957789798
 23
80.137401363
  0
SOLID
  8
0
 62
7
  6
CONTINUOUS
 10
16.152966364
 20
80.047063658
 11
16.3957789798
 21
80.137401363
 12
16.8004663254
 22
80.0922315596
 13
16.8004663254
 23
80.0922315596
  0
SOLID
  8
0
 62
7
  6
CONTINUOUS
 10
16.152966364
 20
80.047063658
 11
16.8004663254
 21
80.0922315596
 12
15.5864039412
 22
80.0018936334
 13
15.5864039412
 23
80.0018936334
  0
SOLID
  8
0
 62
7
  6
CONTINUOUS
 10
16.8004663254
 20
80.0922315596
 11
16.5576538254
 21
79.9567257317
 12
15.5864039412
 22
80.0018936334
 13
15.5864039412
 23
80.0018936334
  0
SOLID
  8
0
 62
7
  6
CONTINUOUS
 10
14.9389039219
 20
79.9115557072
 11
15.5864039412
 21
80.0018936334
 12
16.5576538254
 22
79.9567257317
 13
16.5576538254
 23
79.9567257317
  0
SOLID
  8
0
 62
7
  6
CONTINUOUS
 10
14.9389039219
 20
79.9115557072
 11
16.5576538254
 21
79.9567257317
 12
15.1817164219
 22
79.8663856541
 13
15.1817164219
 23
79.8663856541
  0
SOLID
  8
0
 62
7
  6
CONTINUOUS
 10
16.5576538254
 20
79.9567257317
 11
16.2339039026
 21
79.8663856541
 12
15.1817164219
 22
79.8663856541
 13
15.1817164219
 23
79.8663856541
  0
SOLID
  8
0
 62
7
  6
CONTINUOUS
 10
15.667341364
 20
79.8212177809
 11
15.1817164219
 21
79.8663856541
 12
16.2339039026
 22
79.8663856541
 13
16.2339039026
 23
79.8663856541
  0
SOLID
  8
0
 62
7
  6
CONTINUOUS
 10
20.5235912482
 20
80.047063658
 11
20.8473414026
 21
80.1825694858
 12
20.928279057
 22
80.0922315596
 13
20.928279057
 23
80.0922315596
  0
SOLID
  8
0
 62
7
  6
CONTINUOUS
 10
20.928279057
 20
80.0922315596
 11
21.2520287482
 21
80.0018936334
 12
20.5235912482
 22
80.047063658
 13
20.5235912482
 23
80.047063658
  0
SOLID
  8
0
 62
7
  6
CONTINUOUS
 10
20.7664037482
 20
79.9115557072
 11
20.5235912482
 21
80.047063658
 12
21.2520287482
 22
80.0018936334
 13
21.2520287482
 23
80.0018936334
  0
SOLID
  8
0
 62
7
  6
CONTINUOUS
 10
21.7376537482
 20
80.0018937
 11
22.1423410938
 21
80.0922315596
 12
22.4660917113
 22
80.047063658
 13
22.4660917113
 23
80.047063658
  0
SOLID
  8
0
 62
7
  6
CONTINUOUS
 10
22.4660917113
 20
80.047063658
 11
22.3851535938
 21
79.9567257317
 12
21.7376537482
 22
80.0018937
 13
21.7376537482
 23
80.0018937
  0
SOLID
  8
0
 62
7
  6
CONTINUOUS
 10
22.3851535938
 20
79.9567257317
 11
20.7664037482
 21
79.9115557072
 12
21.7376537482
 22
80.0018937
 13
21.7376537482
 23
80.0018937
  0
SOLID
  8
0
 62
7
  6
CONTINUOUS
 10
20.7664037482
 20
79.9115557072
 11
21.2520287482
 21
80.0018937
 12
21.7376537482
 22
80.0018937
 13
21.7376537482
 23
80.0018937
  0
SOLID
  8
0
 62
7
  6
CONTINUOUS
 10
20.7664037482
 20
79.9115557072
 11
22.3851535938
 21
79.9567257317
 12
20.928279057
 22
79.8663857266
 13
20.928279057
 23
79.8663857266
  0
SOLID
  8
0
 62
7
  6
CONTINUOUS
 10
22.3851535938
 20
79.9567257317
 11
22.1423410938
 21
79.8663857266
 12
20.928279057
 22
79.8663857266
 13
20.928279057
 23
79.8663857266
  0
SOLID
  8
0
 62
7
  6
CONTINUOUS
 10
21.2520287482
 20
79.8212177572
 11
20.928279057
 21
79.8663857266
 12
22.1423410938
 22
79.8663857266
 13
22.1423410938
 23
79.8663857266
  0
SOLID
  8
0
 62
7
  6
CONTINUOUS
 10
22.1423410938
 20
79.8663857266
 11
21.7376537482
 21
79.8212177572
 12
21.2520287482
 22
79.8212177572
 13
21.2520287482
 23
79.8212177572
  0
SOLID
  8
0
 62
7
  6
CONTINUOUS
 10
28.2935917113
 20
80.047063658
 11
27.8079667113
 21
80.0018936097
 12
28.1317164026
 22
80.0922315596
 13
28.1317164026
 23
80.0922315596
  0
SOLID
  8
0
 62
7
  6
CONTINUOUS
 10
28.1317164026
 20
80.0922315596
 11
27.8079667113
 21
80.0018936097
 12
28.0507792113
 22
80.1825694621
 13
28.0507792113
 23
80.1825694621
  0
SOLID
  8
0
 62
7
  6
CONTINUOUS
 10
27.8079667113
 20
80.0018936097
 11
27.6460914026
 21
80.1825694621
 12
28.0507792113
 22
80.1825694621
 13
28.0507792113
 23
80.1825694621
  0
SOLID
  8
0
 62
7
  6
CONTINUOUS
 10
28.2935917113
 20
80.047063658
 11
28.7792167113
 21
80.0018936097
 12
27.8079667113
 22
80.0018936097
 13
27.8079667113
 23
80.0018936097
  0
SOLID
  8
0
 62
7
  6
CONTINUOUS
 10
23.6801542113
 20
79.8212177809
 11
23.6801542113
 21
81.2666309695
 12
24.0848410938
 22
79.8212177809
 13
24.0848410938
 23
81.2666309695
  0
TEXT
  8
0
 62
5
  6
CONTINUOUS
 10
35.4037071698
 20
79.9510761323
  7
TEXTSTYLE_4
 40
1.4918032787
  1
The brand for plastic modular belts and chains
 41
1.0
 72
0
  0
ENDBLK
  8
0
  6
BYBLOCK
 62
0
  0
BLOCK
  8
0
 62
2
  6
CONTINUOUS
  2
AMMEAAL_LOGO_BL0
 70
64
 10
49.5289569145
 20
36.290492329
  0
LINE
  8
0
 62
7
  6
CONTINUOUS
 10
13.9755886502
 20
36.5746189152
 11
15.3762622382
 21
43.164270051
  0
LINE
  8
0
 62
7
  6
CONTINUOUS
 10
33.5475651599
 20
49.7583790919
 11
16.2543341757
 21
44.1394677336
  0
LINE
  8
0
 62
7
  6
CONTINUOUS
 10
14.3810986484
 20
35.3265874697
 11
27.8938341184
 21
23.159665803
  0
LINE
  8
0
 62
7
  6
CONTINUOUS
 10
14.8536605876
 20
37.5498165979
 11
34.3085454449
 21
43.871091876
  0
LINE
  8
0
 62
7
  6
CONTINUOUS
 10
34.3009761981
 20
25.2414724613
 11
19.0991487943
 21
38.9292593363
  0
LINE
  8
0
 62
7
  6
CONTINUOUS
 10
35.2366570937
 20
48.2375138836
 11
33.4788499267
 21
39.9676813592
  0
LINE
  8
0
 62
7
  6
CONTINUOUS
 10
32.2192064208
 20
34.0415245943
 11
30.9835996402
 21
28.2284517304
  0
LINE
  8
0
 62
7
  6
CONTINUOUS
 10
36.4626300711
 20
25.943836381
 11
38.1838468352
 21
34.0415245943
  0
LINE
  8
0
 62
7
  6
CONTINUOUS
 10
39.443490341
 20
39.9676813592
 11
40.2431255853
 21
43.7296694061
  0
LINE
  8
0
 62
7
  6
CONTINUOUS
 10
29.177416054
 20
22.8868320402
 11
35.5845581337
 21
24.9686386984
  0
LINE
  8
0
 62
7
  6
CONTINUOUS
 10
34.8311470955
 20
49.4855453291
 11
39.8376155872
 21
44.9777008516
  0
ARC
  8
0
 62
7
  6
CONTINUOUS
 10
16.6598441738
 20
42.8914362882
 40
1.3122579196
 50
108.0
 51
168.0
  0
ARC
  8
0
 62
7
  6
CONTINUOUS
 10
33.9530751581
 20
48.5103476465
 40
1.3122579196
 50
348.0
 51
108.0
  0
ARC
  8
0
 62
7
  6
CONTINUOUS
 10
38.9595436497
 20
44.0025031689
 40
1.3122579196
 50
348.0
 51
48.0
  0
ARC
  8
0
 62
7
  6
CONTINUOUS
 10
28.7719060558
 20
24.1348634856
 40
1.3122579196
 50
228.0
 51
288.0
  0
ARC
  8
0
 62
7
  6
CONTINUOUS
 10
15.2591705858
 20
36.3017851524
 40
1.3122579196
 50
108.0
 51
228.0
  0
ARC
  8
0
 62
7
  6
CONTINUOUS
 10
35.1790481355
 20
26.2166701439
 40
1.3122579196
 50
228.0
 51
348.0
  0
TEXT
  8
0
 62
5
  6
CONTINUOUS
 10
24.8197618226
 20
35.1947509598
  7
TEXTSTYLE_3
 40
4.9209671985
  1
Ammeraal Beltech
 41
1.0
 51
15.0
 72
0
  0
TEXT
  8
0
 62
5
  6
CONTINUOUS
 10
44.2612033089
 20
31.1023849487
  7
TEXTSTYLE_4
 40
1.9683868794
  1
Innovation 
 41
1.0
 72
0
  0
TEXT
  8
0
 62
5
  6
CONTINUOUS
 10
59.2870573501
 20
31.1023849487
  7
TEXTSTYLE_4
 40
1.9683868794
  1
& Service in Belting
 41
1.0
 72
0
  0
ENDBLK
  8
0
  6
BYBLOCK
 62
0
  0
BLOCK
  8
0
  2
_FILLED
 70
64
 10
0.0
 20
0.0
  0
SOLID
  8
0
  6
BYBLOCK
 62
0
 10
0.0
 20
0.0
 11
-1.0
 21
0.2142857143
 12
-1.0
 22
-0.2142857143
 13
-1.0
 23
-0.2142857143
  0
ENDBLK
  8
0
  6
BYBLOCK
 62
0
  0
BLOCK
  8
0
 62
2
  6
CONTINUOUS
  2
*D0
 70
65
 10
0.0
 20
0.0
  0
TEXT
  8
0
 62
5
  6
CONTINUOUS
 10
73.1056
 20
184.7703125
  7
STANDARD
 40
2.1
  1
+0.9
 41
0.8
 72
1
 11
76.4656
 21
184.7703125
  0
TEXT
  8
0
 62
5
  6
CONTINUOUS
 10
61.9056
 20
182.6703125
  7
STANDARD
 40
3.5
  1
64.8
 41
0.8
 72
1
 11
67.5056
 21
182.6703125
  0
TEXT
  8
0
 62
5
  6
CONTINUOUS
 10
73.1056
 20
181.9703125
  7
STANDARD
 40
2.1
  1
+0.1
 41
0.8
 72
1
 11
76.4656
 21
181.9703125
  0
LINE
  8
0
 62
2
  6
CONTINUOUS
 10
109.81675
 20
222.0489375
 11
109.81675
 21
178.9203125
  0
LINE
  8
0
 62
2
  6
CONTINUOUS
 10
44.98325
 20
222.0489375
 11
44.98325
 21
178.9203125
  0
LINE
  8
0
 62
2
  6
CONTINUOUS
 10
109.81675
 20
180.9203125
 11
77.4
 21
180.9203125
  0
LINE
  8
0
 62
2
  6
CONTINUOUS
 10
44.98325
 20
180.9203125
 11
77.4
 21
180.9203125
  0
INSERT
  8
0
 62
2
  6
CONTINUOUS
  2
_FILLED
 10
109.81675
 20
180.9203125
 41
3.5
 42
3.5
 43
3.5
  0
INSERT
  8
0
 62
2
  6
CONTINUOUS
  2
_FILLED
 10
44.98325
 20
180.9203125
 41
3.5
 42
3.5
 43
3.5
 50
180.0
  0
ENDBLK
  8
0
  6
BYBLOCK
 62
0
  0
BLOCK
  8
0
 62
2
  6
CONTINUOUS
  2
*D1
 70
65
 10
0.0
 20
0.0
  0
TEXT
  8
0
 62
5
  6
CONTINUOUS
 10
20.2521713695
 20
149.7719209154
  7
STANDARD
 40
3.5
  1
18
 50
90.0
 41
0.8
 72
1
 11
20.2521713695
 21
152.5719209154
  0
LINE
  8
0
 62
2
  6
CONTINUOUS
 10
123.8722113318
 20
162.389
 11
19.1271713695
 21
162.389
  0
LINE
  8
0
 62
2
  6
CONTINUOUS
 10
123.8722113318
 20
144.011
 11
19.1271713695
 21
144.011
  0
LINE
  8
0
 62
2
  6
CONTINUOUS
 10
21.1271713695
 20
162.389
 11
21.1271713695
 21
153.2
  0
LINE
  8
0
 62
2
  6
CONTINUOUS
 10
21.1271713695
 20
144.011
 11
21.1271713695
 21
153.2
  0
INSERT
  8
0
 62
2
  6
CONTINUOUS
  2
_FILLED
 10
21.1271713695
 20
162.389
 41
3.5
 42
3.5
 43
3.5
 50
90.0
  0
INSERT
  8
0
 62
2
  6
CONTINUOUS
  2
_FILLED
 10
21.1271713695
 20
144.011
 41
3.5
 42
3.5
 43
3.5
 50
270.0
  0
ENDBLK
  8
0
  6
BYBLOCK
 62
0
  0
BLOCK
  8
0
 62
2
  6
CONTINUOUS
  2
*D2
 70
65
 10
0.0
 20
0.0
  0
TEXT
  8
0
 62
5
  6
CONTINUOUS
 10
103.4422254551
 20
167.5999720402
  7
TEXTSTYLE_1
 40
3.5
  1
n
 50
27.2553283749
 41
1.0
 72
0
  0
TEXT
  8
0
 62
5
  6
CONTINUOUS
 10
107.5907733851
 20
169.737102792
  7
STANDARD
 40
3.5
  1
4.70
 50
27.2553283749
 41
0.8
 72
0
  0
TEXT
  8
0
 62
5
  6
CONTINUOUS
 10
117.5472884171
 20
174.8662165963
  7
STANDARD
 40
3.5
  1
 for M5 pinol
 50
27.2553283749
 41
0.8
 72
0
  0
LINE
  8
0
 62
2
  6
CONTINUOUS
 10
79.4875789515
 20
154.2754194599
 11
77.4
 21
153.2
  0
LINE
  8
0
 62
2
  6
CONTINUOUS
 10
77.4
 20
153.2
 11
150.306674287
 21
190.7579837236
  0
LINE
  8
0
 62
2
  6
CONTINUOUS
 10
75.3124210485
 20
152.1245805401
 11
77.4
 21
153.2
  0
LINE
  8
0
 62
2
  6
CONTINUOUS
 10
77.4
 20
153.2
 11
70.867548267
 21
149.8347975921
  0
INSERT
  8
0
 62
2
  6
CONTINUOUS
  2
_FILLED
 10
79.4875789509
 20
154.2754194595
 41
3.5
 42
3.5
 43
3.5
 50
207.2540198125
  0
INSERT
  8
0
 62
2
  6
CONTINUOUS
  2
_FILLED
 10
75.3124210491
 20
152.1245805405
 41
3.5
 42
3.5
 43
3.5
 50
27.2540198125
  0
ENDBLK
  8
0
  6
BYBLOCK
 62
0
  0
BLOCK
  8
0
 62
2
  6
CONTINUOUS
  2
*D3
 70
65
 10
0.0
 20
0.0
  0
TEXT
  8
0
 62
5
  6
CONTINUOUS
 10
14.4415434353
 20
209.413894248
  7
STANDARD
 40
2.1
  1
 0
 50
90.0
 41
0.8
 72
1
 11
14.4415434353
 21
211.093894248
  0
TEXT
  8
0
 62
5
  6
CONTINUOUS
 10
16.5415434353
 20
198.213894248
  7
STANDARD
 40
3.5
  1
31.8
 50
90.0
 41
0.8
 72
1
 11
16.5415434353
 21
203.813894248
  0
TEXT
  8
0
 62
5
  6
CONTINUOUS
 10
17.2415434353
 20
209.413894248
  7
STANDARD
 40
2.1
  1
-0.3
 50
90.0
 41
0.8
 72
1
 11
17.2415434353
 21
212.773894248
  0
LINE
  8
0
 62
2
  6
CONTINUOUS
 10
27.9066983725
 20
191.2703125
 11
16.2915434353
 21
191.2703125
  0
LINE
  8
0
 62
2
  6
CONTINUOUS
 10
44.4849169528
 20
223.0489375
 11
16.2915434353
 21
223.0489375
  0
LINE
  8
0
 62
2
  6
CONTINUOUS
 10
18.2915434353
 20
191.2703125
 11
18.2915434353
 21
207.159625
  0
LINE
  8
0
 62
2
  6
CONTINUOUS
 10
18.2915434353
 20
223.0489375
 11
18.2915434353
 21
207.159625
  0
INSERT
  8
0
 62
2
  6
CONTINUOUS
  2
_FILLED
 10
18.2915434353
 20
191.2703125
 41
3.5
 42
3.5
 43
3.5
 50
270.0
  0
INSERT
  8
0
 62
2
  6
CONTINUOUS
  2
_FILLED
 10
18.2915434353
 20
223.0489375
 41
3.5
 42
3.5
 43
3.5
 50
90.0
  0
ENDBLK
  8
0
  6
BYBLOCK
 62
0
  0
ENDSEC
  0
SECTION
  2
ENTITIES
  0
TEXT
  8
0
 62
7
  6
CONTINUOUS
 10
4.1388942932
 20
3.9504901274
  7
TEXTSTYLE_2
 40
1.8
  1
This drawing belongs to Ammeraal Beltech. It is not allowed to use, copy or to bring it to the knowledge a third party without the express permission from Ammeraal modular Beltech.
 41
1.0
 72
0
  0
INSERT
  8
0
 62
2
  6
CONTINUOUS
  2
AMMEAAL_LOGO_BL0
 10
49.5289569145
 20
36.290492329
  0
INSERT
  8
0
 62
2
  6
CONTINUOUS
  2
UNI_LOGO2_BL1
 10
47.9221081579
 20
86.7496072713
  0
DIMENSION
  8
0
 62
2
  6
CONTINUOUS
  2
*D0
 10
44.98325
 20
180.9203125
 11
66.3856
 21
184.4203125
 70
128
 13
109.81675
 23
222.0489375
 14
44.98325
 24
222.0489375
 50
180.0
  0
DIMENSION
  8
0
 62
2
  6
CONTINUOUS
  2
*D1
 10
21.1271713695
 20
144.011
 11
19.7567774947
 21
150.0687302573
 70
128
 13
123.8722113318
 23
162.389
 14
123.8722113318
 24
144.011
 50
270.0
  0
DIMENSION
  8
0
 62
2
  6
CONTINUOUS
  2
*D2
 10
79.4875789509
 20
154.2754194595
 11
125.8726698311
 21
181.1236097241
 70
131
 15
75.3124210491
 25
152.1245805405
  0
DIMENSION
  8
0
 62
2
  6
CONTINUOUS
  2
*D3
 10
18.2915434353
 20
223.0489375
 11
16.072531398
 21
203.1687891951
 70
128
 13
27.9066983725
 23
191.2703125
 14
44.4849169528
 24
223.0489375
 50
90.0
  0
LINE
  8
0
 62
2
  6
CONTINUOUS
 10
10.0
 20
79.3144574633
 11
200.0
 21
79.3144574633
  0
LINE
  8
0
 62
2
  6
CONTINUOUS
 10
10.0
 20
79.3144574633
 11
10.0
 21
8.3144574633
  0
LINE
  8
0
 62
2
  6
CONTINUOUS
 10
89.0
 20
74.3144574633
 11
200.0
 21
74.3144574633
  0
LINE
  8
0
 62
2
  6
CONTINUOUS
 10
10.0
 20
69.3144574633
 11
170.0
 21
69.3144574633
  0
LINE
  8
0
 62
2
  6
CONTINUOUS
 10
10.0
 20
64.3144574633
 11
200.0
 21
64.3144574633
  0
LINE
  8
0
 62
2
  6
CONTINUOUS
 10
10.0
 20
59.3144574633
 11
200.0
 21
59.3144574633
  0
LINE
  8
0
 62
2
  6
CONTINUOUS
 10
10.0
 20
54.3144574633
 11
200.0
 21
54.3144574633
  0
LINE
  8
0
 62
2
  6
CONTINUOUS
 10
89.0
 20
44.3144574633
 11
200.0
 21
44.3144574633
  0
LINE
  8
0
 62
2
  6
CONTINUOUS
 10
89.0
 20
27.3144574633
 11
200.0
 21
27.3144574633
  0
LINE
  8
0
 62
2
  6
CONTINUOUS
 10
10.0
 20
8.3144574633
 11
200.0
 21
8.3144574633
  0
LINE
  8
0
 62
2
  6
CONTINUOUS
 10
35.0
 20
79.3144574633
 11
35.0
 21
69.3144574633
  0
LINE
  8
0
 62
2
  6
CONTINUOUS
 10
47.0
 20
69.3144574633
 11
47.0
 21
54.3144574633
  0
LINE
  8
0
 62
2
  6
CONTINUOUS
 10
89.0
 20
79.3144574633
 11
89.0
 21
8.3144574633
  0
LINE
  8
0
 62
2
  6
CONTINUOUS
 10
114.0
 20
79.3144574633
 11
114.0
 21
44.3144574633
  0
LINE
  8
0
 62
2
  6
CONTINUOUS
 10
170.0
 20
79.3144574633
 11
170.0
 21
64.3144574633
  0
LINE
  8
0
 62
2
  6
CONTINUOUS
 10
200.0
 20
79.3144574633
 11
200.0
 21
8.3144574633
  0
TEXT
  8
0
 62
4
  6
CONTINUOUS
 10
11.0
 20
73.0644574633
  7
TEXTSTYLE_5
 40
2.5
  1
Drawing No.
 41
1.0
 72
0
  0
TEXT
  8
0
 62
7
  6
CONTINUOUS
 10
36.0
 20
72.3144574633
  7
TEXTSTYLE_6
 40
4.0
  1
P612
 41
1.0
 72
0
  0
TEXT
  8
0
 62
4
  6
CONTINUOUS
 10
90.0
 20
75.5644574633
  7
TEXTSTYLE_6
 40
2.5
  1
Material
 41
1.0
 72
0
  0
TEXT
  8
0
 62
4
  6
CONTINUOUS
 10
115.0
 20
75.5644574633
  7
TEXTSTYLE_5
 40
2.5
  1
PA6 12.5-15% glas,blå
 41
1.0
 72
0
  0
TEXT
  8
0
 62
4
  6
CONTINUOUS
 10
181.1211832061
 20
75.5644574633
  7
TEXTSTYLE_5
 40
2.5
  1
Scale
 41
1.0
 72
1
 11
185.0
 21
75.5644574633
  0
TEXT
  8
0
 62
4
  6
CONTINUOUS
 10
90.0
 20
70.5644574633
  7
TEXTSTYLE_6
 40
2.5
  1
Shrinkage
 41
1.0
 72
0
  0
TEXT
  8
0
 62
4
  6
CONTINUOUS
 10
115.0
 20
70.5644574633
  7
TEXTSTYLE_5
 40
2.5
  1
2.1%
 41
1.0
 72
0
  0
TEXT
  8
0
 62
4
  6
CONTINUOUS
 10
182.0114503817
 20
65.5644574633
  7
TEXTSTYLE_5
 40
3.0
  1
1:1
 41
1.0
 72
1
 11
185.0
 21
65.5644574633
  0
TEXT
  8
0
 62
4
  6
CONTINUOUS
 10
11.0
 20
65.5644574633
  7
TEXTSTYLE_5
 40
2.5
  1
Designer
 41
1.0
 72
0
  0
TEXT
  8
0
 62
4
  6
CONTINUOUS
 10
48.0
 20
65.5644574633
  7
TEXTSTYLE_5
 40
2.5
  1
MD
 41
1.0
 72
0
  0
TEXT
  8
0
 62
4
  6
CONTINUOUS
 10
90.0
 20
65.5644574633
  7
TEXTSTYLE_7
 40
2.5
  1
Proj. surf. Area
 41
1.0
 72
0
  0
TEXT
  8
0
 62
4
  6
CONTINUOUS
 10
115.0
 20
65.5644574633
  7
TEXTSTYLE_5
 40
2.5
  1
1724.5mm²
 41
1.0
 72
0
  0
TEXT
  8
0
 62
4
  6
CONTINUOUS
 10
11.0
 20
60.5644574633
  7
TEXTSTYLE_5
 40
2.5
  1
Date
 41
1.0
 72
0
  0
TEXT
  8
0
 62
4
  6
CONTINUOUS
 10
48.0
 20
60.5644574633
  7
TEXTSTYLE_5
 40
2.5
  1
26-maj-05
 41
1.0
 72
0
  0
TEXT
  8
0
 62
4
  6
CONTINUOUS
 10
90.0
 20
60.5644574633
  7
TEXTSTYLE_6
 40
2.5
  1
Tool No.
 41
1.0
 72
0
  0
TEXT
  8
0
 62
4
  6
CONTINUOUS
 10
115.0
 20
60.5644574633
  7
TEXTSTYLE_5
 40
2.5
  1
180250
 41
1.0
 72
0
  0
TEXT
  8
0
 62
4
  6
CONTINUOUS
 10
11.0
 20
55.5644574633
  7
TEXTSTYLE_5
 40
2.5
  1
Part Name
 41
1.0
 72
0
  0
TEXT
  8
0
 62
4
  6
CONTINUOUS
 10
48.0
 20
55.5644574633
  7
TEXTSTYLE_5
 40
2.5
  1
P612
 41
1.0
 72
0
  0
TEXT
  8
0
 62
4
  6
CONTINUOUS
 10
55.7767175573
 20
55.5644574633
  7
TEXTSTYLE_5
 40
2.5
  1
.
 41
1.0
 72
0
  0
TEXT
  8
0
 62
4
  6
CONTINUOUS
 10
56.7690839695
 20
55.5644574633
  7
TEXTSTYLE_5
 40
2.5
  1
PART
 41
1.0
 72
0
  0
TEXT
  8
0
 62
4
  6
CONTINUOUS
 10
90.0
 20
55.5644574633
  7
TEXTSTYLE_8
 40
2.5
  1
Finish Top Surf.
 41
1.0
 72
0
  0
TEXT
  8
0
 62
4
  6
CONTINUOUS
 10
115.0
 20
55.5644574633
  7
TEXTSTYLE_5
 40
2.5
  1
AGIE 1040
 41
1.0
 72
0
  0
TEXT
  8
0
 62
4
  6
CONTINUOUS
 10
90.0
 20
50.5644574633
  7
TEXTSTYLE_5
 40
2.5
  1
Project No.
 41
1.0
 72
0
  0
TEXT
  8
0
 62
7
  6
CONTINUOUS
 10
115.0
 20
47.3144574633
  7
TEXTSTYLE_5
 40
4.0
  1
200014
 41
1.0
 72
0
  0
TEXT
  8
0
 62
4
  6
CONTINUOUS
 10
90.0
 20
40.5644574633
  7
TEXTSTYLE_5
 40
2.5
  1
Project
 41
1.0
 72
0
  0
TEXT
  8
0
 62
7
  6
CONTINUOUS
 10
90.0
 20
31.5644574633
  7
TEXTSTYLE_5
 40
4.5
  1
uni RETAINER RINGS
 41
1.0
 72
0
  0
TEXT
  8
0
 62
4
  6
CONTINUOUS
 10
90.0
 20
23.5644574633
  7
TEXTSTYLE_5
 40
2.5
  1
Name
 41
1.0
 72
0
  0
TEXT
  8
0
 62
7
  6
CONTINUOUS
 10
90.0
 20
13.5644574633
  7
TEXTSTYLE_5
 40
4.5
  1
RR SQ2.5"
 41
1.0
 72
0
  0
TEXT
  8
0
 62
5
  6
CONTINUOUS
 10
11.0
 20
17.4075574633
  7
TEXTSTYLE_9
 40
1.607
  1
Ammeraal Beltech             Hjulmagervej 21             	tel: +45 7572 3100
 41
1.0
 72
0
  0
TEXT
  8
0
 62
5
  6
CONTINUOUS
 10
11.0
 20
14.8324574633
  7
TEXTSTYLE_9
 40
1.61
  1
Modular A/S                       DK-Vejle                          fax: +45 7572 3348
 41
1.0
 72
0
  0
TEXT
  8
0
 62
5
  6
CONTINUOUS
 10
11.0
 20
12.2044574633
  7
TEXTSTYLE_9
 40
1.6
  1
                                                                                
 41
1.0
 72
0
  0
TEXT
  8
0
 62
5
  6
CONTINUOUS
 10
61.8091603053
 20
12.2044574633
  7
TEXTSTYLE_9
 40
1.65
  1
     admin@unichains.dk
 41
1.0
 72
0
  0
TEXT
  8
0
 62
5
  6
CONTINUOUS
 10
11.0
 20
9.5644574633
  7
TEXTSTYLE_9
 40
1.6
  1
                                                                                
 41
1.0
 72
0
  0
TEXT
  8
0
 62
5
  6
CONTINUOUS
 10
61.8091603053
 20
9.5644574633
  7
TEXTSTYLE_9
 40
1.65
  1
     www.unichains.com
 41
1.0
 72
0
  0
LINE
  8
0
 62
2
  6
CONTINUOUS
 10
114.0
 20
104.3144573777
 11
200.0
 21
104.3144573777
  0
LINE
  8
0
 62
2
  6
CONTINUOUS
 10
114.0
 20
104.3144573777
 11
114.0
 21
79.3144573777
  0
LINE
  8
0
 62
2
  6
CONTINUOUS
 10
114.0
 20
99.3144573777
 11
200.0
 21
99.3144573777
  0
LINE
  8
0
 62
2
  6
CONTINUOUS
 10
114.0
 20
94.3144573777
 11
200.0
 21
94.3144573777
  0
LINE
  8
0
 62
2
  6
CONTINUOUS
 10
114.0
 20
89.3144573777
 11
200.0
 21
89.3144573777
  0
LINE
  8
0
 62
2
  6
CONTINUOUS
 10
114.0
 20
84.3144573777
 11
200.0
 21
84.3144573777
  0
LINE
  8
0
 62
2
  6
CONTINUOUS
 10
114.0
 20
79.3144573777
 11
200.0
 21
79.3144573777
  0
LINE
  8
0
 62
2
  6
CONTINUOUS
 10
122.0
 20
104.3144573777
 11
122.0
 21
79.3144573777
  0
LINE
  8
0
 62
2
  6
CONTINUOUS
 10
176.0
 20
104.3144573777
 11
176.0
 21
79.3144573777
  0
LINE
  8
0
 62
2
  6
CONTINUOUS
 10
188.0
 20
104.3144573777
 11
188.0
 21
79.3144573777
  0
LINE
  8
0
 62
2
  6
CONTINUOUS
 10
200.0
 20
104.3144573777
 11
200.0
 21
79.3144573777
  0
TEXT
  8
0
 62
4
  6
CONTINUOUS
 10
116.5687022901
 20
100.3144573777
  7
TEXTSTYLE_5
 40
3.0
  1
D
 41
1.0
 72
1
 11
118.0
 21
100.3144573777
  0
TEXT
  8
0
 62
4
  6
CONTINUOUS
 10
116.5687022901
 20
95.3144573777
  7
TEXTSTYLE_5
 40
3.0
  1
C
 41
1.0
 72
1
 11
118.0
 21
95.3144573777
  0
TEXT
  8
0
 62
4
  6
CONTINUOUS
 10
116.8034351145
 20
90.3144573777
  7
TEXTSTYLE_5
 40
3.0
  1
B
 41
1.0
 72
1
 11
118.0
 21
90.3144573777
  0
TEXT
  8
0
 62
4
  6
CONTINUOUS
 10
116.5687022901
 20
85.3144573777
  7
TEXTSTYLE_5
 40
3.0
  1
A
 41
1.0
 72
1
 11
118.0
 21
85.3144573777
  0
TEXT
  8
0
 62
4
  6
CONTINUOUS
 10
123.36
 20
85.3144573777
  7
TEXTSTYLE_8
 40
3.0
  1
Forspænd 0.2 til 0.6mm
 41
1.0
 72
0
  0
TEXT
  8
0
 62
4
  6
CONTINUOUS
 10
178.0377862595
 20
86.1144573777
  7
TEXTSTYLE_10
 40
1.4
  1
11/10-02
 41
1.0
 72
1
 11
182.0
 21
86.1144573777
  0
TEXT
  8
0
 62
4
  6
CONTINUOUS
 10
192.4423664122
 20
86.1144573777
  7
TEXTSTYLE_11
 40
1.4
  1
MD
 41
1.0
 72
1
 11
194.0
 21
86.1144573777
  0
TEXT
  8
0
 62
4
  6
CONTINUOUS
 10
114.7767175573
 20
80.3144573777
  7
TEXTSTYLE_8
 40
3.0
  1
Rev
 41
1.0
 72
1
 11
118.0
 21
80.3144573777
  0
TEXT
  8
0
 62
4
  6
CONTINUOUS
 10
123.36
 20
80.3144573777
  7
TEXTSTYLE_8
 40
3.0
  1
Modification
 41
1.0
 72
0
  0
TEXT
  8
0
 62
4
  6
CONTINUOUS
 10
177.7003816794
 20
80.3144573777
  7
TEXTSTYLE_8
 40
3.0
  1
Date
 41
1.0
 72
1
 11
182.0
 21
80.3144573777
  0
TEXT
  8
0
 62
4
  6
CONTINUOUS
 10
190.5419847328
 20
80.3144573777
  7
TEXTSTYLE_8
 40
3.0
  1
Init.
 41
1.0
 72
1
 11
194.0
 21
80.3144573777
  0
TEXT
  8
NOTES
 62
5
  6
CONTINUOUS
 10
14.1136931102
 20
111.7835409073
  7
STANDARD
 40
3.5
  1
M5x12 DIN 912 18/8
 41
0.8
 72
0
  0
TEXT
  8
NOTES
 62
5
  6
CONTINUOUS
 10
14.1136931102
 20
106.5335409073
  7
STANDARD
 40
3.5
  1
møtrik M5 DIN 934 18/8
 41
0.8
 72
0
  0
TEXT
  8
NOTES
 62
5
  6
CONTINUOUS
 10
14.1136931102
 20
101.2835409073
  7
STANDARD
 40
3.5
  1
pinol M5x8 DIN 914-18/8
 41
0.8
 72
0
  0
INSERT
  8
NOTES
 62
2
  6
CONTINUOUS
  2
BALLOON_BL2
 10
15.9538349973
 20
186.8810509984
  0
LINE
  8
0
 62
7
  6
CONTINUOUS
 10
0.0
 20
0.0
 11
210.0
 21
0.0
  0
LINE
  8
0
 62
7
  6
CONTINUOUS
 10
0.0
 20
0.0
 11
0.0
 21
297.0
  0
LINE
  8
0
 62
7
  6
CONTINUOUS
 10
10.0
 20
10.0
 11
10.0
 21
287.0
  0
LINE
  8
0
 62
7
  6
CONTINUOUS
 10
200.0
 20
10.0
 11
200.0
 21
287.0
  0
LINE
  8
0
 62
7
  6
CONTINUOUS
 10
210.0
 20
0.0
 11
210.0
 21
297.0
  0
LINE
  8
0
 62
7
  6
CONTINUOUS
 10
10.0
 20
287.0
 11
200.0
 21
287.0
  0
LINE
  8
0
 62
7
  6
CONTINUOUS
 10
0.0
 20
297.0
 11
210.0
 21
297.0
  0
LINE
  8
0
 62
9
  6
CONTINUOUS
 10
29.3508612172
 20
225.0237664474
 11
28.9066983725
 21
191.2703125
  0
LINE
  8
0
 62
9
  6
CONTINUOUS
 10
29.8613170238
 20
225.0170493421
 11
29.4172425697
 21
191.2703125
  0
LINE
  8
0
 62
7
  6
CONTINUOUS
 10
33.497
 20
195.3543125
 11
33.497
 21
211.2364127281
  0
LINE
  8
0
 62
7
  6
CONTINUOUS
 10
37.581
 20
195.3543125
 11
37.581
 21
218.3171065942
  0
LINE
  8
0
 62
7
  6
CONTINUOUS
 10
41.665
 20
195.3543125
 11
41.665
 21
223.419643657
  0
LINE
  8
0
 62
9
  6
CONTINUOUS
 10
43.6436238022
 20
238.6191875
 11
43.6436238022
 21
239.1296875
  0
LINE
  8
0
 62
7
  6
CONTINUOUS
 10
44.4285520373
 20
191.2703125
 11
44.9744947044
 21
222.5473469535
  0
LINE
  8
0
 62
7
  6
CONTINUOUS
 10
125.8933016275
 20
191.2703125
 11
110.3714479627
 21
191.2703125
  0
LINE
  8
0
 62
7
  6
CONTINUOUS
 10
44.4285520373
 20
191.2703125
 11
28.9066983725
 21
191.2703125
  0
LINE
  8
0
 62
7
  6
CONTINUOUS
 10
121.8135
 20
195.3543125
 11
112.6245
 21
195.3543125
  0
LINE
  8
0
 62
7
  6
CONTINUOUS
 10
41.665
 20
195.3543125
 11
33.497
 21
195.3543125
  0
LINE
  8
0
 62
9
  6
CONTINUOUS
 10
124.9386829762
 20
225.0170493421
 11
125.4491387828
 21
225.0237664474
  0
LINE
  8
0
 62
7
  6
CONTINUOUS
 10
109.3150830472
 20
223.0489375
 11
45.4849169528
 21
223.0489375
  0
LINE
  8
0
 62
9
  6
CONTINUOUS
 10
29.8613170238
 20
225.0170493421
 11
29.3508612172
 21
225.0237664474
  0
LINE
  8
0
 62
7
  6
CONTINUOUS
 10
75.0517
 20
237.1897875
 11
79.7483
 21
237.1897875
  0
LINE
  8
0
 62
7
  6
CONTINUOUS
 10
65.3085836127
 20
237.5981875
 11
89.4914163873
 21
237.5981875
  0
LINE
  8
0
 62
9
  6
CONTINUOUS
 10
111.1563761978
 20
238.6191875
 11
43.6436238022
 21
238.6191875
  0
LINE
  8
0
 62
9
  6
CONTINUOUS
 10
111.1563761978
 20
239.1296875
 11
43.6436238022
 21
239.1296875
  0
LINE
  8
0
 62
7
  6
CONTINUOUS
 10
110.3714479627
 20
191.2703125
 11
109.8255052956
 21
222.5473469535
  0
LINE
  8
0
 62
9
  6
CONTINUOUS
 10
111.1563761978
 20
238.6191875
 11
111.1563761978
 21
239.1296875
  0
LINE
  8
0
 62
9
  6
CONTINUOUS
 10
124.9386829762
 20
225.0170493421
 11
125.3827574303
 21
191.2703125
  0
LINE
  8
0
 62
9
  6
CONTINUOUS
 10
125.4491387828
 20
225.0237664474
 11
125.8933016275
 21
191.2703125
  0
POLYLINE
  8
0
 62
7
  6
CONTINUOUS
 66
1
 70
0
  0
VERTEX
  8
0
 62
7
  6
CONTINUOUS
 10
28.9066983725
 20
254.273161219
  0
VERTEX
  8
0
 62
7
  6
CONTINUOUS
 10
28.9165071906
 20
254.173573368
  0
VERTEX
  8
0
 62
7
  6
CONTINUOUS
 10
28.9455564238
 20
254.0778129425
  0
VERTEX
  8
0
 62
7
  6
CONTINUOUS
 10
28.9927337719
 20
253.9895528095
  0
VERTEX
  8
0
 62
7
  6
CONTINUOUS
 10
29.0562248699
 20
253.9121916425
  0
VERTEX
  8
0
 62
7
  6
CONTINUOUS
 10
29.1335909491
 20
253.8487016357
  0
VERTEX
  8
0
 62
7
  6
CONTINUOUS
 10
29.2218618139
 20
253.8015223536
  0
VERTEX
  8
0
 62
7
  6
CONTINUOUS
 10
29.3176366323
 20
253.7724710704
  0
VERTEX
  8
0
 62
7
  6
CONTINUOUS
 10
29.4172425697
 20
253.762661219
  0
SEQEND
  0
LINE
  8
0
 62
7
  6
CONTINUOUS
 10
28.9066983725
 20
254.273161219
 11
28.9066983725
 21
271.630161219
  0
LINE
  8
0
 62
9
  6
CONTINUOUS
 10
29.3508612172
 20
271.630161219
 11
29.3508612172
 21
270.609161219
  0
LINE
  8
0
 62
9
  6
CONTINUOUS
 10
29.3508612172
 20
254.273161219
 11
29.3508612172
 21
255.294161219
  0
LINE
  8
0
 62
7
  6
CONTINUOUS
 10
33.497
 20
265.3095597183
 11
33.497
 21
260.5937627196
  0
POLYLINE
  8
0
 62
7
  6
CONTINUOUS
 66
1
 70
0
  0
VERTEX
  8
0
 62
7
  6
CONTINUOUS
 10
28.9066983725
 20
270.609161219
  0
VERTEX
  8
0
 62
7
  6
CONTINUOUS
 10
28.9940841674
 20
270.3755726412
  0
VERTEX
  8
0
 62
7
  6
CONTINUOUS
 10
29.1948578908
 20
270.1849049984
  0
VERTEX
  8
0
 62
7
  6
CONTINUOUS
 10
29.5094991091
 20
270.098661219
  0
SEQEND
  0
LINE
  8
0
 62
7
  6
CONTINUOUS
 10
41.665
 20
260.5937627196
 11
41.665
 21
265.3095597183
  0
LINE
  8
0
 62
9
  6
CONTINUOUS
 10
43.6436238022
 20
253.762661219
 11
43.6436238022
 21
255.804661219
  0
LINE
  8
0
 62
9
  6
CONTINUOUS
 10
43.6436238022
 20
270.098661219
 11
43.6436238022
 21
272.140661219
  0
LINE
  8
0
 62
7
  6
CONTINUOUS
 10
44.4285520373
 20
253.762661219
 11
44.4285520373
 21
272.140661219
  0
LINE
  8
0
 62
9
  6
CONTINUOUS
 10
44.9744947044
 20
272.140661219
 11
44.9744947044
 21
253.762661219
  0
LINE
  8
0
 62
9
  6
CONTINUOUS
 10
45.4849169528
 20
272.140661219
 11
45.4849169528
 21
253.762661219
  0
LINE
  8
0
 62
7
  6
CONTINUOUS
 10
37.581
 20
267.6674582177
 11
33.497
 21
265.3095597183
  0
LINE
  8
0
 62
7
  6
CONTINUOUS
 10
33.497
 20
260.5937627196
 11
37.581
 21
258.2358642202
  0
LINE
  8
0
 62
7
  6
CONTINUOUS
 10
41.665
 20
260.5937627196
 11
37.581
 21
258.2358642202
  0
POLYLINE
  8
0
 62
7
  6
CONTINUOUS
 66
1
 70
0
  0
VERTEX
  8
0
 62
7
  6
CONTINUOUS
 10
125.3827574303
 20
253.762661219
  0
VERTEX
  8
0
 62
7
  6
CONTINUOUS
 10
125.4823633677
 20
253.7724710704
  0
VERTEX
  8
0
 62
7
  6
CONTINUOUS
 10
125.5781381861
 20
253.8015223536
  0
VERTEX
  8
0
 62
7
  6
CONTINUOUS
 10
125.6664090509
 20
253.8487016357
  0
VERTEX
  8
0
 62
7
  6
CONTINUOUS
 10
125.7437751301
 20
253.9121916425
  0
VERTEX
  8
0
 62
7
  6
CONTINUOUS
 10
125.8072662281
 20
253.9895528095
  0
VERTEX
  8
0
 62
7
  6
CONTINUOUS
 10
125.8544435762
 20
254.0778129425
  0
VERTEX
  8
0
 62
7
  6
CONTINUOUS
 10
125.8834928094
 20
254.173573368
  0
VERTEX
  8
0
 62
7
  6
CONTINUOUS
 10
125.8933016275
 20
254.273161219
  0
SEQEND
  0
POLYLINE
  8
0
 62
9
  6
CONTINUOUS
 66
1
 70
0
  0
VERTEX
  8
0
 62
9
  6
CONTINUOUS
 10
124.9386829762
 20
253.762661219
  0
VERTEX
  8
0
 62
9
  6
CONTINUOUS
 10
125.0378310286
 20
253.7723836122
  0
VERTEX
  8
0
 62
9
  6
CONTINUOUS
 10
125.1332025625
 20
253.8011804688
  0
VERTEX
  8
0
 62
9
  6
CONTINUOUS
 10
125.2211649058
 20
253.8479549256
  0
VERTEX
  8
0
 62
9
  6
CONTINUOUS
 10
125.2996297385
 20
253.9121832072
  0
VERTEX
  8
0
 62
9
  6
CONTINUOUS
 10
125.3628638237
 20
253.9891723072
  0
VERTEX
  8
0
 62
9
  6
CONTINUOUS
 10
125.4099409922
 20
254.0769784567
  0
VERTEX
  8
0
 62
9
  6
CONTINUOUS
 10
125.4390680893
 20
254.1722571467
  0
VERTEX
  8
0
 62
9
  6
CONTINUOUS
 10
125.4491387828
 20
254.2731612413
  0
SEQEND
  0
POLYLINE
  8
0
 62
9
  6
CONTINUOUS
 66
1
 70
0
  0
VERTEX
  8
0
 62
9
  6
CONTINUOUS
 10
29.8613170238
 20
253.762661219
  0
VERTEX
  8
0
 62
9
  6
CONTINUOUS
 10
29.7621689714
 20
253.7723836122
  0
VERTEX
  8
0
 62
9
  6
CONTINUOUS
 10
29.6667974375
 20
253.8011804688
  0
VERTEX
  8
0
 62
9
  6
CONTINUOUS
 10
29.5788350942
 20
253.8479549256
  0
VERTEX
  8
0
 62
9
  6
CONTINUOUS
 10
29.5003702615
 20
253.9121832072
  0
VERTEX
  8
0
 62
9
  6
CONTINUOUS
 10
29.4371361763
 20
253.9891723072
  0
VERTEX
  8
0
 62
9
  6
CONTINUOUS
 10
29.3900590078
 20
254.0769784567
  0
VERTEX
  8
0
 62
9
  6
CONTINUOUS
 10
29.3609319107
 20
254.1722571467
  0
VERTEX
  8
0
 62
9
  6
CONTINUOUS
 10
29.3508612172
 20
254.2731612413
  0
SEQEND
  0
LINE
  8
0
 62
7
  6
CONTINUOUS
 10
41.665
 20
265.3095597183
 11
37.581
 21
267.6674582177
  0
LINE
  8
0
 62
7
  6
CONTINUOUS
 10
65.3085836127
 20
255.804661219
 11
65.3085836127
 21
270.098661219
  0
LINE
  8
0
 62
7
  6
CONTINUOUS
 10
29.4172425697
 20
253.762661219
 11
125.3827574303
 21
253.762661219
  0
LINE
  8
0
 62
9
  6
CONTINUOUS
 10
28.9066983725
 20
254.273161219
 11
125.8933016275
 21
254.273161219
  0
LINE
  8
0
 62
9
  6
CONTINUOUS
 10
125.8933016275
 20
255.294161219
 11
28.9066983725
 21
255.294161219
  0
LINE
  8
0
 62
7
  6
CONTINUOUS
 10
29.5094963424
 20
255.804661219
 11
125.2905039652
 21
255.804661219
  0
POLYLINE
  8
0
 62
7
  6
CONTINUOUS
 66
1
 70
0
  0
VERTEX
  8
0
 62
7
  6
CONTINUOUS
 10
125.2905008909
 20
270.098661219
  0
VERTEX
  8
0
 62
7
  6
CONTINUOUS
 10
125.6051421092
 20
270.1849049984
  0
VERTEX
  8
0
 62
7
  6
CONTINUOUS
 10
125.8059158326
 20
270.3755726412
  0
VERTEX
  8
0
 62
7
  6
CONTINUOUS
 10
125.8933016275
 20
270.609161219
  0
SEQEND
  0
POLYLINE
  8
0
 62
9
  6
CONTINUOUS
 66
1
 70
0
  0
VERTEX
  8
0
 62
9
  6
CONTINUOUS
 10
29.8613170238
 20
255.804661219
  0
VERTEX
  8
0
 62
9
  6
CONTINUOUS
 10
29.7621689714
 20
255.7949388258
  0
VERTEX
  8
0
 62
9
  6
CONTINUOUS
 10
29.6667974375
 20
255.7661419691
  0
VERTEX
  8
0
 62
9
  6
CONTINUOUS
 10
29.5788350942
 20
255.7193675123
  0
VERTEX
  8
0
 62
9
  6
CONTINUOUS
 10
29.5003702615
 20
255.6551392308
  0
VERTEX
  8
0
 62
9
  6
CONTINUOUS
 10
29.4371361763
 20
255.5781501307
  0
VERTEX
  8
0
 62
9
  6
CONTINUOUS
 10
29.3900590078
 20
255.4903439812
  0
VERTEX
  8
0
 62
9
  6
CONTINUOUS
 10
29.3609319107
 20
255.3950652912
  0
VERTEX
  8
0
 62
9
  6
CONTINUOUS
 10
29.3508612172
 20
255.2941611966
  0
SEQEND
  0
POLYLINE
  8
0
 62
9
  6
CONTINUOUS
 66
1
 70
0
  0
VERTEX
  8
0
 62
9
  6
CONTINUOUS
 10
124.9386829762
 20
255.804661219
  0
VERTEX
  8
0
 62
9
  6
CONTINUOUS
 10
125.0378310286
 20
255.7949388258
  0
VERTEX
  8
0
 62
9
  6
CONTINUOUS
 10
125.1332025625
 20
255.7661419691
  0
VERTEX
  8
0
 62
9
  6
CONTINUOUS
 10
125.2211649058
 20
255.7193675123
  0
VERTEX
  8
0
 62
9
  6
CONTINUOUS
 10
125.2996297385
 20
255.6551392308
  0
VERTEX
  8
0
 62
9
  6
CONTINUOUS
 10
125.3628638237
 20
255.5781501307
  0
VERTEX
  8
0
 62
9
  6
CONTINUOUS
 10
125.4099409922
 20
255.4903439812
  0
VERTEX
  8
0
 62
9
  6
CONTINUOUS
 10
125.4390680893
 20
255.3950652912
  0
VERTEX
  8
0
 62
9
  6
CONTINUOUS
 10
125.4491387828
 20
255.2941611966
  0
SEQEND
  0
POLYLINE
  8
0
 62
9
  6
CONTINUOUS
 66
1
 70
0
  0
VERTEX
  8
0
 62
9
  6
CONTINUOUS
 10
124.9386829762
 20
270.098661219
  0
VERTEX
  8
0
 62
9
  6
CONTINUOUS
 10
125.0378310286
 20
270.1083836122
  0
VERTEX
  8
0
 62
9
  6
CONTINUOUS
 10
125.1332025625
 20
270.1371804688
  0
VERTEX
  8
0
 62
9
  6
CONTINUOUS
 10
125.2211649058
 20
270.1839549256
  0
VERTEX
  8
0
 62
9
  6
CONTINUOUS
 10
125.2996297385
 20
270.2481832072
  0
VERTEX
  8
0
 62
9
  6
CONTINUOUS
 10
125.3628638237
 20
270.3251723072
  0
VERTEX
  8
0
 62
9
  6
CONTINUOUS
 10
125.4099409922
 20
270.4129784567
  0
VERTEX
  8
0
 62
9
  6
CONTINUOUS
 10
125.4390680893
 20
270.5082571467
  0
VERTEX
  8
0
 62
9
  6
CONTINUOUS
 10
125.4491387828
 20
270.6091612413
  0
SEQEND
  0
POLYLINE
  8
0
 62
9
  6
CONTINUOUS
 66
1
 70
0
  0
VERTEX
  8
0
 62
9
  6
CONTINUOUS
 10
29.8613170238
 20
270.098661219
  0
VERTEX
  8
0
 62
9
  6
CONTINUOUS
 10
29.7621689714
 20
270.1083836122
  0
VERTEX
  8
0
 62
9
  6
CONTINUOUS
 10
29.6667974375
 20
270.1371804688
  0
VERTEX
  8
0
 62
9
  6
CONTINUOUS
 10
29.5788350942
 20
270.1839549256
  0
VERTEX
  8
0
 62
9
  6
CONTINUOUS
 10
29.5003702615
 20
270.2481832072
  0
VERTEX
  8
0
 62
9
  6
CONTINUOUS
 10
29.4371361763
 20
270.3251723072
  0
VERTEX
  8
0
 62
9
  6
CONTINUOUS
 10
29.3900590078
 20
270.4129784567
  0
VERTEX
  8
0
 62
9
  6
CONTINUOUS
 10
29.3609319107
 20
270.5082571467
  0
VERTEX
  8
0
 62
9
  6
CONTINUOUS
 10
29.3508612172
 20
270.6091612413
  0
SEQEND
  0
POLYLINE
  8
0
 62
7
  6
CONTINUOUS
 66
1
 70
0
  0
VERTEX
  8
0
 62
7
  6
CONTINUOUS
 10
29.5094991091
 20
255.804661219
  0
VERTEX
  8
0
 62
7
  6
CONTINUOUS
 10
29.1948578908
 20
255.7184174395
  0
VERTEX
  8
0
 62
7
  6
CONTINUOUS
 10
28.9940841674
 20
255.5277497967
  0
VERTEX
  8
0
 62
7
  6
CONTINUOUS
 10
28.9066983725
 20
255.294161219
  0
SEQEND
  0
LINE
  8
0
 62
7
  6
CONTINUOUS
 10
29.5094957448
 20
270.098661219
 11
125.2905039652
 21
270.098661219
  0
LINE
  8
0
 62
9
  6
CONTINUOUS
 10
28.9066983725
 20
270.609161219
 11
125.8933016275
 21
270.609161219
  0
LINE
  8
0
 62
9
  6
CONTINUOUS
 10
125.8933016275
 20
271.630161219
 11
28.9066983725
 21
271.630161219
  0
LINE
  8
0
 62
7
  6
CONTINUOUS
 10
29.4172425697
 20
272.140661219
 11
125.3827574303
 21
272.140661219
  0
LINE
  8
0
 62
7
  6
CONTINUOUS
 10
89.4914163873
 20
255.804661219
 11
89.4914163873
 21
270.098661219
  0
POLYLINE
  8
0
 62
7
  6
CONTINUOUS
 66
1
 70
0
  0
VERTEX
  8
0
 62
7
  6
CONTINUOUS
 10
29.4172425697
 20
272.140661219
  0
VERTEX
  8
0
 62
7
  6
CONTINUOUS
 10
29.3176366323
 20
272.1308513676
  0
VERTEX
  8
0
 62
7
  6
CONTINUOUS
 10
29.2218618139
 20
272.1018000843
  0
VERTEX
  8
0
 62
7
  6
CONTINUOUS
 10
29.1335909491
 20
272.0546208023
  0
VERTEX
  8
0
 62
7
  6
CONTINUOUS
 10
29.0562248699
 20
271.9911307954
  0
VERTEX
  8
0
 62
7
  6
CONTINUOUS
 10
28.9927337719
 20
271.9137696284
  0
VERTEX
  8
0
 62
7
  6
CONTINUOUS
 10
28.9455564238
 20
271.8255094954
  0
VERTEX
  8
0
 62
7
  6
CONTINUOUS
 10
28.9165071906
 20
271.72974907
  0
VERTEX
  8
0
 62
7
  6
CONTINUOUS
 10
28.9066983725
 20
271.630161219
  0
SEQEND
  0
POLYLINE
  8
0
 62
9
  6
CONTINUOUS
 66
1
 70
0
  0
VERTEX
  8
0
 62
9
  6
CONTINUOUS
 10
29.8613170238
 20
272.140661219
  0
VERTEX
  8
0
 62
9
  6
CONTINUOUS
 10
29.7621689714
 20
272.1309388258
  0
VERTEX
  8
0
 62
9
  6
CONTINUOUS
 10
29.6667974375
 20
272.1021419691
  0
VERTEX
  8
0
 62
9
  6
CONTINUOUS
 10
29.5788350942
 20
272.0553675123
  0
VERTEX
  8
0
 62
9
  6
CONTINUOUS
 10
29.5003702615
 20
271.9911392308
  0
VERTEX
  8
0
 62
9
  6
CONTINUOUS
 10
29.4371361763
 20
271.9141501307
  0
VERTEX
  8
0
 62
9
  6
CONTINUOUS
 10
29.3900590078
 20
271.8263439812
  0
VERTEX
  8
0
 62
9
  6
CONTINUOUS
 10
29.3609319107
 20
271.7310652912
  0
VERTEX
  8
0
 62
9
  6
CONTINUOUS
 10
29.3508612172
 20
271.6301611966
  0
SEQEND
  0
POLYLINE
  8
0
 62
9
  6
CONTINUOUS
 66
1
 70
0
  0
VERTEX
  8
0
 62
9
  6
CONTINUOUS
 10
124.9386829762
 20
272.140661219
  0
VERTEX
  8
0
 62
9
  6
CONTINUOUS
 10
125.0378310286
 20
272.1309388258
  0
VERTEX
  8
0
 62
9
  6
CONTINUOUS
 10
125.1332025625
 20
272.1021419691
  0
VERTEX
  8
0
 62
9
  6
CONTINUOUS
 10
125.2211649058
 20
272.0553675123
  0
VERTEX
  8
0
 62
9
  6
CONTINUOUS
 10
125.2996297385
 20
271.9911392308
  0
VERTEX
  8
0
 62
9
  6
CONTINUOUS
 10
125.3628638237
 20
271.9141501307
  0
VERTEX
  8
0
 62
9
  6
CONTINUOUS
 10
125.4099409922
 20
271.8263439812
  0
VERTEX
  8
0
 62
9
  6
CONTINUOUS
 10
125.4390680893
 20
271.7310652912
  0
VERTEX
  8
0
 62
9
  6
CONTINUOUS
 10
125.4491387828
 20
271.6301611966
  0
SEQEND
  0
LINE
  8
0
 62
9
  6
CONTINUOUS
 10
109.3150830472
 20
272.140661219
 11
109.3150830472
 21
253.762661219
  0
LINE
  8
0
 62
9
  6
CONTINUOUS
 10
109.8255052956
 20
272.140661219
 11
109.8255052956
 21
253.762661219
  0
LINE
  8
0
 62
7
  6
CONTINUOUS
 10
110.3714479627
 20
253.762661219
 11
110.3714479627
 21
272.140661219
  0
LINE
  8
0
 62
9
  6
CONTINUOUS
 10
111.1563761978
 20
253.762661219
 11
111.1563761978
 21
255.804661219
  0
LINE
  8
0
 62
9
  6
CONTINUOUS
 10
111.1563761978
 20
270.098661219
 11
111.1563761978
 21
272.140661219
  0
POLYLINE
  8
0
 62
7
  6
CONTINUOUS
 66
1
 70
0
  0
VERTEX
  8
0
 62
7
  6
CONTINUOUS
 10
125.8933016275
 20
255.294161219
  0
VERTEX
  8
0
 62
7
  6
CONTINUOUS
 10
125.8059158326
 20
255.5277497967
  0
VERTEX
  8
0
 62
7
  6
CONTINUOUS
 10
125.6051421092
 20
255.7184174395
  0
VERTEX
  8
0
 62
7
  6
CONTINUOUS
 10
125.2905008909
 20
255.804661219
  0
SEQEND
  0
POLYLINE
  8
0
 62
7
  6
CONTINUOUS
 66
1
 70
0
  0
VERTEX
  8
0
 62
7
  6
CONTINUOUS
 10
125.8933016275
 20
271.630161219
  0
VERTEX
  8
0
 62
7
  6
CONTINUOUS
 10
125.8834928094
 20
271.72974907
  0
VERTEX
  8
0
 62
7
  6
CONTINUOUS
 10
125.8544435762
 20
271.8255094954
  0
VERTEX
  8
0
 62
7
  6
CONTINUOUS
 10
125.8072662281
 20
271.9137696284
  0
VERTEX
  8
0
 62
7
  6
CONTINUOUS
 10
125.7437751301
 20
271.9911307954
  0
VERTEX
  8
0
 62
7
  6
CONTINUOUS
 10
125.6664090509
 20
272.0546208023
  0
VERTEX
  8
0
 62
7
  6
CONTINUOUS
 10
125.5781381861
 20
272.1018000843
  0
VERTEX
  8
0
 62
7
  6
CONTINUOUS
 10
125.4823633677
 20
272.1308513676
  0
VERTEX
  8
0
 62
7
  6
CONTINUOUS
 10
125.3827574303
 20
272.140661219
  0
SEQEND
  0
LINE
  8
0
 62
9
  6
CONTINUOUS
 10
125.4491387828
 20
271.630161219
 11
125.4491387828
 21
270.609161219
  0
LINE
  8
0
 62
9
  6
CONTINUOUS
 10
125.4491387828
 20
254.273161219
 11
125.4491387828
 21
255.294161219
  0
LINE
  8
0
 62
7
  6
CONTINUOUS
 10
125.8933016275
 20
254.273161219
 11
125.8933016275
 21
271.630161219
  0
POLYLINE
  8
0
 62
7
  6
CONTINUOUS
 66
1
 70
0
  0
VERTEX
  8
0
 62
7
  6
CONTINUOUS
 10
28.9066983725
 20
161.8785
  0
VERTEX
  8
0
 62
7
  6
CONTINUOUS
 10
28.9165071906
 20
161.978087851
  0
VERTEX
  8
0
 62
7
  6
CONTINUOUS
 10
28.9455564238
 20
162.0738482764
  0
VERTEX
  8
0
 62
7
  6
CONTINUOUS
 10
28.9927337719
 20
162.1621084095
  0
VERTEX
  8
0
 62
7
  6
CONTINUOUS
 10
29.0562248699
 20
162.2394695765
  0
VERTEX
  8
0
 62
7
  6
CONTINUOUS
 10
29.1335909491
 20
162.3029595833
  0
VERTEX
  8
0
 62
7
  6
CONTINUOUS
 10
29.2218618139
 20
162.3501388653
  0
VERTEX
  8
0
 62
7
  6
CONTINUOUS
 10
29.3176366323
 20
162.3791901486
  0
VERTEX
  8
0
 62
7
  6
CONTINUOUS
 10
29.4172425697
 20
162.389
  0
SEQEND
  0
LINE
  8
0
 62
7
  6
CONTINUOUS
 10
28.9066983725
 20
144.5215
 11
28.9066983725
 21
161.8785
  0
LINE
  8
0
 62
9
  6
CONTINUOUS
 10
29.3508612172
 20
161.8785
 11
29.3508612172
 21
160.8575
  0
LINE
  8
0
 62
9
  6
CONTINUOUS
 10
29.3508612172
 20
144.5215
 11
29.3508612172
 21
145.5425
  0
LINE
  8
0
 62
7
  6
CONTINUOUS
 10
33.497
 20
155.5578984994
 11
33.497
 21
150.8421015006
  0
POLYLINE
  8
0
 62
7
  6
CONTINUOUS
 66
1
 70
0
  0
VERTEX
  8
0
 62
7
  6
CONTINUOUS
 10
28.9066983725
 20
145.5425
  0
VERTEX
  8
0
 62
7
  6
CONTINUOUS
 10
28.9940841674
 20
145.7760885778
  0
VERTEX
  8
0
 62
7
  6
CONTINUOUS
 10
29.1948578908
 20
145.9667562205
  0
VERTEX
  8
0
 62
7
  6
CONTINUOUS
 10
29.5094991091
 20
146.053
  0
SEQEND
  0
LINE
  8
0
 62
7
  6
CONTINUOUS
 10
41.665
 20
155.5578984994
 11
41.665
 21
150.8421015006
  0
LINE
  8
0
 62
9
  6
CONTINUOUS
 10
43.6436238022
 20
144.011
 11
43.6436238022
 21
146.053
  0
LINE
  8
0
 62
9
  6
CONTINUOUS
 10
43.6436238022
 20
160.347
 11
43.6436238022
 21
162.389
  0
LINE
  8
0
 62
7
  6
CONTINUOUS
 10
44.4285520373
 20
162.389
 11
44.4285520373
 21
144.011
  0
LINE
  8
0
 62
9
  6
CONTINUOUS
 10
44.9744947044
 20
144.011
 11
44.9744947044
 21
162.389
  0
LINE
  8
0
 62
9
  6
CONTINUOUS
 10
45.4849169528
 20
144.011
 11
45.4849169528
 21
162.389
  0
LINE
  8
0
 62
7
  6
CONTINUOUS
 10
37.581
 20
157.9157969987
 11
33.497
 21
155.5578984994
  0
LINE
  8
0
 62
7
  6
CONTINUOUS
 10
37.581
 20
148.4842030013
 11
33.497
 21
150.8421015006
  0
LINE
  8
0
 62
7
  6
CONTINUOUS
 10
41.665
 20
150.8421015006
 11
37.581
 21
148.4842030013
  0
POLYLINE
  8
0
 62
9
  6
CONTINUOUS
 66
1
 70
0
  0
VERTEX
  8
0
 62
9
  6
CONTINUOUS
 10
124.9386829762
 20
144.011
  0
VERTEX
  8
0
 62
9
  6
CONTINUOUS
 10
125.0378310286
 20
144.0207223932
  0
VERTEX
  8
0
 62
9
  6
CONTINUOUS
 10
125.1332025625
 20
144.0495192498
  0
VERTEX
  8
0
 62
9
  6
CONTINUOUS
 10
125.2211649058
 20
144.0962937066
  0
VERTEX
  8
0
 62
9
  6
CONTINUOUS
 10
125.2996297385
 20
144.1605219882
  0
VERTEX
  8
0
 62
9
  6
CONTINUOUS
 10
125.3628638237
 20
144.2375110883
  0
VERTEX
  8
0
 62
9
  6
CONTINUOUS
 10
125.4099409922
 20
144.3253172378
  0
VERTEX
  8
0
 62
9
  6
CONTINUOUS
 10
125.4390680893
 20
144.4205959277
  0
VERTEX
  8
0
 62
9
  6
CONTINUOUS
 10
125.4491387828
 20
144.5215000223
  0
SEQEND
  0
POLYLINE
  8
0
 62
9
  6
CONTINUOUS
 66
1
 70
0
  0
VERTEX
  8
0
 62
9
  6
CONTINUOUS
 10
29.8613170238
 20
144.011
  0
VERTEX
  8
0
 62
9
  6
CONTINUOUS
 10
29.7621689714
 20
144.0207223932
  0
VERTEX
  8
0
 62
9
  6
CONTINUOUS
 10
29.6667974375
 20
144.0495192498
  0
VERTEX
  8
0
 62
9
  6
CONTINUOUS
 10
29.5788350942
 20
144.0962937066
  0
VERTEX
  8
0
 62
9
  6
CONTINUOUS
 10
29.5003702615
 20
144.1605219882
  0
VERTEX
  8
0
 62
9
  6
CONTINUOUS
 10
29.4371361763
 20
144.2375110883
  0
VERTEX
  8
0
 62
9
  6
CONTINUOUS
 10
29.3900590078
 20
144.3253172378
  0
VERTEX
  8
0
 62
9
  6
CONTINUOUS
 10
29.3609319107
 20
144.4205959277
  0
VERTEX
  8
0
 62
9
  6
CONTINUOUS
 10
29.3508612172
 20
144.5215000223
  0
SEQEND
  0
POLYLINE
  8
0
 62
7
  6
CONTINUOUS
 66
1
 70
0
  0
VERTEX
  8
0
 62
7
  6
CONTINUOUS
 10
29.4172425697
 20
144.011
  0
VERTEX
  8
0
 62
7
  6
CONTINUOUS
 10
29.3176366323
 20
144.0208098514
  0
VERTEX
  8
0
 62
7
  6
CONTINUOUS
 10
29.2218618139
 20
144.0498611347
  0
VERTEX
  8
0
 62
7
  6
CONTINUOUS
 10
29.1335909491
 20
144.0970404167
  0
VERTEX
  8
0
 62
7
  6
CONTINUOUS
 10
29.0562248699
 20
144.1605304235
  0
VERTEX
  8
0
 62
7
  6
CONTINUOUS
 10
28.9927337719
 20
144.2378915905
  0
VERTEX
  8
0
 62
7
  6
CONTINUOUS
 10
28.9455564238
 20
144.3261517236
  0
VERTEX
  8
0
 62
7
  6
CONTINUOUS
 10
28.9165071906
 20
144.421912149
  0
VERTEX
  8
0
 62
7
  6
CONTINUOUS
 10
28.9066983725
 20
144.5215
  0
SEQEND
  0
LINE
  8
0
 62
7
  6
CONTINUOUS
 10
41.665
 20
155.5578984994
 11
37.581
 21
157.9157969987
  0
LINE
  8
0
 62
7
  6
CONTINUOUS
 10
65.3085836127
 20
160.347
 11
65.3085836127
 21
146.053
  0
LINE
  8
0
 62
7
  6
CONTINUOUS
 10
29.4172425697
 20
144.011
 11
125.3827574303
 21
144.011
  0
LINE
  8
0
 62
9
  6
CONTINUOUS
 10
125.8933016275
 20
144.5215
 11
28.9066983725
 21
144.5215
  0
LINE
  8
0
 62
9
  6
CONTINUOUS
 10
28.9066983725
 20
145.5425
 11
125.8933016275
 21
145.5425
  0
LINE
  8
0
 62
7
  6
CONTINUOUS
 10
29.5094957448
 20
146.053
 11
125.2905039652
 21
146.053
  0
POLYLINE
  8
0
 62
7
  6
CONTINUOUS
 66
1
 70
0
  0
VERTEX
  8
0
 62
7
  6
CONTINUOUS
 10
29.5094991091
 20
160.347
  0
VERTEX
  8
0
 62
7
  6
CONTINUOUS
 10
29.1948578908
 20
160.4332437795
  0
VERTEX
  8
0
 62
7
  6
CONTINUOUS
 10
28.9940841674
 20
160.6239114222
  0
VERTEX
  8
0
 62
7
  6
CONTINUOUS
 10
28.9066983725
 20
160.8575
  0
SEQEND
  0
POLYLINE
  8
0
 62
9
  6
CONTINUOUS
 66
1
 70
0
  0
VERTEX
  8
0
 62
9
  6
CONTINUOUS
 10
29.8613170238
 20
146.053
  0
VERTEX
  8
0
 62
9
  6
CONTINUOUS
 10
29.7621689714
 20
146.0432776068
  0
VERTEX
  8
0
 62
9
  6
CONTINUOUS
 10
29.6667974375
 20
146.0144807502
  0
VERTEX
  8
0
 62
9
  6
CONTINUOUS
 10
29.5788350942
 20
145.9677062934
  0
VERTEX
  8
0
 62
9
  6
CONTINUOUS
 10
29.5003702615
 20
145.9034780118
  0
VERTEX
  8
0
 62
9
  6
CONTINUOUS
 10
29.4371361763
 20
145.8264889117
  0
VERTEX
  8
0
 62
9
  6
CONTINUOUS
 10
29.3900590078
 20
145.7386827622
  0
VERTEX
  8
0
 62
9
  6
CONTINUOUS
 10
29.3609319107
 20
145.6434040723
  0
VERTEX
  8
0
 62
9
  6
CONTINUOUS
 10
29.3508612172
 20
145.5424999777
  0
SEQEND
  0
POLYLINE
  8
0
 62
9
  6
CONTINUOUS
 66
1
 70
0
  0
VERTEX
  8
0
 62
9
  6
CONTINUOUS
 10
124.9386829762
 20
146.053
  0
VERTEX
  8
0
 62
9
  6
CONTINUOUS
 10
125.0378310286
 20
146.0432776068
  0
VERTEX
  8
0
 62
9
  6
CONTINUOUS
 10
125.1332025625
 20
146.0144807502
  0
VERTEX
  8
0
 62
9
  6
CONTINUOUS
 10
125.2211649058
 20
145.9677062934
  0
VERTEX
  8
0
 62
9
  6
CONTINUOUS
 10
125.2996297385
 20
145.9034780118
  0
VERTEX
  8
0
 62
9
  6
CONTINUOUS
 10
125.3628638237
 20
145.8264889117
  0
VERTEX
  8
0
 62
9
  6
CONTINUOUS
 10
125.4099409922
 20
145.7386827622
  0
VERTEX
  8
0
 62
9
  6
CONTINUOUS
 10
125.4390680893
 20
145.6434040723
  0
VERTEX
  8
0
 62
9
  6
CONTINUOUS
 10
125.4491387828
 20
145.5424999777
  0
SEQEND
  0
POLYLINE
  8
0
 62
9
  6
CONTINUOUS
 66
1
 70
0
  0
VERTEX
  8
0
 62
9
  6
CONTINUOUS
 10
124.9386829762
 20
160.347
  0
VERTEX
  8
0
 62
9
  6
CONTINUOUS
 10
125.0378310286
 20
160.3567223932
  0
VERTEX
  8
0
 62
9
  6
CONTINUOUS
 10
125.1332025625
 20
160.3855192498
  0
VERTEX
  8
0
 62
9
  6
CONTINUOUS
 10
125.2211649058
 20
160.4322937066
  0
VERTEX
  8
0
 62
9
  6
CONTINUOUS
 10
125.2996297385
 20
160.4965219882
  0
VERTEX
  8
0
 62
9
  6
CONTINUOUS
 10
125.3628638237
 20
160.5735110883
  0
VERTEX
  8
0
 62
9
  6
CONTINUOUS
 10
125.4099409922
 20
160.6613172378
  0
VERTEX
  8
0
 62
9
  6
CONTINUOUS
 10
125.4390680893
 20
160.7565959277
  0
VERTEX
  8
0
 62
9
  6
CONTINUOUS
 10
125.4491387828
 20
160.8575000223
  0
SEQEND
  0
POLYLINE
  8
0
 62
9
  6
CONTINUOUS
 66
1
 70
0
  0
VERTEX
  8
0
 62
9
  6
CONTINUOUS
 10
29.8613170238
 20
160.347
  0
VERTEX
  8
0
 62
9
  6
CONTINUOUS
 10
29.7621689714
 20
160.3567223932
  0
VERTEX
  8
0
 62
9
  6
CONTINUOUS
 10
29.6667974375
 20
160.3855192498
  0
VERTEX
  8
0
 62
9
  6
CONTINUOUS
 10
29.5788350942
 20
160.4322937066
  0
VERTEX
  8
0
 62
9
  6
CONTINUOUS
 10
29.5003702615
 20
160.4965219882
  0
VERTEX
  8
0
 62
9
  6
CONTINUOUS
 10
29.4371361763
 20
160.5735110883
  0
VERTEX
  8
0
 62
9
  6
CONTINUOUS
 10
29.3900590078
 20
160.6613172378
  0
VERTEX
  8
0
 62
9
  6
CONTINUOUS
 10
29.3609319107
 20
160.7565959277
  0
VERTEX
  8
0
 62
9
  6
CONTINUOUS
 10
29.3508612172
 20
160.8575000223
  0
SEQEND
  0
POLYLINE
  8
0
 62
7
  6
CONTINUOUS
 66
1
 70
0
  0
VERTEX
  8
0
 62
7
  6
CONTINUOUS
 10
125.2905008909
 20
146.053
  0
VERTEX
  8
0
 62
7
  6
CONTINUOUS
 10
125.6051421092
 20
145.9667562205
  0
VERTEX
  8
0
 62
7
  6
CONTINUOUS
 10
125.8059158326
 20
145.7760885778
  0
VERTEX
  8
0
 62
7
  6
CONTINUOUS
 10
125.8933016275
 20
145.5425
  0
SEQEND
  0
LINE
  8
0
 62
7
  6
CONTINUOUS
 10
29.5094963424
 20
160.347
 11
125.2905039652
 21
160.347
  0
LINE
  8
0
 62
9
  6
CONTINUOUS
 10
125.8933016275
 20
160.8575
 11
28.9066983725
 21
160.8575
  0
LINE
  8
0
 62
9
  6
CONTINUOUS
 10
28.9066983725
 20
161.8785
 11
125.8933016275
 21
161.8785
  0
LINE
  8
0
 62
7
  6
CONTINUOUS
 10
29.4172425697
 20
162.389
 11
125.3827574303
 21
162.389
  0
LINE
  8
0
 62
7
  6
CONTINUOUS
 10
89.4914163873
 20
160.347
 11
89.4914163873
 21
146.053
  0
POLYLINE
  8
0
 62
9
  6
CONTINUOUS
 66
1
 70
0
  0
VERTEX
  8
0
 62
9
  6
CONTINUOUS
 10
29.8613170238
 20
162.389
  0
VERTEX
  8
0
 62
9
  6
CONTINUOUS
 10
29.7621689714
 20
162.3792776068
  0
VERTEX
  8
0
 62
9
  6
CONTINUOUS
 10
29.6667974375
 20
162.3504807502
  0
VERTEX
  8
0
 62
9
  6
CONTINUOUS
 10
29.5788350942
 20
162.3037062934
  0
VERTEX
  8
0
 62
9
  6
CONTINUOUS
 10
29.5003702615
 20
162.2394780118
  0
VERTEX
  8
0
 62
9
  6
CONTINUOUS
 10
29.4371361763
 20
162.1624889117
  0
VERTEX
  8
0
 62
9
  6
CONTINUOUS
 10
29.3900590078
 20
162.0746827622
  0
VERTEX
  8
0
 62
9
  6
CONTINUOUS
 10
29.3609319107
 20
161.9794040723
  0
VERTEX
  8
0
 62
9
  6
CONTINUOUS
 10
29.3508612172
 20
161.8784999777
  0
SEQEND
  0
POLYLINE
  8
0
 62
9
  6
CONTINUOUS
 66
1
 70
0
  0
VERTEX
  8
0
 62
9
  6
CONTINUOUS
 10
124.9386829762
 20
162.389
  0
VERTEX
  8
0
 62
9
  6
CONTINUOUS
 10
125.0378310286
 20
162.3792776068
  0
VERTEX
  8
0
 62
9
  6
CONTINUOUS
 10
125.1332025625
 20
162.3504807502
  0
VERTEX
  8
0
 62
9
  6
CONTINUOUS
 10
125.2211649058
 20
162.3037062934
  0
VERTEX
  8
0
 62
9
  6
CONTINUOUS
 10
125.2996297385
 20
162.2394780118
  0
VERTEX
  8
0
 62
9
  6
CONTINUOUS
 10
125.3628638237
 20
162.1624889117
  0
VERTEX
  8
0
 62
9
  6
CONTINUOUS
 10
125.4099409922
 20
162.0746827622
  0
VERTEX
  8
0
 62
9
  6
CONTINUOUS
 10
125.4390680893
 20
161.9794040723
  0
VERTEX
  8
0
 62
9
  6
CONTINUOUS
 10
125.4491387828
 20
161.8784999777
  0
SEQEND
  0
POLYLINE
  8
0
 62
7
  6
CONTINUOUS
 66
1
 70
0
  0
VERTEX
  8
0
 62
7
  6
CONTINUOUS
 10
125.3827574303
 20
162.389
  0
VERTEX
  8
0
 62
7
  6
CONTINUOUS
 10
125.4823633677
 20
162.3791901486
  0
VERTEX
  8
0
 62
7
  6
CONTINUOUS
 10
125.5781381861
 20
162.3501388653
  0
VERTEX
  8
0
 62
7
  6
CONTINUOUS
 10
125.6664090509
 20
162.3029595833
  0
VERTEX
  8
0
 62
7
  6
CONTINUOUS
 10
125.7437751301
 20
162.2394695765
  0
VERTEX
  8
0
 62
7
  6
CONTINUOUS
 10
125.8072662281
 20
162.1621084095
  0
VERTEX
  8
0
 62
7
  6
CONTINUOUS
 10
125.8544435762
 20
162.0738482764
  0
VERTEX
  8
0
 62
7
  6
CONTINUOUS
 10
125.8834928094
 20
161.978087851
  0
VERTEX
  8
0
 62
7
  6
CONTINUOUS
 10
125.8933016275
 20
161.8785
  0
SEQEND
  0
LINE
  8
0
 62
9
  6
CONTINUOUS
 10
109.3150830472
 20
144.011
 11
109.3150830472
 21
162.389
  0
LINE
  8
0
 62
9
  6
CONTINUOUS
 10
109.8255052956
 20
144.011
 11
109.8255052956
 21
162.389
  0
LINE
  8
0
 62
7
  6
CONTINUOUS
 10
110.3714479627
 20
162.389
 11
110.3714479627
 21
144.011
  0
LINE
  8
0
 62
9
  6
CONTINUOUS
 10
111.1563761978
 20
144.011
 11
111.1563761978
 21
146.053
  0
LINE
  8
0
 62
9
  6
CONTINUOUS
 10
111.1563761978
 20
160.347
 11
111.1563761978
 21
162.389
  0
POLYLINE
  8
0
 62
7
  6
CONTINUOUS
 66
1
 70
0
  0
VERTEX
  8
0
 62
7
  6
CONTINUOUS
 10
125.8933016275
 20
160.8575
  0
VERTEX
  8
0
 62
7
  6
CONTINUOUS
 10
125.8059158326
 20
160.6239114222
  0
VERTEX
  8
0
 62
7
  6
CONTINUOUS
 10
125.6051421092
 20
160.4332437795
  0
VERTEX
  8
0
 62
7
  6
CONTINUOUS
 10
125.2905008909
 20
160.347
  0
SEQEND
  0
LINE
  8
0
 62
9
  6
CONTINUOUS
 10
125.4491387828
 20
161.8785
 11
125.4491387828
 21
160.8575
  0
LINE
  8
0
 62
9
  6
CONTINUOUS
 10
125.4491387828
 20
144.5215
 11
125.4491387828
 21
145.5425
  0
LINE
  8
0
 62
7
  6
CONTINUOUS
 10
125.8933016275
 20
144.5215
 11
125.8933016275
 21
161.8785
  0
POLYLINE
  8
0
 62
7
  6
CONTINUOUS
 66
1
 70
0
  0
VERTEX
  8
0
 62
7
  6
CONTINUOUS
 10
125.8933016275
 20
144.5215
  0
VERTEX
  8
0
 62
7
  6
CONTINUOUS
 10
125.8834928094
 20
144.421912149
  0
VERTEX
  8
0
 62
7
  6
CONTINUOUS
 10
125.8544435762
 20
144.3261517236
  0
VERTEX
  8
0
 62
7
  6
CONTINUOUS
 10
125.8072662281
 20
144.2378915905
  0
VERTEX
  8
0
 62
7
  6
CONTINUOUS
 10
125.7437751301
 20
144.1605304235
  0
VERTEX
  8
0
 62
7
  6
CONTINUOUS
 10
125.6664090509
 20
144.0970404167
  0
VERTEX
  8
0
 62
7
  6
CONTINUOUS
 10
125.5781381861
 20
144.0498611347
  0
VERTEX
  8
0
 62
7
  6
CONTINUOUS
 10
125.4823633677
 20
144.0208098514
  0
VERTEX
  8
0
 62
7
  6
CONTINUOUS
 10
125.3827574303
 20
144.011
  0
SEQEND
  0
LINE
  8
0
 62
7
  6
CONTINUOUS
 10
140.4329670912
 20
196.6081827202
 11
154.2815280663
 21
192.8725091069
  0
POLYLINE
  8
0
 62
7
  6
CONTINUOUS
 66
1
 70
0
  0
VERTEX
  8
0
 62
7
  6
CONTINUOUS
 10
140.4329670912
 20
196.6081827202
  0
VERTEX
  8
0
 62
7
  6
CONTINUOUS
 10
140.3585050283
 20
196.6368790468
  0
VERTEX
  8
0
 62
7
  6
CONTINUOUS
 10
140.296896021
 20
196.6789972282
  0
VERTEX
  8
0
 62
7
  6
CONTINUOUS
 10
140.2505040226
 20
196.7329232211
  0
VERTEX
  8
0
 62
7
  6
CONTINUOUS
 10
140.235975016
 20
196.7587170545
  0
SEQEND
  0
POLYLINE
  8
0
 62
9
  6
CONTINUOUS
 66
1
 70
0
  0
VERTEX
  8
0
 62
9
  6
CONTINUOUS
 10
129.5766345652
 20
218.5800583573
  0
VERTEX
  8
0
 62
9
  6
CONTINUOUS
 10
129.6224233343
 20
218.5151362501
  0
VERTEX
  8
0
 62
9
  6
CONTINUOUS
 10
129.6891256492
 20
218.4642773465
  0
VERTEX
  8
0
 62
9
  6
CONTINUOUS
 10
129.7731882843
 20
218.4304597962
  0
SEQEND
  0
LINE
  8
0
 62
7
  6
CONTINUOUS
 10
140.2359445986
 20
196.7587409358
 11
129.5766345652
 21
218.5800583573
  0
LINE
  8
0
 62
9
  6
CONTINUOUS
 10
140.4329670912
 20
196.6081827202
 11
129.7731882843
 21
218.4304597962
  0
LINE
  8
0
 62
9
  6
CONTINUOUS
 10
130.5878095181
 20
218.2107142895
 11
141.247588325
 21
196.3884372135
  0
LINE
  8
0
 62
9
  6
CONTINUOUS
 10
131.2572653406
 20
218.4745060396
 11
139.7007989664
 21
201.1892383413
  0
POLYLINE
  8
0
 62
9
  6
CONTINUOUS
 66
1
 70
0
  0
VERTEX
  8
0
 62
9
  6
CONTINUOUS
 10
129.7731882843
 20
218.4304597962
  0
VERTEX
  8
0
 62
9
  6
CONTINUOUS
 10
129.391072645
 20
219.3195688807
  0
VERTEX
  8
0
 62
9
  6
CONTINUOUS
 10
129.0737954249
 20
220.2886252307
  0
VERTEX
  8
0
 62
9
  6
CONTINUOUS
 10
128.823849473
 20
221.3299456467
  0
VERTEX
  8
0
 62
9
  6
CONTINUOUS
 10
128.6432870241
 20
222.4354137396
  0
VERTEX
  8
0
 62
9
  6
CONTINUOUS
 10
128.5337659563
 20
223.595834075
  0
VERTEX
  8
0
 62
9
  6
CONTINUOUS
 10
128.4963439091
 20
224.8007848391
  0
VERTEX
  8
0
 62
9
  6
CONTINUOUS
 10
128.5312941996
 20
226.0393712312
  0
VERTEX
  8
0
 62
9
  6
CONTINUOUS
 10
128.6381743582
 20
227.3009777583
  0
VERTEX
  8
0
 62
9
  6
CONTINUOUS
 10
128.816036357
 20
228.5756201005
  0
VERTEX
  8
0
 62
9
  6
CONTINUOUS
 10
129.0634772165
 20
229.8532384956
  0
VERTEX
  8
0
 62
9
  6
CONTINUOUS
 10
129.3786440737
 20
231.1237396961
  0
VERTEX
  8
0
 62
9
  6
CONTINUOUS
 10
129.7589803901
 20
232.3762572411
  0
VERTEX
  8
0
 62
9
  6
CONTINUOUS
 10
130.2011115873
 20
233.5994770838
  0
VERTEX
  8
0
 62
9
  6
CONTINUOUS
 10
130.7009910106
 20
234.7824021358
  0
VERTEX
  8
0
 62
9
  6
CONTINUOUS
 10
131.2543038238
 20
235.9151669359
  0
VERTEX
  8
0
 62
9
  6
CONTINUOUS
 10
131.8566330201
 20
236.9889220325
  0
VERTEX
  8
0
 62
9
  6
CONTINUOUS
 10
132.5032250718
 20
237.9951544173
  0
SEQEND
  0
POLYLINE
  8
0
 62
7
  6
CONTINUOUS
 66
1
 70
0
  0
VERTEX
  8
0
 62
7
  6
CONTINUOUS
 10
143.3585144495
 20
209.7587461679
  0
VERTEX
  8
0
 62
7
  6
CONTINUOUS
 10
143.1312623741
 20
209.8385518
  0
VERTEX
  8
0
 62
7
  6
CONTINUOUS
 10
142.8846809402
 20
209.9657133568
  0
VERTEX
  8
0
 62
7
  6
CONTINUOUS
 10
142.6252403824
 20
210.1433051047
  0
VERTEX
  8
0
 62
7
  6
CONTINUOUS
 10
142.3578535952
 20
210.3720390603
  0
VERTEX
  8
0
 62
7
  6
CONTINUOUS
 10
142.0829695918
 20
210.6550040927
  0
VERTEX
  8
0
 62
7
  6
CONTINUOUS
 10
141.8049701992
 20
210.9909682126
  0
VERTEX
  8
0
 62
7
  6
CONTINUOUS
 10
141.5244680586
 20
211.3825535809
  0
VERTEX
  8
0
 62
7
  6
CONTINUOUS
 10
141.2403337918
 20
211.8368210443
  0
VERTEX
  8
0
 62
7
  6
CONTINUOUS
 10
140.9306642552
 20
212.405732238
  0
SEQEND
  0
POLYLINE
  8
0
 62
7
  6
CONTINUOUS
 66
1
 70
0
  0
VERTEX
  8
0
 62
7
  6
CONTINUOUS
 10
139.7007927456
 20
201.1892510764
  0
VERTEX
  8
0
 62
7
  6
CONTINUOUS
 10
140.223803293
 20
199.4899565264
  0
VERTEX
  8
0
 62
7
  6
CONTINUOUS
 10
140.7234792667
 20
197.8935188401
  0
VERTEX
  8
0
 62
7
  6
CONTINUOUS
 10
141.247588325
 20
196.3884372135
  0
SEQEND
  0
POLYLINE
  8
0
 62
9
  6
CONTINUOUS
 66
1
 70
0
  0
VERTEX
  8
0
 62
9
  6
CONTINUOUS
 10
166.6320039791
 20
287.9458858792
  0
VERTEX
  8
0
 62
9
  6
CONTINUOUS
 10
166.6699248012
 20
287.9792222887
  0
VERTEX
  8
0
 62
9
  6
CONTINUOUS
 10
166.7275381193
 20
287.9971182999
  0
VERTEX
  8
0
 62
9
  6
CONTINUOUS
 10
166.8014515422
 20
287.9979375005
  0
VERTEX
  8
0
 62
9
  6
CONTINUOUS
 10
166.8879587403
 20
287.981638809
  0
SEQEND
  0
LINE
  8
0
 62
9
  6
CONTINUOUS
 10
143.6217492593
 20
214.6947861829
 11
142.8071280255
 21
214.9145316896
  0
LINE
  8
0
 62
9
  6
CONTINUOUS
 10
129.7731882843
 20
218.4304597962
 11
130.5878095181
 21
218.2107142895
  0
POLYLINE
  8
0
 62
9
  6
CONTINUOUS
 66
1
 70
0
  0
VERTEX
  8
0
 62
9
  6
CONTINUOUS
 10
142.6105743064
 20
215.0641302507
  0
VERTEX
  8
0
 62
9
  6
CONTINUOUS
 10
142.6563630755
 20
214.9992081435
  0
VERTEX
  8
0
 62
9
  6
CONTINUOUS
 10
142.7230653905
 20
214.9483492398
  0
VERTEX
  8
0
 62
9
  6
CONTINUOUS
 10
142.8071280255
 20
214.9145316896
  0
SEQEND
  0
POLYLINE
  8
0
 62
7
  6
CONTINUOUS
 66
1
 70
0
  0
VERTEX
  8
0
 62
7
  6
CONTINUOUS
 10
153.4669068324
 20
193.0922546136
  0
VERTEX
  8
0
 62
7
  6
CONTINUOUS
 10
152.5700529839
 20
194.6978848011
  0
VERTEX
  8
0
 62
7
  6
CONTINUOUS
 10
152.2443730233
 20
195.3422205971
  0
SEQEND
  0
LINE
  8
0
 62
7
  6
CONTINUOUS
 10
152.2435157984
 20
195.343953866
 11
142.6105743064
 21
215.0641302507
  0
LINE
  8
0
 62
9
  6
CONTINUOUS
 10
153.4669068324
 20
193.0922546136
 11
142.8071280255
 21
214.9145316896
  0
POLYLINE
  8
0
 62
7
  6
CONTINUOUS
 66
1
 70
0
  0
VERTEX
  8
0
 62
7
  6
CONTINUOUS
 10
140.9306642552
 20
212.405732238
  0
VERTEX
  8
0
 62
7
  6
CONTINUOUS
 10
140.668758956
 20
212.956891445
  0
VERTEX
  8
0
 62
7
  6
CONTINUOUS
 10
140.3903278566
 20
213.6306074789
  0
VERTEX
  8
0
 62
7
  6
CONTINUOUS
 10
140.122295796
 20
214.3934553818
  0
VERTEX
  8
0
 62
7
  6
CONTINUOUS
 10
139.8730359819
 20
215.2545662023
  0
VERTEX
  8
0
 62
7
  6
CONTINUOUS
 10
139.6555020502
 20
216.2196058723
  0
VERTEX
  8
0
 62
7
  6
CONTINUOUS
 10
139.4889105043
 20
217.2788397933
  0
VERTEX
  8
0
 62
7
  6
CONTINUOUS
 10
139.3958185178
 20
218.3869580818
  0
VERTEX
  8
0
 62
7
  6
CONTINUOUS
 10
139.3901125784
 20
219.4922342306
  0
VERTEX
  8
0
 62
7
  6
CONTINUOUS
 10
139.4749407574
 20
220.5503074563
  0
VERTEX
  8
0
 62
7
  6
CONTINUOUS
 10
139.6429274389
 20
221.5197317661
  0
VERTEX
  8
0
 62
7
  6
CONTINUOUS
 10
139.8753513034
 20
222.3642674373
  0
VERTEX
  8
0
 62
7
  6
CONTINUOUS
 10
140.1531272172
 20
223.0804414132
  0
VERTEX
  8
0
 62
7
  6
CONTINUOUS
 10
140.461056234
 20
223.6775012891
  0
VERTEX
  8
0
 62
7
  6
CONTINUOUS
 10
140.7887697762
 20
224.1690667469
  0
VERTEX
  8
0
 62
7
  6
CONTINUOUS
 10
141.1338127058
 20
224.5724155528
  0
VERTEX
  8
0
 62
7
  6
CONTINUOUS
 10
141.4900036603
 20
224.8935075157
  0
VERTEX
  8
0
 62
7
  6
CONTINUOUS
 10
141.6184112205
 20
224.9802832948
  0
SEQEND
  0
POLYLINE
  8
0
 62
7
  6
CONTINUOUS
 66
1
 70
0
  0
VERTEX
  8
0
 62
7
  6
CONTINUOUS
 10
139.7007989664
 20
201.1892383413
  0
VERTEX
  8
0
 62
7
  6
CONTINUOUS
 10
139.0125184014
 20
203.5822562566
  0
VERTEX
  8
0
 62
7
  6
CONTINUOUS
 10
138.4386730245
 20
206.0924761529
  0
VERTEX
  8
0
 62
7
  6
CONTINUOUS
 10
137.9816647551
 20
208.7094008583
  0
VERTEX
  8
0
 62
7
  6
CONTINUOUS
 10
137.6433909124
 20
211.4221574952
  0
VERTEX
  8
0
 62
7
  6
CONTINUOUS
 10
137.4252556779
 20
214.2194753803
  0
VERTEX
  8
0
 62
7
  6
CONTINUOUS
 10
137.3281642776
 20
217.0897328152
  0
VERTEX
  8
0
 62
7
  6
CONTINUOUS
 10
137.3525192352
 20
220.0210053318
  0
VERTEX
  8
0
 62
7
  6
CONTINUOUS
 10
137.4982187086
 20
223.0011151913
  0
VERTEX
  8
0
 62
7
  6
CONTINUOUS
 10
137.7646569195
 20
226.0176819341
  0
VERTEX
  8
0
 62
7
  6
CONTINUOUS
 10
138.150726673
 20
229.0581737687
  0
VERTEX
  8
0
 62
7
  6
CONTINUOUS
 10
138.6548239561
 20
232.1099595883
  0
VERTEX
  8
0
 62
7
  6
CONTINUOUS
 10
139.2748545972
 20
235.1603613985
  0
VERTEX
  8
0
 62
7
  6
CONTINUOUS
 10
140.0082429583
 20
238.1967069393
  0
VERTEX
  8
0
 62
7
  6
CONTINUOUS
 10
140.8519426248
 20
241.2063822845
  0
VERTEX
  8
0
 62
7
  6
CONTINUOUS
 10
141.8024490465
 20
244.1768841977
  0
VERTEX
  8
0
 62
7
  6
CONTINUOUS
 10
142.8558140802
 20
247.0958720313
  0
VERTEX
  8
0
 62
7
  6
CONTINUOUS
 10
144.0076619744
 20
249.9512180174
  0
VERTEX
  8
0
 62
7
  6
CONTINUOUS
 10
145.2532095097
 20
252.7310622746
  0
SEQEND
  0
POLYLINE
  8
0
 62
9
  6
CONTINUOUS
 66
1
 70
0
  0
VERTEX
  8
0
 62
9
  6
CONTINUOUS
 10
133.8898008143
 20
237.3404615671
  0
VERTEX
  8
0
 62
9
  6
CONTINUOUS
 10
133.8429519911
 20
237.4155521848
  0
VERTEX
  8
0
 62
9
  6
CONTINUOUS
 10
133.7780281101
 20
237.4923869326
  0
VERTEX
  8
0
 62
9
  6
CONTINUOUS
 10
133.6982847194
 20
237.5671129958
  0
VERTEX
  8
0
 62
9
  6
CONTINUOUS
 10
133.6077204822
 20
237.6359832958
  0
VERTEX
  8
0
 62
9
  6
CONTINUOUS
 10
133.5108766672
 20
237.6955443846
  0
VERTEX
  8
0
 62
9
  6
CONTINUOUS
 10
133.4126094304
 20
237.7428096161
  0
VERTEX
  8
0
 62
9
  6
CONTINUOUS
 10
133.3178463056
 20
237.7754089106
  0
SEQEND
  0
LINE
  8
0
 62
9
  6
CONTINUOUS
 10
143.6217492593
 20
214.6947861829
 11
154.2815280663
 21
192.8725091069
  0
LINE
  8
0
 62
9
  6
CONTINUOUS
 10
144.2912050819
 20
214.958577933
 11
154.9488625398
 21
193.1406435987
  0
POLYLINE
  8
0
 62
9
  6
CONTINUOUS
 66
1
 70
0
  0
VERTEX
  8
0
 62
9
  6
CONTINUOUS
 10
142.8071280255
 20
214.9145316896
  0
VERTEX
  8
0
 62
9
  6
CONTINUOUS
 10
142.4250123863
 20
215.8036407741
  0
VERTEX
  8
0
 62
9
  6
CONTINUOUS
 10
142.1077351661
 20
216.7726971241
  0
VERTEX
  8
0
 62
9
  6
CONTINUOUS
 10
141.8577892142
 20
217.81401754
  0
VERTEX
  8
0
 62
9
  6
CONTINUOUS
 10
141.6772267653
 20
218.9194856329
  0
VERTEX
  8
0
 62
9
  6
CONTINUOUS
 10
141.5677056975
 20
220.0799059684
  0
VERTEX
  8
0
 62
9
  6
CONTINUOUS
 10
141.5302836503
 20
221.2848567325
  0
VERTEX
  8
0
 62
9
  6
CONTINUOUS
 10
141.5652339408
 20
222.5234431246
  0
VERTEX
  8
0
 62
9
  6
CONTINUOUS
 10
141.6721140994
 20
223.7850496517
  0
VERTEX
  8
0
 62
9
  6
CONTINUOUS
 10
141.8499760983
 20
225.0596919939
  0
VERTEX
  8
0
 62
9
  6
CONTINUOUS
 10
142.0974169578
 20
226.337310389
  0
VERTEX
  8
0
 62
9
  6
CONTINUOUS
 10
142.4125838149
 20
227.6078115895
  0
VERTEX
  8
0
 62
9
  6
CONTINUOUS
 10
142.7929201313
 20
228.8603291345
  0
VERTEX
  8
0
 62
9
  6
CONTINUOUS
 10
143.2350513285
 20
230.0835489772
  0
VERTEX
  8
0
 62
9
  6
CONTINUOUS
 10
143.7349307519
 20
231.2664740292
  0
VERTEX
  8
0
 62
9
  6
CONTINUOUS
 10
144.288243565
 20
232.3992388292
  0
VERTEX
  8
0
 62
9
  6
CONTINUOUS
 10
144.8905727614
 20
233.4729939259
  0
VERTEX
  8
0
 62
9
  6
CONTINUOUS
 10
145.537164813
 20
234.4792263107
  0
SEQEND
  0
POLYLINE
  8
0
 62
7
  6
CONTINUOUS
 66
1
 70
0
  0
VERTEX
  8
0
 62
7
  6
CONTINUOUS
 10
132.2472703106
 20
237.9594014875
  0
VERTEX
  8
0
 62
7
  6
CONTINUOUS
 10
131.6057658589
 20
236.9610128333
  0
VERTEX
  8
0
 62
7
  6
CONTINUOUS
 10
131.0096047118
 20
235.8979487286
  0
VERTEX
  8
0
 62
7
  6
CONTINUOUS
 10
130.4633223837
 20
234.7790575287
  0
VERTEX
  8
0
 62
7
  6
CONTINUOUS
 10
129.9710032224
 20
233.6134028065
  0
VERTEX
  8
0
 62
7
  6
CONTINUOUS
 10
129.5363457635
 20
232.4103289436
  0
VERTEX
  8
0
 62
7
  6
CONTINUOUS
 10
129.1626316327
 20
231.1793569224
  0
VERTEX
  8
0
 62
7
  6
CONTINUOUS
 10
128.8527222581
 20
229.9301288784
  0
VERTEX
  8
0
 62
7
  6
CONTINUOUS
 10
128.6090924046
 20
228.6725687784
  0
VERTEX
  8
0
 62
7
  6
CONTINUOUS
 10
128.4337329787
 20
227.4164856722
  0
VERTEX
  8
0
 62
7
  6
CONTINUOUS
 10
128.3281937978
 20
226.1716391325
  0
VERTEX
  8
0
 62
7
  6
CONTINUOUS
 10
128.2935893649
 20
224.9480954649
  0
VERTEX
  8
0
 62
7
  6
CONTINUOUS
 10
128.3305352486
 20
223.7553535432
  0
VERTEX
  8
0
 62
7
  6
CONTINUOUS
 10
128.4392218699
 20
222.6027547714
  0
VERTEX
  8
0
 62
7
  6
CONTINUOUS
 10
128.6193387513
 20
221.4998120293
  0
VERTEX
  8
0
 62
7
  6
CONTINUOUS
 10
128.8699968247
 20
220.455898993
  0
VERTEX
  8
0
 62
7
  6
CONTINUOUS
 10
129.1897926898
 20
219.4797756924
  0
VERTEX
  8
0
 62
7
  6
CONTINUOUS
 10
129.5766345652
 20
218.5800583573
  0
SEQEND
  0
POLYLINE
  8
0
 62
9
  6
CONTINUOUS
 66
1
 70
0
  0
VERTEX
  8
0
 62
9
  6
CONTINUOUS
 10
133.3178463056
 20
237.7754089106
  0
VERTEX
  8
0
 62
9
  6
CONTINUOUS
 10
132.671254254
 20
236.7691765258
  0
VERTEX
  8
0
 62
9
  6
CONTINUOUS
 10
132.0689250576
 20
235.6954214292
  0
VERTEX
  8
0
 62
9
  6
CONTINUOUS
 10
131.5156122444
 20
234.5626566292
  0
VERTEX
  8
0
 62
9
  6
CONTINUOUS
 10
131.0157328211
 20
233.3797315772
  0
VERTEX
  8
0
 62
9
  6
CONTINUOUS
 10
130.5736016239
 20
232.1565117344
  0
VERTEX
  8
0
 62
9
  6
CONTINUOUS
 10
130.1932653075
 20
230.9039941895
  0
VERTEX
  8
0
 62
9
  6
CONTINUOUS
 10
129.8780984504
 20
229.633492989
  0
VERTEX
  8
0
 62
9
  6
CONTINUOUS
 10
129.6306575908
 20
228.3558745938
  0
VERTEX
  8
0
 62
9
  6
CONTINUOUS
 10
129.452795592
 20
227.0812322516
  0
VERTEX
  8
0
 62
9
  6
CONTINUOUS
 10
129.3459154334
 20
225.8196257245
  0
VERTEX
  8
0
 62
9
  6
CONTINUOUS
 10
129.3109651429
 20
224.5810393325
  0
VERTEX
  8
0
 62
9
  6
CONTINUOUS
 10
129.3483871901
 20
223.3760885684
  0
VERTEX
  8
0
 62
9
  6
CONTINUOUS
 10
129.4579082579
 20
222.2156682329
  0
VERTEX
  8
0
 62
9
  6
CONTINUOUS
 10
129.6384707068
 20
221.11020014
  0
VERTEX
  8
0
 62
9
  6
CONTINUOUS
 10
129.8884166587
 20
220.0688797241
  0
VERTEX
  8
0
 62
9
  6
CONTINUOUS
 10
130.2056938789
 20
219.0998233741
  0
VERTEX
  8
0
 62
9
  6
CONTINUOUS
 10
130.5878095181
 20
218.2107142895
  0
SEQEND
  0
LINE
  8
0
 62
7
  6
CONTINUOUS
 10
132.2472703106
 20
237.9594014875
 11
166.6320039791
 21
287.9458858792
  0
LINE
  8
0
 62
9
  6
CONTINUOUS
 10
132.5032250718
 20
237.9951544173
 11
166.8879587403
 21
287.981638809
  0
POLYLINE
  8
0
 62
9
  6
CONTINUOUS
 66
1
 70
0
  0
VERTEX
  8
0
 62
9
  6
CONTINUOUS
 10
166.8879587403
 20
287.981638809
  0
VERTEX
  8
0
 62
9
  6
CONTINUOUS
 10
167.5732008138
 20
288.9115484857
  0
VERTEX
  8
0
 62
9
  6
CONTINUOUS
 10
168.2911158719
 20
289.7570870977
  0
VERTEX
  8
0
 62
9
  6
CONTINUOUS
 10
169.0360185202
 20
290.5115891939
  0
VERTEX
  8
0
 62
9
  6
CONTINUOUS
 10
169.8020723797
 20
291.1689976936
  0
VERTEX
  8
0
 62
9
  6
CONTINUOUS
 10
170.5828598129
 20
291.723580114
  0
VERTEX
  8
0
 62
9
  6
CONTINUOUS
 10
171.371346917
 20
292.170230357
  0
VERTEX
  8
0
 62
9
  6
CONTINUOUS
 10
172.1604234071
 20
292.5050200918
  0
VERTEX
  8
0
 62
9
  6
CONTINUOUS
 10
172.9433680838
 20
292.7253219856
  0
VERTEX
  8
0
 62
9
  6
CONTINUOUS
 10
173.7140145574
 20
292.829565615
  0
VERTEX
  8
0
 62
9
  6
CONTINUOUS
 10
174.4662804958
 20
292.8169270007
  0
VERTEX
  8
0
 62
9
  6
CONTINUOUS
 10
175.2207447804
 20
292.6802573602
  0
SEQEND
  0
POLYLINE
  8
0
 62
7
  6
CONTINUOUS
 66
1
 70
0
  0
VERTEX
  8
0
 62
7
  6
CONTINUOUS
 10
157.5697013545
 20
270.6360468907
  0
VERTEX
  8
0
 62
7
  6
CONTINUOUS
 10
159.380650605
 20
272.2995561969
  0
VERTEX
  8
0
 62
7
  6
CONTINUOUS
 10
161.2214167751
 20
273.7946948666
  0
VERTEX
  8
0
 62
7
  6
CONTINUOUS
 10
163.0843542738
 20
275.1152545142
  0
VERTEX
  8
0
 62
7
  6
CONTINUOUS
 10
164.9617231101
 20
276.2557497606
  0
VERTEX
  8
0
 62
7
  6
CONTINUOUS
 10
166.8457240435
 20
277.2114436045
  0
VERTEX
  8
0
 62
7
  6
CONTINUOUS
 10
168.7285303517
 20
277.9783665509
  0
VERTEX
  8
0
 62
7
  6
CONTINUOUS
 10
170.6023203168
 20
278.5533330804
  0
VERTEX
  8
0
 62
7
  6
CONTINUOUS
 10
172.4593096912
 20
278.933954866
  0
VERTEX
  8
0
 62
7
  6
CONTINUOUS
 10
174.2917840067
 20
279.1186506845
  0
VERTEX
  8
0
 62
7
  6
CONTINUOUS
 10
176.0045470332
 20
279.1072366453
  0
SEQEND
  0
POLYLINE
  8
0
 62
9
  6
CONTINUOUS
 66
1
 70
0
  0
VERTEX
  8
0
 62
9
  6
CONTINUOUS
 10
133.8898008143
 20
237.3404615671
  0
VERTEX
  8
0
 62
9
  6
CONTINUOUS
 10
133.2663732128
 20
236.3702860553
  0
VERTEX
  8
0
 62
9
  6
CONTINUOUS
 10
132.6855398845
 20
235.3348660737
  0
VERTEX
  8
0
 62
9
  6
CONTINUOUS
 10
132.1519734172
 20
234.2425409653
  0
VERTEX
  8
0
 62
9
  6
CONTINUOUS
 10
131.6699336433
 20
233.1018441316
  0
VERTEX
  8
0
 62
9
  6
CONTINUOUS
 10
131.2435814615
 20
231.9222892251
  0
VERTEX
  8
0
 62
9
  6
CONTINUOUS
 10
130.8768193289
 20
230.7144811188
  0
VERTEX
  8
0
 62
9
  6
CONTINUOUS
 10
130.5729015593
 20
229.4893304522
  0
VERTEX
  8
0
 62
9
  6
CONTINUOUS
 10
130.3342936277
 20
228.2573164838
  0
VERTEX
  8
0
 62
9
  6
CONTINUOUS
 10
130.1627823563
 20
227.0281728306
  0
VERTEX
  8
0
 62
9
  6
CONTINUOUS
 10
130.0597206422
 20
225.8116005236
  0
VERTEX
  8
0
 62
9
  6
CONTINUOUS
 10
130.0260226515
 20
224.6172278807
  0
VERTEX
  8
0
 62
9
  6
CONTINUOUS
 10
130.0621149881
 20
223.4552919174
  0
VERTEX
  8
0
 62
9
  6
CONTINUOUS
 10
130.1677339882
 20
222.3362989544
  0
VERTEX
  8
0
 62
9
  6
CONTINUOUS
 10
130.3418595285
 20
221.2702989645
  0
VERTEX
  8
0
 62
9
  6
CONTINUOUS
 10
130.5828930017
 20
220.2661594687
  0
VERTEX
  8
0
 62
9
  6
CONTINUOUS
 10
130.8888546345
 20
219.33170655
  0
VERTEX
  8
0
 62
9
  6
CONTINUOUS
 10
131.2572653406
 20
218.4745060396
  0
SEQEND
  0
LINE
  8
0
 62
9
  6
CONTINUOUS
 10
167.7025799741
 20
287.7618933024
 11
133.3178463056
 21
237.7754089106
  0
LINE
  8
0
 62
9
  6
CONTINUOUS
 10
168.2745344828
 20
287.3269459589
 11
133.8898008143
 21
237.3404615671
  0
LINE
  8
0
 62
7
  6
CONTINUOUS
 10
157.5697013545
 20
270.6360468907
 11
145.2532095097
 21
252.7310622746
  0
POLYLINE
  8
0
 62
9
  6
CONTINUOUS
 66
1
 70
0
  0
VERTEX
  8
0
 62
9
  6
CONTINUOUS
 10
179.6659437204
 20
284.4299577726
  0
VERTEX
  8
0
 62
9
  6
CONTINUOUS
 10
179.7038645424
 20
284.4632941821
  0
VERTEX
  8
0
 62
9
  6
CONTINUOUS
 10
179.7614778605
 20
284.4811901933
  0
VERTEX
  8
0
 62
9
  6
CONTINUOUS
 10
179.8353912835
 20
284.4820093938
  0
VERTEX
  8
0
 62
9
  6
CONTINUOUS
 10
179.9218984815
 20
284.4657107024
  0
SEQEND
  0
POLYLINE
  8
0
 62
9
  6
CONTINUOUS
 66
1
 70
0
  0
VERTEX
  8
0
 62
9
  6
CONTINUOUS
 10
146.9237405555
 20
233.8245334605
  0
VERTEX
  8
0
 62
9
  6
CONTINUOUS
 10
146.8768917323
 20
233.8996240782
  0
VERTEX
  8
0
 62
9
  6
CONTINUOUS
 10
146.8119678514
 20
233.9764588259
  0
VERTEX
  8
0
 62
9
  6
CONTINUOUS
 10
146.7322244607
 20
234.0511848892
  0
VERTEX
  8
0
 62
9
  6
CONTINUOUS
 10
146.6416602234
 20
234.1200551892
  0
VERTEX
  8
0
 62
9
  6
CONTINUOUS
 10
146.5448164085
 20
234.1796162779
  0
VERTEX
  8
0
 62
9
  6
CONTINUOUS
 10
146.4465491716
 20
234.2268815095
  0
VERTEX
  8
0
 62
9
  6
CONTINUOUS
 10
146.3517860469
 20
234.259480804
  0
SEQEND
  0
POLYLINE
  8
0
 62
9
  6
CONTINUOUS
 66
1
 70
0
  0
VERTEX
  8
0
 62
9
  6
CONTINUOUS
 10
132.2472703106
 20
237.9594014875
  0
VERTEX
  8
0
 62
9
  6
CONTINUOUS
 10
132.2851911697
 20
237.9927379171
  0
VERTEX
  8
0
 62
9
  6
CONTINUOUS
 10
132.3428044893
 20
238.0106339136
  0
VERTEX
  8
0
 62
9
  6
CONTINUOUS
 10
132.416717899
 20
238.0114531063
  0
VERTEX
  8
0
 62
9
  6
CONTINUOUS
 10
132.5032250718
 20
237.9951544173
  0
SEQEND
  0
POLYLINE
  8
0
 62
7
  6
CONTINUOUS
 66
1
 70
0
  0
VERTEX
  8
0
 62
7
  6
CONTINUOUS
 10
158.4445895094
 20
258.6959002474
  0
VERTEX
  8
0
 62
7
  6
CONTINUOUS
 10
158.7161121966
 20
258.9027703156
  0
VERTEX
  8
0
 62
7
  6
CONTINUOUS
 10
158.9816236034
 20
259.1491664264
  0
VERTEX
  8
0
 62
7
  6
CONTINUOUS
 10
159.2123410663
 20
259.4141192921
  0
VERTEX
  8
0
 62
7
  6
CONTINUOUS
 10
159.4039667555
 20
259.6926933424
  0
VERTEX
  8
0
 62
7
  6
CONTINUOUS
 10
159.552931047
 20
259.9796992695
  0
VERTEX
  8
0
 62
7
  6
CONTINUOUS
 10
159.656459018
 20
260.2697906962
  0
VERTEX
  8
0
 62
7
  6
CONTINUOUS
 10
159.7126221381
 20
260.5575637681
  0
VERTEX
  8
0
 62
7
  6
CONTINUOUS
 10
159.7203741947
 20
260.8376578173
  0
VERTEX
  8
0
 62
7
  6
CONTINUOUS
 10
159.6795707817
 20
261.1048552216
  0
VERTEX
  8
0
 62
7
  6
CONTINUOUS
 10
159.5909719895
 20
261.354178599
  0
VERTEX
  8
0
 62
7
  6
CONTINUOUS
 10
159.4562282459
 20
261.5809835267
  0
VERTEX
  8
0
 62
7
  6
CONTINUOUS
 10
159.2778495719
 20
261.7810450579
  0
VERTEX
  8
0
 62
7
  6
CONTINUOUS
 10
159.0591588247
 20
261.950636425
  0
VERTEX
  8
0
 62
7
  6
CONTINUOUS
 10
158.8042297992
 20
262.0865984615
  0
VERTEX
  8
0
 62
7
  6
CONTINUOUS
 10
158.5178113407
 20
262.1863984521
  0
SEQEND
  0
POLYLINE
  8
0
 62
7
  6
CONTINUOUS
 66
1
 70
0
  0
VERTEX
  8
0
 62
7
  6
CONTINUOUS
 10
157.4946930508
 20
258.214831441
  0
VERTEX
  8
0
 62
7
  6
CONTINUOUS
 10
157.7629516288
 20
258.3185880864
  0
VERTEX
  8
0
 62
7
  6
CONTINUOUS
 10
158.1010474632
 20
258.4835767541
  0
VERTEX
  8
0
 62
7
  6
CONTINUOUS
 10
158.4445895094
 20
258.6959002474
  0
SEQEND
  0
POLYLINE
  8
0
 62
7
  6
CONTINUOUS
 66
1
 70
0
  0
VERTEX
  8
0
 62
7
  6
CONTINUOUS
 10
157.4937432831
 20
258.2180133397
  0
VERTEX
  8
0
 62
7
  6
CONTINUOUS
 10
157.3127851958
 20
258.1639990006
  0
VERTEX
  8
0
 62
7
  6
CONTINUOUS
 10
156.9808919211
 20
258.0994860861
  0
VERTEX
  8
0
 62
7
  6
CONTINUOUS
 10
156.6549099821
 20
258.0748647755
  0
VERTEX
  8
0
 62
7
  6
CONTINUOUS
 10
156.3421212768
 20
258.0906850682
  0
VERTEX
  8
0
 62
7
  6
CONTINUOUS
 10
156.0495129878
 20
258.146593565
  0
SEQEND
  0
LINE
  8
0
 62
7
  6
CONTINUOUS
 10
162.5942311515
 20
204.2550265823
 11
152.7849719019
 21
224.5757348584
  0
POLYLINE
  8
0
 62
7
  6
CONTINUOUS
 66
1
 70
0
  0
VERTEX
  8
0
 62
7
  6
CONTINUOUS
 10
152.7849719019
 20
224.5757348584
  0
VERTEX
  8
0
 62
7
  6
CONTINUOUS
 10
152.7590604589
 20
224.6465774871
  0
VERTEX
  8
0
 62
7
  6
CONTINUOUS
 10
152.74390162
 20
224.7292630362
  0
VERTEX
  8
0
 62
7
  6
CONTINUOUS
 10
152.7402479763
 20
224.8193158465
  0
VERTEX
  8
0
 62
7
  6
CONTINUOUS
 10
152.7481373989
 20
224.9149122323
  0
VERTEX
  8
0
 62
7
  6
CONTINUOUS
 10
152.7673462307
 20
225.0117576279
  0
VERTEX
  8
0
 62
7
  6
CONTINUOUS
 10
152.7968766409
 20
225.1054720435
  0
VERTEX
  8
0
 62
7
  6
CONTINUOUS
 10
152.8361678607
 20
225.1941657382
  0
VERTEX
  8
0
 62
7
  6
CONTINUOUS
 10
152.8831631894
 20
225.2730530688
  0
SEQEND
  0
POLYLINE
  8
0
 62
7
  6
CONTINUOUS
 66
1
 70
0
  0
VERTEX
  8
0
 62
7
  6
CONTINUOUS
 10
145.2812100519
 20
234.4434733809
  0
VERTEX
  8
0
 62
7
  6
CONTINUOUS
 10
144.6397056002
 20
233.4450847267
  0
VERTEX
  8
0
 62
7
  6
CONTINUOUS
 10
144.043544453
 20
232.3820206219
  0
VERTEX
  8
0
 62
7
  6
CONTINUOUS
 10
143.497262125
 20
231.2631294221
  0
VERTEX
  8
0
 62
7
  6
CONTINUOUS
 10
143.0049429636
 20
230.0974746999
  0
VERTEX
  8
0
 62
7
  6
CONTINUOUS
 10
142.5702855047
 20
228.8944008369
  0
VERTEX
  8
0
 62
7
  6
CONTINUOUS
 10
142.196571374
 20
227.6634288157
  0
VERTEX
  8
0
 62
7
  6
CONTINUOUS
 10
141.8866619993
 20
226.4142007718
  0
VERTEX
  8
0
 62
7
  6
CONTINUOUS
 10
141.6430321459
 20
225.1566406718
  0
VERTEX
  8
0
 62
7
  6
CONTINUOUS
 10
141.4676727199
 20
223.9005575655
  0
VERTEX
  8
0
 62
7
  6
CONTINUOUS
 10
141.362133539
 20
222.6557110259
  0
VERTEX
  8
0
 62
7
  6
CONTINUOUS
 10
141.3275291061
 20
221.4321673582
  0
VERTEX
  8
0
 62
7
  6
CONTINUOUS
 10
141.3644749899
 20
220.2394254365
  0
VERTEX
  8
0
 62
7
  6
CONTINUOUS
 10
141.4731616111
 20
219.0868266648
  0
VERTEX
  8
0
 62
7
  6
CONTINUOUS
 10
141.6532784926
 20
217.9838839227
  0
VERTEX
  8
0
 62
7
  6
CONTINUOUS
 10
141.903936566
 20
216.9399708864
  0
VERTEX
  8
0
 62
7
  6
CONTINUOUS
 10
142.223732431
 20
215.9638475857
  0
VERTEX
  8
0
 62
7
  6
CONTINUOUS
 10
142.6105743064
 20
215.0641302507
  0
SEQEND
  0
LINE
  8
0
 62
7
  6
CONTINUOUS
 10
145.2812100519
 20
234.4434733809
 11
179.6659437204
 21
284.4299577726
  0
LINE
  8
0
 62
9
  6
CONTINUOUS
 10
145.537164813
 20
234.4792263107
 11
179.9218984815
 21
284.4657107024
  0
POLYLINE
  8
0
 62
9
  6
CONTINUOUS
 66
1
 70
0
  0
VERTEX
  8
0
 62
9
  6
CONTINUOUS
 10
179.9218984815
 20
284.4657107024
  0
VERTEX
  8
0
 62
9
  6
CONTINUOUS
 10
180.607140555
 20
285.395620379
  0
VERTEX
  8
0
 62
9
  6
CONTINUOUS
 10
181.3250556132
 20
286.2411589911
  0
VERTEX
  8
0
 62
9
  6
CONTINUOUS
 10
182.0699582614
 20
286.9956610873
  0
VERTEX
  8
0
 62
9
  6
CONTINUOUS
 10
182.836012121
 20
287.653069587
  0
VERTEX
  8
0
 62
9
  6
CONTINUOUS
 10
183.6167995542
 20
288.2076520073
  0
VERTEX
  8
0
 62
9
  6
CONTINUOUS
 10
184.4052866583
 20
288.6543022504
  0
VERTEX
  8
0
 62
9
  6
CONTINUOUS
 10
185.1943631484
 20
288.9890919852
  0
VERTEX
  8
0
 62
9
  6
CONTINUOUS
 10
185.977307825
 20
289.209393879
  0
VERTEX
  8
0
 62
9
  6
CONTINUOUS
 10
186.7479542986
 20
289.3136375084
  0
VERTEX
  8
0
 62
9
  6
CONTINUOUS
 10
187.500220237
 20
289.3009988941
  0
VERTEX
  8
0
 62
9
  6
CONTINUOUS
 10
188.2546845217
 20
289.1643292536
  0
SEQEND
  0
LINE
  8
0
 62
9
  6
CONTINUOUS
 10
146.3517860469
 20
234.259480804
 11
145.537164813
 21
234.4792263107
  0
LINE
  8
0
 62
9
  6
CONTINUOUS
 10
132.5032250718
 20
237.9951544173
 11
133.3178463056
 21
237.7754089106
  0
POLYLINE
  8
0
 62
9
  6
CONTINUOUS
 66
1
 70
0
  0
VERTEX
  8
0
 62
9
  6
CONTINUOUS
 10
179.6808562944
 20
288.8698476683
  0
VERTEX
  8
0
 62
9
  6
CONTINUOUS
 10
179.728012828
 20
288.9576541315
  0
VERTEX
  8
0
 62
9
  6
CONTINUOUS
 10
179.7523804961
 20
289.0465671009
  0
VERTEX
  8
0
 62
9
  6
CONTINUOUS
 10
179.7527373941
 20
289.1321281094
  0
VERTEX
  8
0
 62
9
  6
CONTINUOUS
 10
179.7255341397
 20
289.2170317783
  0
SEQEND
  0
POLYLINE
  8
0
 62
9
  6
CONTINUOUS
 66
1
 70
0
  0
VERTEX
  8
0
 62
9
  6
CONTINUOUS
 10
146.3517860469
 20
234.259480804
  0
VERTEX
  8
0
 62
9
  6
CONTINUOUS
 10
145.7051939952
 20
233.2532484192
  0
VERTEX
  8
0
 62
9
  6
CONTINUOUS
 10
145.1028647989
 20
232.1794933226
  0
VERTEX
  8
0
 62
9
  6
CONTINUOUS
 10
144.5495519857
 20
231.0467285226
  0
VERTEX
  8
0
 62
9
  6
CONTINUOUS
 10
144.0496725624
 20
229.8638034705
  0
VERTEX
  8
0
 62
9
  6
CONTINUOUS
 10
143.6075413651
 20
228.6405836278
  0
VERTEX
  8
0
 62
9
  6
CONTINUOUS
 10
143.2272050488
 20
227.3880660829
  0
VERTEX
  8
0
 62
9
  6
CONTINUOUS
 10
142.9120381916
 20
226.1175648823
  0
VERTEX
  8
0
 62
9
  6
CONTINUOUS
 10
142.6645973321
 20
224.8399464872
  0
VERTEX
  8
0
 62
9
  6
CONTINUOUS
 10
142.4867353333
 20
223.565304145
  0
VERTEX
  8
0
 62
9
  6
CONTINUOUS
 10
142.3798551746
 20
222.3036976179
  0
VERTEX
  8
0
 62
9
  6
CONTINUOUS
 10
142.3449048841
 20
221.0651112258
  0
VERTEX
  8
0
 62
9
  6
CONTINUOUS
 10
142.3823269314
 20
219.8601604618
  0
VERTEX
  8
0
 62
9
  6
CONTINUOUS
 10
142.4918479992
 20
218.6997401263
  0
VERTEX
  8
0
 62
9
  6
CONTINUOUS
 10
142.672410448
 20
217.5942720334
  0
VERTEX
  8
0
 62
9
  6
CONTINUOUS
 10
142.9223563999
 20
216.5529516174
  0
VERTEX
  8
0
 62
9
  6
CONTINUOUS
 10
143.2396336201
 20
215.5838952675
  0
VERTEX
  8
0
 62
9
  6
CONTINUOUS
 10
143.6217492593
 20
214.6947861829
  0
SEQEND
  0
POLYLINE
  8
0
 62
9
  6
CONTINUOUS
 66
1
 70
0
  0
VERTEX
  8
0
 62
9
  6
CONTINUOUS
 10
146.9237405555
 20
233.8245334605
  0
VERTEX
  8
0
 62
9
  6
CONTINUOUS
 10
146.300312954
 20
232.8543579487
  0
VERTEX
  8
0
 62
9
  6
CONTINUOUS
 10
145.7194796258
 20
231.8189379671
  0
VERTEX
  8
0
 62
9
  6
CONTINUOUS
 10
145.1859131585
 20
230.7266128587
  0
VERTEX
  8
0
 62
9
  6
CONTINUOUS
 10
144.7038733845
 20
229.585916025
  0
VERTEX
  8
0
 62
9
  6
CONTINUOUS
 10
144.2775212027
 20
228.4063611184
  0
VERTEX
  8
0
 62
9
  6
CONTINUOUS
 10
143.9107590701
 20
227.1985530122
  0
VERTEX
  8
0
 62
9
  6
CONTINUOUS
 10
143.6068413006
 20
225.9734023455
  0
VERTEX
  8
0
 62
9
  6
CONTINUOUS
 10
143.368233369
 20
224.7413883771
  0
VERTEX
  8
0
 62
9
  6
CONTINUOUS
 10
143.1967220975
 20
223.512244724
  0
VERTEX
  8
0
 62
9
  6
CONTINUOUS
 10
143.0936603834
 20
222.2956724169
  0
VERTEX
  8
0
 62
9
  6
CONTINUOUS
 10
143.0599623928
 20
221.1012997741
  0
VERTEX
  8
0
 62
9
  6
CONTINUOUS
 10
143.0960547293
 20
219.9393638108
  0
VERTEX
  8
0
 62
9
  6
CONTINUOUS
 10
143.2016737295
 20
218.8203708477
  0
VERTEX
  8
0
 62
9
  6
CONTINUOUS
 10
143.3757992697
 20
217.7543708579
  0
VERTEX
  8
0
 62
9
  6
CONTINUOUS
 10
143.616832743
 20
216.7502313621
  0
VERTEX
  8
0
 62
9
  6
CONTINUOUS
 10
143.9227943757
 20
215.8157784434
  0
VERTEX
  8
0
 62
9
  6
CONTINUOUS
 10
144.2912050819
 20
214.958577933
  0
SEQEND
  0
LINE
  8
0
 62
9
  6
CONTINUOUS
 10
180.7365197153
 20
284.2459651957
 11
146.3517860469
 21
234.259480804
  0
LINE
  8
0
 62
9
  6
CONTINUOUS
 10
181.308474224
 20
283.8110178522
 11
146.9237405555
 21
233.8245334605
  0
POLYLINE
  8
0
 62
9
  6
CONTINUOUS
 66
1
 70
0
  0
VERTEX
  8
0
 62
9
  6
CONTINUOUS
 10
131.2572653406
 20
218.4745060396
  0
VERTEX
  8
0
 62
9
  6
CONTINUOUS
 10
131.1887204171
 20
218.3941126047
  0
VERTEX
  8
0
 62
9
  6
CONTINUOUS
 10
131.1031883671
 20
218.3232599109
  0
VERTEX
  8
0
 62
9
  6
CONTINUOUS
 10
131.0049581248
 20
218.2655008081
  0
VERTEX
  8
0
 62
9
  6
CONTINUOUS
 10
130.8989553648
 20
218.2237315791
  0
VERTEX
  8
0
 62
9
  6
CONTINUOUS
 10
130.790495508
 20
218.2000467073
  0
VERTEX
  8
0
 62
9
  6
CONTINUOUS
 10
130.6850171846
 20
218.1956338511
  0
VERTEX
  8
0
 62
9
  6
CONTINUOUS
 10
130.5878095181
 20
218.2107142895
  0
SEQEND
  0
POLYLINE
  8
0
 62
9
  6
CONTINUOUS
 66
1
 70
0
  0
VERTEX
  8
0
 62
9
  6
CONTINUOUS
 10
145.2812100519
 20
234.4434733809
  0
VERTEX
  8
0
 62
9
  6
CONTINUOUS
 10
145.319130911
 20
234.4768098104
  0
VERTEX
  8
0
 62
9
  6
CONTINUOUS
 10
145.3767442306
 20
234.494705807
  0
VERTEX
  8
0
 62
9
  6
CONTINUOUS
 10
145.4506576403
 20
234.4955249997
  0
VERTEX
  8
0
 62
9
  6
CONTINUOUS
 10
145.537164813
 20
234.4792263107
  0
SEQEND
  0
LINE
  8
0
 62
7
  6
CONTINUOUS
 10
185.3923289883
 20
272.5329482438
 11
152.8831631894
 21
225.2730530688
  0
POLYLINE
  8
0
 62
7
  6
CONTINUOUS
 66
1
 70
0
  0
VERTEX
  8
0
 62
7
  6
CONTINUOUS
 10
185.3923289883
 20
272.5329482438
  0
VERTEX
  8
0
 62
7
  6
CONTINUOUS
 10
185.4454899219
 20
272.599662141
  0
VERTEX
  8
0
 62
7
  6
CONTINUOUS
 10
185.5032018314
 20
272.6519858367
  0
VERTEX
  8
0
 62
7
  6
CONTINUOUS
 10
185.5623603764
 20
272.6872021588
  0
VERTEX
  8
0
 62
7
  6
CONTINUOUS
 10
185.6217779029
 20
272.7046590949
  0
VERTEX
  8
0
 62
7
  6
CONTINUOUS
 10
185.6787475522
 20
272.7033509771
  0
VERTEX
  8
0
 62
7
  6
CONTINUOUS
 10
185.6899176043
 20
272.7007696332
  0
SEQEND
  0
POLYLINE
  8
0
 62
7
  6
CONTINUOUS
 66
1
 70
0
  0
VERTEX
  8
0
 62
7
  6
CONTINUOUS
 10
155.1505942268
 20
258.8242380419
  0
VERTEX
  8
0
 62
7
  6
CONTINUOUS
 10
155.2018797844
 20
258.7334194378
  0
VERTEX
  8
0
 62
7
  6
CONTINUOUS
 10
155.3550177494
 20
258.5380684957
  0
VERTEX
  8
0
 62
7
  6
CONTINUOUS
 10
155.5503863924
 20
258.3728119512
  0
VERTEX
  8
0
 62
7
  6
CONTINUOUS
 10
155.7836215008
 20
258.2413413624
  0
VERTEX
  8
0
 62
7
  6
CONTINUOUS
 10
156.0495129878
 20
258.146593565
  0
SEQEND
  0
POLYLINE
  8
0
 62
9
  6
CONTINUOUS
 66
1
 70
0
  0
VERTEX
  8
0
 62
9
  6
CONTINUOUS
 10
192.7147960356
 20
285.3539195617
  0
VERTEX
  8
0
 62
9
  6
CONTINUOUS
 10
192.7619525692
 20
285.4417260249
  0
VERTEX
  8
0
 62
9
  6
CONTINUOUS
 10
192.7863202374
 20
285.5306389943
  0
VERTEX
  8
0
 62
9
  6
CONTINUOUS
 10
192.7866771353
 20
285.6162000028
  0
VERTEX
  8
0
 62
9
  6
CONTINUOUS
 10
192.7594738809
 20
285.7011036717
  0
SEQEND
  0
POLYLINE
  8
0
 62
9
  6
CONTINUOUS
 66
1
 70
0
  0
VERTEX
  8
0
 62
9
  6
CONTINUOUS
 10
144.2912050819
 20
214.958577933
  0
VERTEX
  8
0
 62
9
  6
CONTINUOUS
 10
144.2226601583
 20
214.878184498
  0
VERTEX
  8
0
 62
9
  6
CONTINUOUS
 10
144.1371281083
 20
214.8073318042
  0
VERTEX
  8
0
 62
9
  6
CONTINUOUS
 10
144.0388978661
 20
214.7495727015
  0
VERTEX
  8
0
 62
9
  6
CONTINUOUS
 10
143.932895106
 20
214.7078034725
  0
VERTEX
  8
0
 62
9
  6
CONTINUOUS
 10
143.8244352493
 20
214.6841186007
  0
VERTEX
  8
0
 62
9
  6
CONTINUOUS
 10
143.7189569258
 20
214.6797057445
  0
VERTEX
  8
0
 62
9
  6
CONTINUOUS
 10
143.6217492593
 20
214.6947861829
  0
SEQEND
  0
LINE
  8
0
 62
7
  6
CONTINUOUS
 10
155.8876019723
 20
249.8624162552
 11
145.2532095097
 21
252.7310622746
  0
POLYLINE
  8
0
 62
7
  6
CONTINUOUS
 66
1
 70
0
  0
VERTEX
  8
0
 62
7
  6
CONTINUOUS
 10
159.3404441378
 20
260.9463146858
  0
VERTEX
  8
0
 62
7
  6
CONTINUOUS
 10
159.3966450181
 20
260.8160517675
  0
VERTEX
  8
0
 62
7
  6
CONTINUOUS
 10
159.4560788594
 20
260.5741782606
  0
VERTEX
  8
0
 62
7
  6
CONTINUOUS
 10
159.4661324504
 20
260.3169158237
  0
VERTEX
  8
0
 62
7
  6
CONTINUOUS
 10
159.4265812104
 20
260.0500112745
  0
VERTEX
  8
0
 62
7
  6
CONTINUOUS
 10
159.3383086488
 20
259.7794268197
  0
VERTEX
  8
0
 62
7
  6
CONTINUOUS
 10
159.2032866287
 20
259.5112068687
  0
VERTEX
  8
0
 62
7
  6
CONTINUOUS
 10
159.024531319
 20
259.2513430122
  0
VERTEX
  8
0
 62
7
  6
CONTINUOUS
 10
158.8060358179
 20
259.0056401792
  0
VERTEX
  8
0
 62
7
  6
CONTINUOUS
 10
158.5526809539
 20
258.7795869649
  0
VERTEX
  8
0
 62
7
  6
CONTINUOUS
 10
158.4429994052
 20
258.6980389266
  0
SEQEND
  0
POLYLINE
  8
0
 62
7
  6
CONTINUOUS
 66
1
 70
0
  0
VERTEX
  8
0
 62
7
  6
CONTINUOUS
 10
144.903938171
 20
210.3692465579
  0
VERTEX
  8
0
 62
7
  6
CONTINUOUS
 10
144.751705431
 20
210.1961381088
  0
VERTEX
  8
0
 62
7
  6
CONTINUOUS
 10
144.5220605421
 20
209.9965792612
  0
VERTEX
  8
0
 62
7
  6
CONTINUOUS
 10
144.2873933107
 20
209.8506733096
  0
VERTEX
  8
0
 62
7
  6
CONTINUOUS
 10
144.0511573967
 20
209.7577377656
  0
VERTEX
  8
0
 62
7
  6
CONTINUOUS
 10
143.8135723561
 20
209.7144015852
  0
VERTEX
  8
0
 62
7
  6
CONTINUOUS
 10
143.580215601
 20
209.7171738563
  0
VERTEX
  8
0
 62
7
  6
CONTINUOUS
 10
143.3585144495
 20
209.7587461679
  0
SEQEND
  0
POLYLINE
  8
0
 62
7
  6
CONTINUOUS
 66
1
 70
0
  0
VERTEX
  8
0
 62
7
  6
CONTINUOUS
 10
155.7097967971
 20
258.1042736199
  0
VERTEX
  8
0
 62
7
  6
CONTINUOUS
 10
156.0223692545
 20
258.0424947603
  0
VERTEX
  8
0
 62
7
  6
CONTINUOUS
 10
156.3552730775
 20
258.0198878549
  0
VERTEX
  8
0
 62
7
  6
CONTINUOUS
 10
156.7023068977
 20
258.0368740276
  0
VERTEX
  8
0
 62
7
  6
CONTINUOUS
 10
157.0570061315
 20
258.0931368582
  0
VERTEX
  8
0
 62
7
  6
CONTINUOUS
 10
157.4127634035
 20
258.1876282766
  0
VERTEX
  8
0
 62
7
  6
CONTINUOUS
 10
157.4946930508
 20
258.214831441
  0
SEQEND
  0
POLYLINE
  8
0
 62
7
  6
CONTINUOUS
 66
1
 70
0
  0
VERTEX
  8
0
 62
7
  6
CONTINUOUS
 10
158.4415253768
 20
261.6239591628
  0
VERTEX
  8
0
 62
7
  6
CONTINUOUS
 10
158.1489170878
 20
261.6798676595
  0
VERTEX
  8
0
 62
7
  6
CONTINUOUS
 10
157.8361283825
 20
261.6956879522
  0
VERTEX
  8
0
 62
7
  6
CONTINUOUS
 10
157.5101464435
 20
261.6710666416
  0
VERTEX
  8
0
 62
7
  6
CONTINUOUS
 10
157.1782531688
 20
261.6065537272
  0
VERTEX
  8
0
 62
7
  6
CONTINUOUS
 10
156.8478625057
 20
261.5035903208
  0
VERTEX
  8
0
 62
7
  6
CONTINUOUS
 10
156.5263548357
 20
261.3644764547
  0
VERTEX
  8
0
 62
7
  6
CONTINUOUS
 10
156.2209121088
 20
261.1923197029
  0
VERTEX
  8
0
 62
7
  6
CONTINUOUS
 10
155.9383574107
 20
260.9909657628
  0
VERTEX
  8
0
 62
7
  6
CONTINUOUS
 10
155.6850025467
 20
260.7649125486
  0
VERTEX
  8
0
 62
7
  6
CONTINUOUS
 10
155.4665070456
 20
260.5192097156
  0
VERTEX
  8
0
 62
7
  6
CONTINUOUS
 10
155.2877517359
 20
260.259345859
  0
VERTEX
  8
0
 62
7
  6
CONTINUOUS
 10
155.1527297158
 20
259.9911259081
  0
VERTEX
  8
0
 62
7
  6
CONTINUOUS
 10
155.0644571542
 20
259.7205414532
  0
VERTEX
  8
0
 62
7
  6
CONTINUOUS
 10
155.0249059142
 20
259.453636904
  0
VERTEX
  8
0
 62
7
  6
CONTINUOUS
 10
155.0349595052
 20
259.1963744671
  0
VERTEX
  8
0
 62
7
  6
CONTINUOUS
 10
155.0943933465
 20
258.9545009602
  0
VERTEX
  8
0
 62
7
  6
CONTINUOUS
 10
155.1505942268
 20
258.8242380419
  0
SEQEND
  0
POLYLINE
  8
0
 62
7
  6
CONTINUOUS
 66
1
 70
0
  0
VERTEX
  8
0
 62
7
  6
CONTINUOUS
 10
158.4415253768
 20
261.6239591628
  0
VERTEX
  8
0
 62
7
  6
CONTINUOUS
 10
158.7074168637
 20
261.5292113654
  0
VERTEX
  8
0
 62
7
  6
CONTINUOUS
 10
158.9406519722
 20
261.3977407766
  0
VERTEX
  8
0
 62
7
  6
CONTINUOUS
 10
159.1360206152
 20
261.2324842321
  0
VERTEX
  8
0
 62
7
  6
CONTINUOUS
 10
159.2891585802
 20
261.0371332899
  0
VERTEX
  8
0
 62
7
  6
CONTINUOUS
 10
159.3404441378
 20
260.9463146858
  0
SEQEND
  0
LINE
  8
0
 62
7
  6
CONTINUOUS
 10
154.9488625398
 20
193.1406435987
 11
162.5942311515
 21
204.2550265823
  0
LINE
  8
0
 62
7
  6
CONTINUOUS
 10
196.179425552
 20
253.0791882548
 11
203.8247941638
 21
264.1935712383
  0
POLYLINE
  8
0
 62
7
  6
CONTINUOUS
 66
1
 70
0
  0
VERTEX
  8
0
 62
7
  6
CONTINUOUS
 10
158.5178113407
 20
262.1863984521
  0
VERTEX
  8
0
 62
7
  6
CONTINUOUS
 10
158.2052388832
 20
262.2481773117
  0
VERTEX
  8
0
 62
7
  6
CONTINUOUS
 10
157.8723350602
 20
262.2707842171
  0
VERTEX
  8
0
 62
7
  6
CONTINUOUS
 10
157.5253012401
 20
262.2537980444
  0
VERTEX
  8
0
 62
7
  6
CONTINUOUS
 10
157.1706020062
 20
262.1975352138
  0
VERTEX
  8
0
 62
7
  6
CONTINUOUS
 10
156.8148447342
 20
262.1030437954
  0
VERTEX
  8
0
 62
7
  6
CONTINUOUS
 10
156.464656509
 20
261.9720839856
  0
VERTEX
  8
0
 62
7
  6
CONTINUOUS
 10
156.1265606746
 20
261.8070953179
  0
VERTEX
  8
0
 62
7
  6
CONTINUOUS
 10
155.8068553167
 20
261.6111512189
  0
VERTEX
  8
0
 62
7
  6
CONTINUOUS
 10
155.5114959411
 20
261.3879017564
  0
VERTEX
  8
0
 62
7
  6
CONTINUOUS
 10
155.2459845344
 20
261.1415056456
  0
VERTEX
  8
0
 62
7
  6
CONTINUOUS
 10
155.0152670715
 20
260.8765527799
  0
VERTEX
  8
0
 62
7
  6
CONTINUOUS
 10
154.8236413823
 20
260.5979787297
  0
VERTEX
  8
0
 62
7
  6
CONTINUOUS
 10
154.6746770907
 20
260.3109728025
  0
VERTEX
  8
0
 62
7
  6
CONTINUOUS
 10
154.5711491198
 20
260.0208813758
  0
VERTEX
  8
0
 62
7
  6
CONTINUOUS
 10
154.5149859997
 20
259.7331083039
  0
VERTEX
  8
0
 62
7
  6
CONTINUOUS
 10
154.5072339431
 20
259.4530142547
  0
VERTEX
  8
0
 62
7
  6
CONTINUOUS
 10
154.548037356
 20
259.1858168504
  0
VERTEX
  8
0
 62
7
  6
CONTINUOUS
 10
154.6366361483
 20
258.936493473
  0
VERTEX
  8
0
 62
7
  6
CONTINUOUS
 10
154.7713798919
 20
258.7096885454
  0
VERTEX
  8
0
 62
7
  6
CONTINUOUS
 10
154.9497585659
 20
258.5096270141
  0
VERTEX
  8
0
 62
7
  6
CONTINUOUS
 10
155.1684493131
 20
258.3400356471
  0
VERTEX
  8
0
 62
7
  6
CONTINUOUS
 10
155.4233783386
 20
258.2040736105
  0
VERTEX
  8
0
 62
7
  6
CONTINUOUS
 10
155.7097967971
 20
258.1042736199
  0
SEQEND
  0
LINE
  8
0
 62
7
  6
CONTINUOUS
 10
196.179425552
 20
253.0791882548
 11
181.5162433431
 21
257.0346073747
  0
LINE
  8
0
 62
7
  6
CONTINUOUS
 10
181.5162433431
 20
257.0346073747
 11
178.5597219562
 21
262.6001097912
  0
POLYLINE
  8
0
 62
7
  6
CONTINUOUS
 66
1
 70
0
  0
VERTEX
  8
0
 62
7
  6
CONTINUOUS
 10
154.9488625398
 20
193.1406435987
  0
VERTEX
  8
0
 62
7
  6
CONTINUOUS
 10
154.8903055672
 20
193.0690066327
  0
VERTEX
  8
0
 62
7
  6
CONTINUOUS
 10
154.8183477261
 20
193.0043474815
  0
VERTEX
  8
0
 62
7
  6
CONTINUOUS
 10
154.7357479883
 20
192.9491458747
  0
VERTEX
  8
0
 62
7
  6
CONTINUOUS
 10
154.6456883632
 20
192.9055286663
  0
VERTEX
  8
0
 62
7
  6
CONTINUOUS
 10
154.5516280387
 20
192.8751699337
  0
VERTEX
  8
0
 62
7
  6
CONTINUOUS
 10
154.4571805102
 20
192.8592356502
  0
VERTEX
  8
0
 62
7
  6
CONTINUOUS
 10
154.3659815334
 20
192.8583376905
  0
VERTEX
  8
0
 62
7
  6
CONTINUOUS
 10
154.2815280663
 20
192.8725091069
  0
SEQEND
  0
LINE
  8
0
 62
7
  6
CONTINUOUS
 10
168.2040938171
 20
267.7674008712
 11
157.5697013545
 21
270.6360468907
  0
POLYLINE
  8
0
 62
9
  6
CONTINUOUS
 66
1
 70
0
  0
VERTEX
  8
0
 62
9
  6
CONTINUOUS
 10
168.2745344828
 20
287.3269459589
  0
VERTEX
  8
0
 62
9
  6
CONTINUOUS
 10
168.2276856427
 20
287.4020365996
  0
VERTEX
  8
0
 62
9
  6
CONTINUOUS
 10
168.1627617439
 20
287.4788713607
  0
VERTEX
  8
0
 62
9
  6
CONTINUOUS
 10
168.0830183419
 20
287.5535974264
  0
VERTEX
  8
0
 62
9
  6
CONTINUOUS
 10
167.9924541037
 20
287.6224677197
  0
VERTEX
  8
0
 62
9
  6
CONTINUOUS
 10
167.8956102985
 20
287.6820287966
  0
VERTEX
  8
0
 62
9
  6
CONTINUOUS
 10
167.7973430791
 20
287.729294016
  0
VERTEX
  8
0
 62
9
  6
CONTINUOUS
 10
167.7025799741
 20
287.7618933024
  0
SEQEND
  0
LINE
  8
0
 62
9
  6
CONTINUOUS
 10
185.5301751425
 20
272.6680427023
 11
185.8140611951
 21
272.5914639417
  0
LINE
  8
0
 62
7
  6
CONTINUOUS
 10
196.179425552
 20
253.0791882548
 11
185.8140611951
 21
272.5914639417
  0
LINE
  8
0
 62
9
  6
CONTINUOUS
 10
181.0770540703
 20
286.2106184834
 11
179.6808562944
 21
288.8698476683
  0
LINE
  8
0
 62
7
  6
CONTINUOUS
 10
181.2243197692
 20
286.3624114969
 11
179.7255341397
 21
289.2170317783
  0
POLYLINE
  8
0
 62
7
  6
CONTINUOUS
 66
1
 70
0
  0
VERTEX
  8
0
 62
7
  6
CONTINUOUS
 10
185.6899176043
 20
272.7007696332
  0
VERTEX
  8
0
 62
7
  6
CONTINUOUS
 10
185.7307298846
 20
272.6835555451
  0
VERTEX
  8
0
 62
7
  6
CONTINUOUS
 10
185.7766667047
 20
272.6456131978
  0
VERTEX
  8
0
 62
7
  6
CONTINUOUS
 10
185.8140611951
 20
272.5914639417
  0
SEQEND
  0
POLYLINE
  8
0
 62
9
  6
CONTINUOUS
 66
1
 70
0
  0
VERTEX
  8
0
 62
9
  6
CONTINUOUS
 10
181.308474224
 20
283.8110178522
  0
VERTEX
  8
0
 62
9
  6
CONTINUOUS
 10
181.2616253839
 20
283.886108493
  0
VERTEX
  8
0
 62
9
  6
CONTINUOUS
 10
181.1967014851
 20
283.9629432541
  0
VERTEX
  8
0
 62
9
  6
CONTINUOUS
 10
181.1169580831
 20
284.0376693198
  0
VERTEX
  8
0
 62
9
  6
CONTINUOUS
 10
181.026393845
 20
284.1065396131
  0
VERTEX
  8
0
 62
9
  6
CONTINUOUS
 10
180.9295500398
 20
284.16610069
  0
VERTEX
  8
0
 62
9
  6
CONTINUOUS
 10
180.8312828203
 20
284.2133659094
  0
VERTEX
  8
0
 62
9
  6
CONTINUOUS
 10
180.7365197153
 20
284.2459651957
  0
SEQEND
  0
POLYLINE
  8
0
 62
9
  6
CONTINUOUS
 66
1
 70
0
  0
VERTEX
  8
0
 62
9
  6
CONTINUOUS
 10
179.6808562944
 20
288.8698476683
  0
VERTEX
  8
0
 62
9
  6
CONTINUOUS
 10
179.2366883648
 20
289.6169972435
  0
VERTEX
  8
0
 62
9
  6
CONTINUOUS
 10
178.7379897082
 20
290.2712618716
  0
VERTEX
  8
0
 62
9
  6
CONTINUOUS
 10
178.1887784774
 20
290.8273813468
  0
VERTEX
  8
0
 62
9
  6
CONTINUOUS
 10
177.593318483
 20
291.2808561742
  0
VERTEX
  8
0
 62
9
  6
CONTINUOUS
 10
176.9565349685
 20
291.6276662028
  0
VERTEX
  8
0
 62
9
  6
CONTINUOUS
 10
176.28413276
 20
291.8645760433
  0
VERTEX
  8
0
 62
9
  6
CONTINUOUS
 10
175.582203107
 20
291.9895451697
  0
VERTEX
  8
0
 62
9
  6
CONTINUOUS
 10
174.8567890432
 20
292.0017317056
  0
VERTEX
  8
0
 62
9
  6
CONTINUOUS
 10
174.1136504418
 20
291.9012058668
  0
VERTEX
  8
0
 62
9
  6
CONTINUOUS
 10
173.3586527541
 20
291.6887623374
  0
VERTEX
  8
0
 62
9
  6
CONTINUOUS
 10
172.5977425175
 20
291.3659156456
  0
VERTEX
  8
0
 62
9
  6
CONTINUOUS
 10
171.8374013248
 20
290.9351996037
  0
VERTEX
  8
0
 62
9
  6
CONTINUOUS
 10
171.0844859535
 20
290.4004026249
  0
VERTEX
  8
0
 62
9
  6
CONTINUOUS
 10
170.3457794073
 20
289.7664489982
  0
VERTEX
  8
0
 62
9
  6
CONTINUOUS
 10
169.627470424
 20
289.038866529
  0
VERTEX
  8
0
 62
9
  6
CONTINUOUS
 10
168.9351869026
 20
288.2234972456
  0
VERTEX
  8
0
 62
9
  6
CONTINUOUS
 10
168.2745344828
 20
287.3269459589
  0
SEQEND
  0
POLYLINE
  8
0
 62
7
  6
CONTINUOUS
 66
1
 70
0
  0
VERTEX
  8
0
 62
7
  6
CONTINUOUS
 10
179.7255341397
 20
289.2170317783
  0
VERTEX
  8
0
 62
7
  6
CONTINUOUS
 10
179.3134849019
 20
289.9204888114
  0
VERTEX
  8
0
 62
7
  6
CONTINUOUS
 10
178.855838226
 20
290.5492573866
  0
VERTEX
  8
0
 62
7
  6
CONTINUOUS
 10
178.3567296723
 20
291.0989015716
  0
VERTEX
  8
0
 62
7
  6
CONTINUOUS
 10
177.8208802104
 20
291.5661090378
  0
VERTEX
  8
0
 62
7
  6
CONTINUOUS
 10
177.2529540038
 20
291.9490515368
  0
VERTEX
  8
0
 62
7
  6
CONTINUOUS
 10
176.6567927282
 20
292.2472089907
  0
VERTEX
  8
0
 62
7
  6
CONTINUOUS
 10
176.03537335
 20
292.4605098748
  0
SEQEND
  0
LINE
  8
0
 62
9
  6
CONTINUOUS
 10
180.7365197153
 20
284.2459651957
 11
179.9218984815
 21
284.4657107024
  0
LINE
  8
0
 62
9
  6
CONTINUOUS
 10
166.8879587403
 20
287.981638809
 11
167.7025799741
 21
287.7618933024
  0
POLYLINE
  8
0
 62
9
  6
CONTINUOUS
 66
1
 70
0
  0
VERTEX
  8
0
 62
9
  6
CONTINUOUS
 10
192.7147960356
 20
285.3539195617
  0
VERTEX
  8
0
 62
9
  6
CONTINUOUS
 10
192.270628106
 20
286.1010691369
  0
VERTEX
  8
0
 62
9
  6
CONTINUOUS
 10
191.7719294495
 20
286.755333765
  0
VERTEX
  8
0
 62
9
  6
CONTINUOUS
 10
191.2227182187
 20
287.3114532402
  0
VERTEX
  8
0
 62
9
  6
CONTINUOUS
 10
190.6272582243
 20
287.7649280676
  0
VERTEX
  8
0
 62
9
  6
CONTINUOUS
 10
189.9904747097
 20
288.1117380962
  0
VERTEX
  8
0
 62
9
  6
CONTINUOUS
 10
189.3180725013
 20
288.3486479367
  0
VERTEX
  8
0
 62
9
  6
CONTINUOUS
 10
188.6161428482
 20
288.473617063
  0
VERTEX
  8
0
 62
9
  6
CONTINUOUS
 10
187.8907287844
 20
288.485803599
  0
VERTEX
  8
0
 62
9
  6
CONTINUOUS
 10
187.147590183
 20
288.3852777602
  0
VERTEX
  8
0
 62
9
  6
CONTINUOUS
 10
186.3925924954
 20
288.1728342308
  0
VERTEX
  8
0
 62
9
  6
CONTINUOUS
 10
185.6316822588
 20
287.849987539
  0
VERTEX
  8
0
 62
9
  6
CONTINUOUS
 10
184.871341066
 20
287.419271497
  0
VERTEX
  8
0
 62
9
  6
CONTINUOUS
 10
184.1184256948
 20
286.8844745183
  0
VERTEX
  8
0
 62
9
  6
CONTINUOUS
 10
183.3797191486
 20
286.2505208916
  0
VERTEX
  8
0
 62
9
  6
CONTINUOUS
 10
182.6614101652
 20
285.5229384224
  0
VERTEX
  8
0
 62
9
  6
CONTINUOUS
 10
181.9691266438
 20
284.707569139
  0
VERTEX
  8
0
 62
9
  6
CONTINUOUS
 10
181.308474224
 20
283.8110178522
  0
SEQEND
  0
POLYLINE
  8
0
 62
7
  6
CONTINUOUS
 66
1
 70
0
  0
VERTEX
  8
0
 62
7
  6
CONTINUOUS
 10
192.7594738809
 20
285.7011036717
  0
VERTEX
  8
0
 62
7
  6
CONTINUOUS
 10
192.3474246431
 20
286.4045607048
  0
VERTEX
  8
0
 62
7
  6
CONTINUOUS
 10
191.8897779673
 20
287.03332928
  0
VERTEX
  8
0
 62
7
  6
CONTINUOUS
 10
191.3906694135
 20
287.582973465
  0
VERTEX
  8
0
 62
7
  6
CONTINUOUS
 10
190.8548199517
 20
288.0501809312
  0
VERTEX
  8
0
 62
7
  6
CONTINUOUS
 10
190.286893745
 20
288.4331234301
  0
VERTEX
  8
0
 62
7
  6
CONTINUOUS
 10
189.6907324694
 20
288.7312808841
  0
VERTEX
  8
0
 62
7
  6
CONTINUOUS
 10
189.0693130912
 20
288.9445817681
  0
SEQEND
  0
LINE
  8
0
 62
9
  6
CONTINUOUS
 10
203.8247941638
 20
264.1935712383
 11
192.7147960356
 21
285.3539195617
  0
LINE
  8
0
 62
7
  6
CONTINUOUS
 10
203.8712232566
 20
264.5374198836
 11
192.7594738809
 21
285.7011036717
  0
POLYLINE
  8
0
 62
7
  6
CONTINUOUS
 66
1
 70
0
  0
VERTEX
  8
0
 62
7
  6
CONTINUOUS
 10
203.8712020078
 20
264.5374316861
  0
VERTEX
  8
0
 62
7
  6
CONTINUOUS
 10
203.8893578446
 20
264.4930517705
  0
VERTEX
  8
0
 62
7
  6
CONTINUOUS
 10
203.900611261
 20
264.4221051914
  0
VERTEX
  8
0
 62
7
  6
CONTINUOUS
 10
203.8932970176
 20
264.3465951904
  0
VERTEX
  8
0
 62
7
  6
CONTINUOUS
 10
203.8676972416
 20
264.2694308699
  0
VERTEX
  8
0
 62
7
  6
CONTINUOUS
 10
203.8247941638
 20
264.1935712383
  0
SEQEND
  0
POLYLINE
  8
0
 62
9
  6
CONTINUOUS
 66
1
 70
0
  0
VERTEX
  8
0
 62
9
  6
CONTINUOUS
 10
189.0693057555
 20
288.944583747
  0
VERTEX
  8
0
 62
9
  6
CONTINUOUS
 10
188.3148414709
 20
289.0812533874
  0
VERTEX
  8
0
 62
9
  6
CONTINUOUS
 10
187.5625755325
 20
289.0938920017
  0
VERTEX
  8
0
 62
9
  6
CONTINUOUS
 10
186.7919290588
 20
288.9896483723
  0
VERTEX
  8
0
 62
9
  6
CONTINUOUS
 10
186.0089843822
 20
288.7693464785
  0
VERTEX
  8
0
 62
9
  6
CONTINUOUS
 10
185.2199078921
 20
288.4345567437
  0
VERTEX
  8
0
 62
9
  6
CONTINUOUS
 10
184.431420788
 20
287.9879065007
  0
VERTEX
  8
0
 62
9
  6
CONTINUOUS
 10
183.6506333548
 20
287.4333240803
  0
VERTEX
  8
0
 62
9
  6
CONTINUOUS
 10
182.8845794952
 20
286.7759155806
  0
VERTEX
  8
0
 62
9
  6
CONTINUOUS
 10
182.139676847
 20
286.0214134844
  0
VERTEX
  8
0
 62
9
  6
CONTINUOUS
 10
181.4217617888
 20
285.1758748724
  0
VERTEX
  8
0
 62
9
  6
CONTINUOUS
 10
180.7365197153
 20
284.2459651957
  0
SEQEND
  0
POLYLINE
  8
0
 62
9
  6
CONTINUOUS
 66
1
 70
0
  0
VERTEX
  8
0
 62
9
  6
CONTINUOUS
 10
176.0353660143
 20
292.4605118536
  0
VERTEX
  8
0
 62
9
  6
CONTINUOUS
 10
175.2809017296
 20
292.597181494
  0
VERTEX
  8
0
 62
9
  6
CONTINUOUS
 10
174.5286357912
 20
292.6098201084
  0
VERTEX
  8
0
 62
9
  6
CONTINUOUS
 10
173.7579893176
 20
292.505576479
  0
VERTEX
  8
0
 62
9
  6
CONTINUOUS
 10
172.975044641
 20
292.2852745851
  0
VERTEX
  8
0
 62
9
  6
CONTINUOUS
 10
172.1859681509
 20
291.9504848504
  0
VERTEX
  8
0
 62
9
  6
CONTINUOUS
 10
171.3974810468
 20
291.5038346073
  0
VERTEX
  8
0
 62
9
  6
CONTINUOUS
 10
170.6166936135
 20
290.949252187
  0
VERTEX
  8
0
 62
9
  6
CONTINUOUS
 10
169.850639754
 20
290.2918436872
  0
VERTEX
  8
0
 62
9
  6
CONTINUOUS
 10
169.1057371058
 20
289.537341591
  0
VERTEX
  8
0
 62
9
  6
CONTINUOUS
 10
168.3878220476
 20
288.691802979
  0
VERTEX
  8
0
 62
9
  6
CONTINUOUS
 10
167.7025799741
 20
287.7618933024
  0
SEQEND
  0
POLYLINE
  8
0
 62
7
  6
CONTINUOUS
 66
1
 70
0
  0
VERTEX
  8
0
 62
7
  6
CONTINUOUS
 10
188.2546918574
 20
289.1643272748
  0
VERTEX
  8
0
 62
7
  6
CONTINUOUS
 10
187.5076156957
 20
289.3047698704
  0
VERTEX
  8
0
 62
7
  6
CONTINUOUS
 10
186.7329109242
 20
289.3298610898
  0
VERTEX
  8
0
 62
7
  6
CONTINUOUS
 10
185.9350381747
 20
289.2372200151
  0
VERTEX
  8
0
 62
7
  6
CONTINUOUS
 10
185.1205185968
 20
289.024882334
  0
VERTEX
  8
0
 62
7
  6
CONTINUOUS
 10
184.2977374973
 20
288.6926697213
  0
VERTEX
  8
0
 62
7
  6
CONTINUOUS
 10
183.475942466
 20
288.242856025
  0
VERTEX
  8
0
 62
7
  6
CONTINUOUS
 10
182.6641250649
 20
287.6799293587
  0
VERTEX
  8
0
 62
7
  6
CONTINUOUS
 10
181.870411994
 20
287.0099206317
  0
VERTEX
  8
0
 62
7
  6
CONTINUOUS
 10
181.1019773782
 20
286.2398008034
  0
VERTEX
  8
0
 62
7
  6
CONTINUOUS
 10
180.3652170717
 20
285.3771394302
  0
VERTEX
  8
0
 62
7
  6
CONTINUOUS
 10
179.6659437204
 20
284.4299577726
  0
SEQEND
  0
POLYLINE
  8
0
 62
7
  6
CONTINUOUS
 66
1
 70
0
  0
VERTEX
  8
0
 62
7
  6
CONTINUOUS
 10
175.2207521162
 20
292.6802553814
  0
VERTEX
  8
0
 62
7
  6
CONTINUOUS
 10
174.4736759545
 20
292.820697977
  0
VERTEX
  8
0
 62
7
  6
CONTINUOUS
 10
173.698971183
 20
292.8457891964
  0
VERTEX
  8
0
 62
7
  6
CONTINUOUS
 10
172.9010984334
 20
292.7531481217
  0
VERTEX
  8
0
 62
7
  6
CONTINUOUS
 10
172.0865788555
 20
292.5408104406
  0
VERTEX
  8
0
 62
7
  6
CONTINUOUS
 10
171.2637977561
 20
292.208597828
  0
VERTEX
  8
0
 62
7
  6
CONTINUOUS
 10
170.4420027248
 20
291.7587841316
  0
VERTEX
  8
0
 62
7
  6
CONTINUOUS
 10
169.6301853236
 20
291.1958574653
  0
VERTEX
  8
0
 62
7
  6
CONTINUOUS
 10
168.8364722528
 20
290.5258487383
  0
VERTEX
  8
0
 62
7
  6
CONTINUOUS
 10
168.068037637
 20
289.75572891
  0
VERTEX
  8
0
 62
7
  6
CONTINUOUS
 10
167.3312773304
 20
288.8930675369
  0
VERTEX
  8
0
 62
7
  6
CONTINUOUS
 10
166.6320039791
 20
287.9458858792
  0
SEQEND
  0
LINE
  8
0
 62
7
  6
CONTINUOUS
 10
175.2207521162
 20
292.6802553814
 11
176.03537335
 21
292.4605098748
  0
LINE
  8
0
 62
7
  6
CONTINUOUS
 10
188.2546918574
 20
289.1643272748
 11
189.0693130912
 21
288.9445817681
  0
ARC
  8
0
 62
7
  6
CONTINUOUS
 10
77.4
 20
190.6321875
 40
48.4975
 50
104.4373009655
 51
179.246086409
  0
ARC
  8
0
 62
7
  6
CONTINUOUS
 10
77.4
 20
190.6321875
 40
48.4975
 50
0.753913591
 51
75.5626990345
  0
ARC
  8
0
 62
9
  6
CONTINUOUS
 10
43.6436238022
 20
224.8356875
 40
14.294
 50
90.0
 51
179.246086409
  0
ARC
  8
0
 62
9
  6
CONTINUOUS
 10
111.1563761978
 20
224.8356875
 40
14.294
 50
0.753913591
 51
90.0
  0
ARC
  8
0
 62
9
  6
CONTINUOUS
 10
43.6436238022
 20
224.8356875
 40
13.7835000078
 50
90.0
 51
179.246086409
  0
ARC
  8
0
 62
9
  6
CONTINUOUS
 10
111.1563761978
 20
224.8356875
 40
13.7835000078
 50
0.753913591
 51
90.0
  0
ARC
  8
0
 62
7
  6
CONTINUOUS
 10
109.3150830472
 20
222.5384375
 40
0.5105
 50
1.0
 51
90.0
  0
ARC
  8
0
 62
7
  6
CONTINUOUS
 10
45.4849169528
 20
222.5384375
 40
0.5105
 50
90.0
 51
179.0
  0
CIRCLE
  8
0
 62
7
  6
CONTINUOUS
 10
117.219
 20
262.951661219
 40
4.5945
  0
CIRCLE
  8
0
 62
7
  6
CONTINUOUS
 10
77.4
 20
262.951661219
 40
2.7567
  0
CIRCLE
  8
0
 62
7
  6
CONTINUOUS
 10
117.219
 20
262.951661219
 40
2.60355
  0
CIRCLE
  8
0
 62
7
  6
CONTINUOUS
 10
37.581
 20
262.951661219
 40
2.60355
  0
CIRCLE
  8
0
 62
7
  6
CONTINUOUS
 10
77.4
 20
262.951661219
 40
2.3483
  0
CIRCLE
  8
0
 62
7
  6
CONTINUOUS
 10
117.219
 20
153.2
 40
4.5945
  0
CIRCLE
  8
0
 62
7
  6
CONTINUOUS
 10
77.4
 20
153.2
 40
2.7567
  0
CIRCLE
  8
0
 62
7
  6
CONTINUOUS
 10
117.219
 20
153.2
 40
2.60355
  0
CIRCLE
  8
0
 62
7
  6
CONTINUOUS
 10
37.581
 20
153.2
 40
2.60355
  0
CIRCLE
  8
0
 62
7
  6
CONTINUOUS
 10
77.4
 20
153.2
 40
2.3483
  0
ENDSEC
  0
EOF
