  0
SECTION
  2
HEADER
  9
$EXTMAX
 10
210.0
 20
297.0
 30
0.0
  9
$EXTMIN
 10
0.0
 20
0.0
 30
0.0
  9
$LIMMIN
 10
0.0
 20
0.0
  9
$LIMMAX
 10
210.0
 20
297.0
  9
$VIEWCTR
 10
105.0
 20
148.5
  9
$VIEWSIZE
 40
297.0
  9
$CLAYER
  8
0
  9
$LTSCALE
 40
19.36
  9
$CELTYPE
  6
BYLAYER
  9
$DIMSCALE
 40
1.0
  9
$DIMASZ
 40
3.5
  9
$DIMEXO
 40
2.2
  9
$DIMDLI
 40
13.376
  9
$DIMEXE
 40
6.336
  9
$DIMCEN
 40
3.168
  9
$DIMLFAC
 40
1.0
  9
$DIMBLK
  1
_FILLED
  9
$DIMTXT
 40
3.5
  9
$PDMODE
 70
3
  9
$PDSIZE
 40
0.3125
  9
$TILEMODE
 70
1
  0
ENDSEC
  0
SECTION
  2
TABLES
  0
TABLE
  2
LTYPE
 70
6
  0
LTYPE
  2
BYBLOCK
 70
0
  3

 72
65
 73
0
 40
0.0
  0
LTYPE
  2
BYLAYER
 70
0
  3

 72
65
 73
0
 40
0.0
  0
LTYPE
  2
CONTINUOUS
 70
64
  3
Solid line
 72
65
 73
0
 40
0.0
  0
LTYPE
  2
CENTER
 70
64
  3
____ _ ____ _ ____ _ ____ _ ____ _ ____ _ ____
 72
65
 73
4
 40
0.6
 49
0.375
 49
-0.075
 49
0.075
 49
-0.075
  0
LTYPE
  2
HIDDEN
 70
64
  3
- - - - - - - - - - - - - - - - - - - -
 72
65
 73
2
 40
0.2
 49
0.1
 49
-0.1
  0
LTYPE
  2
PHANTOM
 70
64
  3
_____ _ _ _____ _ _ _____ _ _ _____
 72
65
 73
6
 40
0.8
 49
0.45
 49
-0.05
 49
0.1
 49
-0.05
 49
0.1
 49
-0.05
  0
LTYPE
  2
DOT
 70
64
  3
. . . . . . . . . . . . . . . . . . . .
 72
65
 73
2
 40
0.2
 49
0.1
 49
-0.1
  0
LTYPE
  2
DASHED
 70
64
  3
- - - - - - - - - - - - - - - - - - - -
 72
65
 73
2
 40
0.2
 49
0.1
 49
-0.1
  0
ENDTAB
  0
TABLE
  2
LAYER
 70
36
  0
LAYER
  2
0
 70
0
 62
7
  6
CONTINUOUS
  0
LAYER
  2
DEFAULT_1
 70
0
 62
7
  6
CENTER
  0
LAYER
  2
DEFAULT_2
 70
0
 62
8
  6
HIDDEN
  0
LAYER
  2
DEFAULT_3
 70
0
 62
7
  6
PHANTOM
  0
LAYER
  2
1_DATUM_PLANE
 70
0
 62
7
  6
CONTINUOUS
  0
LAYER
  2
CURVES
 70
0
 62
7
  6
CONTINUOUS
  0
LAYER
  2
NOTES
 70
0
 62
7
  6
CONTINUOUS
  0
ENDTAB
  0
TABLE
  2
STYLE
 70
1
  0
STYLE
  2
STANDARD
 70
0
 40
0.0
 41
0.8
 50
0.0
 71
0
 42
0.2
  3
txt
  4

  0
STYLE
  2
TEXTSTYLE_1
 70
0
 40
0.0
 41
0.8
 50
0.0
 71
0
 42
0.2
  3
gdt
  4

  0
STYLE
  2
TEXTSTYLE_2
 70
0
 40
0.0
 41
1.0
 50
0.0
 71
0
 42
0.2
  3
frutiger light.ttf
  4

  0
STYLE
  2
TEXTSTYLE_3
 70
0
 40
0.0
 41
1.0
 50
0.0
 71
0
 42
0.2
  3
ftb_____.ttf
  4

  0
STYLE
  2
TEXTSTYLE_4
 70
0
 40
0.0
 41
1.0
 50
0.0
 71
0
 42
0.2
  3
fti_____.ttf
  4

  0
STYLE
  2
TEXTSTYLE_5
 70
0
 40
0.0
 41
1.0
 50
0.0
 71
0
 42
0.2
  3
frutiger light.ttf
  4

  0
STYLE
  2
TEXTSTYLE_6
 70
0
 40
0.0
 41
1.0
 50
0.0
 71
0
 42
0.2
  3
frutiger light.ttf
  4

  0
STYLE
  2
TEXTSTYLE_7
 70
0
 40
0.0
 41
1.0
 50
0.0
 71
0
 42
0.2
  3
frutiger light.ttf
  4

  0
STYLE
  2
TEXTSTYLE_8
 70
0
 40
0.0
 41
1.0
 50
0.0
 71
0
 42
0.2
  3
frutiger light.ttf
  4

  0
STYLE
  2
TEXTSTYLE_9
 70
0
 40
0.0
 41
1.0
 50
0.0
 71
0
 42
0.2
  3
ftr_____.ttf
  4

  0
STYLE
  2
TEXTSTYLE_10
 70
0
 40
0.0
 41
1.0
 50
0.0
 71
0
 42
0.2
  3
frutiger light.ttf
  4

  0
STYLE
  2
TEXTSTYLE_11
 70
0
 40
0.0
 41
1.0
 50
0.0
 71
0
 42
0.2
  3
frutiger light.ttf
  4

  0
ENDTAB
  0
ENDSEC
  0
SECTION
  2
BLOCKS
  0
BLOCK
  8
NOTES
 62
2
  6
CONTINUOUS
  2
BALLOON_BL2
 70
64
 10
30.9319852941
 20
188.5367647059
  0
CIRCLE
  8
NOTES
 62
2
  6
CONTINUOUS
 10
30.9319852941
 20
188.5367647059
 40
3.9910934831
  0
TEXT
  8
NOTES
 62
5
  6
CONTINUOUS
 10
29.5319852941
 20
186.7867647059
  7
STANDARD
 40
3.5
  1
A
 41
0.8
 72
0
  0
ENDBLK
  8
0
  6
BYBLOCK
 62
0
  0
BLOCK
  8
0
 62
2
  6
CONTINUOUS
  2
UNI_LOGO2_BL1
 70
64
 10
47.9221081579
 20
86.7496072713
  0
LINE
  8
0
 62
7
  6
CONTINUOUS
 10
14.2914039026
 20
87.624495893
 11
14.2914039026
 21
84.6408893356
  0
LINE
  8
0
 62
7
  6
CONTINUOUS
 10
14.6960913929
 20
80.4535855216
 11
14.6960913929
 21
80.5890930046
  0
LINE
  8
0
 62
7
  6
CONTINUOUS
 10
14.2914039026
 20
80.5439238436
 11
14.372341405
 21
80.2729088777
  0
LINE
  8
0
 62
7
  6
CONTINUOUS
 10
16.2422235747
 20
84.5261352373
 11
16.2422235747
 21
87.624495893
  0
LINE
  8
0
 62
7
  6
CONTINUOUS
 10
17.5289038254
 20
81.9441680241
 11
17.5289038254
 21
79.8212172045
  0
LINE
  8
0
 62
7
  6
CONTINUOUS
 10
17.9335914026
 20
79.8212172045
 11
17.9335914026
 21
80.8601080338
  0
LINE
  8
0
 62
7
  6
CONTINUOUS
 10
17.9335914026
 20
81.0407846778
 11
17.9335914026
 21
81.9441680241
  0
LINE
  8
0
 62
7
  6
CONTINUOUS
 10
14.372341405
 20
80.8149388728
 11
14.2914039026
 21
80.5439238436
  0
LINE
  8
0
 62
7
  6
CONTINUOUS
 10
14.8579663833
 20
80.2277397167
 11
14.6960913929
 21
80.4535855216
  0
LINE
  8
0
 62
7
  6
CONTINUOUS
 10
16.3957789798
 20
80.9504463558
 11
16.4767164026
 21
80.8149388728
  0
LINE
  8
0
 62
7
  6
CONTINUOUS
 10
16.8814039798
 20
80.8149388728
 11
16.8004663254
 21
80.9956155168
  0
LINE
  8
0
 62
7
  6
CONTINUOUS
 10
18.881567837
 20
87.624495893
 11
18.881567837
 21
85.0999057291
  0
LINE
  8
0
 62
7
  6
CONTINUOUS
 10
18.881567837
 20
83.2638401553
 11
18.881567837
 21
82.3458073684
  0
LINE
  8
0
 62
7
  6
CONTINUOUS
 10
19.3904664026
 20
80.7246005508
 11
19.3904664026
 21
79.8212172045
  0
LINE
  8
0
 62
7
  6
CONTINUOUS
 10
19.7951537482
 20
79.8212172045
 11
19.7951537482
 21
80.7246005508
  0
LINE
  8
0
 62
7
  6
CONTINUOUS
 10
14.6960913929
 20
80.5890930046
 11
14.7770289026
 21
80.7697697118
  0
LINE
  8
0
 62
7
  6
CONTINUOUS
 10
14.372341405
 20
80.2729088777
 11
14.5342164026
 21
80.0922322021
  0
LINE
  8
0
 62
7
  6
CONTINUOUS
 10
19.3095287482
 20
80.9052771948
 11
19.3904664026
 21
80.7246005508
  0
LINE
  8
0
 62
7
  6
CONTINUOUS
 10
20.442654057
 20
80.2277397167
 11
20.5235912482
 21
80.0470630411
  0
LINE
  8
0
 62
7
  6
CONTINUOUS
 10
19.7951537482
 20
80.7246005508
 11
19.714216557
 21
80.9504463558
  0
LINE
  8
0
 62
7
  6
CONTINUOUS
 10
20.442654057
 20
80.9956155168
 11
20.442654057
 21
80.9052771948
  0
LINE
  8
0
 62
7
  6
CONTINUOUS
 10
20.442654057
 20
80.3632471996
 11
20.442654057
 21
80.2277397167
  0
LINE
  8
0
 62
7
  6
CONTINUOUS
 10
20.8323875091
 20
82.3458073684
 11
20.8323875091
 21
87.624495893
  0
LINE
  8
0
 62
7
  6
CONTINUOUS
 10
20.8473414026
 20
80.182570524
 11
20.8473414026
 21
80.2729088777
  0
LINE
  8
0
 62
7
  6
CONTINUOUS
 10
21.2914039026
 20
87.624495893
 11
21.2914039026
 21
82.3458073684
  0
LINE
  8
0
 62
7
  6
CONTINUOUS
 10
16.8004663254
 20
80.0922322021
 11
16.8814039798
 21
80.2729088777
  0
LINE
  8
0
 62
7
  6
CONTINUOUS
 10
22.9517167113
 20
79.9567247033
 11
22.8707785938
 21
80.182570524
  0
LINE
  8
0
 62
7
  6
CONTINUOUS
 10
22.4660917113
 20
80.9052771948
 11
22.4660917113
 21
80.7697697118
  0
LINE
  8
0
 62
7
  6
CONTINUOUS
 10
22.4660917113
 20
80.5890930046
 11
22.4660917113
 21
80.3180780386
  0
LINE
  8
0
 62
7
  6
CONTINUOUS
 10
22.8707785938
 20
80.182570524
 11
22.8707785938
 21
80.9052771948
  0
LINE
  8
0
 62
7
  6
CONTINUOUS
 10
23.2422235747
 20
82.3458073684
 11
23.2422235747
 21
84.8703975323
  0
LINE
  8
0
 62
7
  6
CONTINUOUS
 10
23.2422235747
 20
86.7064631061
 11
23.2422235747
 21
87.624495893
  0
LINE
  8
0
 62
7
  6
CONTINUOUS
 10
23.6801542113
 20
81.9441680241
 11
23.6801542113
 21
81.7183222192
  0
LINE
  8
0
 62
7
  6
CONTINUOUS
 10
23.6801542113
 20
81.2666304827
 11
23.6801542113
 21
79.8212172045
  0
LINE
  8
0
 62
7
  6
CONTINUOUS
 10
24.0848410938
 20
79.8212172045
 11
24.0848410938
 21
81.2666304827
  0
LINE
  8
0
 62
7
  6
CONTINUOUS
 10
24.0848410938
 20
81.7183222192
 11
24.0848410938
 21
81.9441680241
  0
LINE
  8
0
 62
7
  6
CONTINUOUS
 10
16.4767164026
 20
80.2729088777
 11
16.3957789798
 21
80.137401363
  0
LINE
  8
0
 62
7
  6
CONTINUOUS
 10
19.714216557
 20
80.9504463558
 11
19.6332789026
 21
81.0407846778
  0
LINE
  8
0
 62
7
  6
CONTINUOUS
 10
20.928279057
 20
80.0922322021
 11
20.8473414026
 21
80.182570524
  0
LINE
  8
0
 62
7
  6
CONTINUOUS
 10
22.5470289026
 20
79.9115555344
 11
22.6279660938
 21
79.8212172045
  0
LINE
  8
0
 62
7
  6
CONTINUOUS
 10
22.4660917113
 20
80.0470630411
 11
22.5470289026
 21
79.9115555344
  0
LINE
  8
0
 62
7
  6
CONTINUOUS
 10
23.0326539026
 20
79.8212172045
 11
22.9517167113
 21
79.9567247033
  0
LINE
  8
0
 62
7
  6
CONTINUOUS
 10
22.8707785938
 20
80.9052771948
 11
22.7898414026
 21
81.0407846778
  0
LINE
  8
0
 62
7
  6
CONTINUOUS
 10
24.7323414026
 20
81.2666304827
 11
24.7323414026
 21
79.8212172045
  0
LINE
  8
0
 62
7
  6
CONTINUOUS
 10
25.1370292113
 20
79.8212172045
 11
25.1370292113
 21
80.8601080338
  0
LINE
  8
0
 62
7
  6
CONTINUOUS
 10
25.1370292113
 20
81.0407846778
 11
25.1370292113
 21
81.2666304827
  0
LINE
  8
0
 62
7
  6
CONTINUOUS
 10
25.881567837
 20
85.4441680241
 11
25.881567837
 21
82.3458073684
  0
LINE
  8
0
 62
7
  6
CONTINUOUS
 10
14.5342164026
 20
80.9956155168
 11
14.372341405
 21
80.8149388728
  0
LINE
  8
0
 62
7
  6
CONTINUOUS
 10
14.7770289026
 20
80.7697697118
 11
14.8579663833
 21
80.8601080338
  0
LINE
  8
0
 62
7
  6
CONTINUOUS
 10
14.5342164026
 20
80.0922322021
 11
14.6960913929
 21
80.0018938643
  0
LINE
  8
0
 62
7
  6
CONTINUOUS
 10
15.1007788833
 20
80.0922322021
 11
14.8579663833
 21
80.2277397167
  0
LINE
  8
0
 62
7
  6
CONTINUOUS
 10
22.3851535938
 20
80.9956155168
 11
22.4660917113
 21
80.9052771948
  0
LINE
  8
0
 62
7
  6
CONTINUOUS
 10
26.5129660938
 20
80.9052771948
 11
26.5939042113
 21
80.6794313898
  0
LINE
  8
0
 62
7
  6
CONTINUOUS
 10
26.9985910938
 20
80.6794313898
 11
26.9176539026
 21
80.9052771948
  0
LINE
  8
0
 62
7
  6
CONTINUOUS
 10
26.5939042113
 20
80.6794313898
 11
26.5939042113
 21
79.8212172045
  0
LINE
  8
0
 62
7
  6
CONTINUOUS
 10
26.9985910938
 20
79.8212172045
 11
26.9985910938
 21
80.6794313898
  0
LINE
  8
0
 62
7
  6
CONTINUOUS
 10
27.6460914026
 20
80.9956155168
 11
27.6460914026
 21
80.9052771948
  0
LINE
  8
0
 62
7
  6
CONTINUOUS
 10
27.8323875091
 20
82.3458073684
 11
27.8323875091
 21
85.3294139258
  0
LINE
  8
0
 62
7
  6
CONTINUOUS
 10
28.2914039026
 20
87.624495893
 11
28.2914039026
 21
82.3458073684
  0
LINE
  8
0
 62
7
  6
CONTINUOUS
 10
20.8473414026
 20
80.2729088777
 11
20.928279057
 21
80.4084163606
  0
LINE
  8
0
 62
7
  6
CONTINUOUS
 10
14.6960913929
 20
80.0018938643
 11
14.9389039219
 21
79.9115555344
  0
LINE
  8
0
 62
7
  6
CONTINUOUS
 10
16.8004663254
 20
80.9956155168
 11
16.5576538254
 21
81.1311229998
  0
LINE
  8
0
 62
7
  6
CONTINUOUS
 10
20.5235912482
 20
80.0470630411
 11
20.7664037482
 21
79.9115555344
  0
LINE
  8
0
 62
7
  6
CONTINUOUS
 10
19.1476539026
 20
80.9956155168
 11
19.3095287482
 21
80.9052771948
  0
LINE
  8
0
 62
7
  6
CONTINUOUS
 10
19.6332789026
 20
81.0407846778
 11
19.471404057
 21
81.1311229998
  0
LINE
  8
0
 62
7
  6
CONTINUOUS
 10
27.6460914026
 20
80.182570524
 11
27.8079667113
 21
80.0018938643
  0
LINE
  8
0
 62
7
  6
CONTINUOUS
 10
28.1317164026
 20
80.0922322021
 11
28.0507792113
 21
80.182570524
  0
LINE
  8
0
 62
7
  6
CONTINUOUS
 10
27.6460914026
 20
80.9052771948
 11
27.8079667113
 21
80.7246005508
  0
LINE
  8
0
 62
7
  6
CONTINUOUS
 10
26.9176539026
 20
80.9052771948
 11
26.8367167113
 21
81.0407846778
  0
LINE
  8
0
 62
7
  6
CONTINUOUS
 10
30.2360907851
 20
80.0922322021
 11
30.2360907851
 21
80.182570524
  0
LINE
  8
0
 62
7
  6
CONTINUOUS
 10
30.2422235747
 20
82.3458073684
 11
30.2422235747
 21
87.624495893
  0
LINE
  8
0
 62
7
  6
CONTINUOUS
 10
20.5235912482
 20
81.0859538388
 11
20.442654057
 21
80.9956155168
  0
LINE
  8
0
 62
7
  6
CONTINUOUS
 10
16.152966364
 20
81.0407846778
 11
16.3957789798
 21
80.9504463558
  0
LINE
  8
0
 62
7
  6
CONTINUOUS
 10
22.7898414026
 20
81.0407846778
 11
22.6279660938
 21
81.1311229998
  0
LINE
  8
0
 62
7
  6
CONTINUOUS
 10
28.1317164026
 20
80.8149388728
 11
28.0507792113
 21
80.9052771948
  0
LINE
  8
0
 62
7
  6
CONTINUOUS
 10
29.7504667113
 20
80.2729088777
 11
29.8314039026
 21
80.182570524
  0
LINE
  8
0
 62
7
  6
CONTINUOUS
 10
30.2360907851
 20
80.182570524
 11
30.0742164026
 21
80.3632471996
  0
LINE
  8
0
 62
7
  6
CONTINUOUS
 10
29.7504667113
 20
80.9956155168
 11
29.8314039026
 21
80.9052771948
  0
LINE
  8
0
 62
7
  6
CONTINUOUS
 10
30.2360907851
 20
80.9052771948
 11
30.0742164026
 21
81.0859538388
  0
LINE
  8
0
 62
7
  6
CONTINUOUS
 10
20.8473414026
 20
80.9052771948
 11
20.928279057
 21
80.9956155168
  0
LINE
  8
0
 62
7
  6
CONTINUOUS
 10
20.6045289026
 20
80.5439238436
 11
20.442654057
 21
80.3632471996
  0
LINE
  8
0
 62
7
  6
CONTINUOUS
 10
22.4660917113
 20
80.3180780386
 11
22.3851535938
 21
80.2277397167
  0
LINE
  8
0
 62
7
  6
CONTINUOUS
 10
22.3851535938
 20
79.9567247033
 11
22.4660917113
 21
80.0470630411
  0
LINE
  8
0
 62
7
  6
CONTINUOUS
 10
20.7664037482
 20
79.9115555344
 11
20.928279057
 21
79.8663863694
  0
LINE
  8
0
 62
7
  6
CONTINUOUS
 10
16.5576538254
 20
81.1311229998
 11
16.2339039026
 21
81.2214613217
  0
LINE
  8
0
 62
7
  6
CONTINUOUS
 10
21.2520287482
 20
80.0018938643
 11
20.928279057
 21
80.0922322021
  0
LINE
  8
0
 62
7
  6
CONTINUOUS
 10
19.471404057
 20
81.1311229998
 11
19.228591557
 21
81.2214613217
  0
LINE
  8
0
 62
7
  6
CONTINUOUS
 10
22.6279660938
 20
81.1311229998
 11
22.3851535938
 21
81.2214613217
  0
LINE
  8
0
 62
7
  6
CONTINUOUS
 10
26.3510917113
 20
80.9956155168
 11
26.5129660938
 21
80.9052771948
  0
LINE
  8
0
 62
7
  6
CONTINUOUS
 10
26.8367167113
 20
81.0407846778
 11
26.6748414026
 21
81.1311229998
  0
LINE
  8
0
 62
7
  6
CONTINUOUS
 10
14.9389039219
 20
79.9115555344
 11
15.1817164219
 21
79.8663863694
  0
LINE
  8
0
 62
7
  6
CONTINUOUS
 10
15.5864039412
 20
80.0018938643
 11
15.1007788833
 21
80.0922322021
  0
LINE
  8
0
 62
7
  6
CONTINUOUS
 10
18.985779057
 20
81.0407846778
 11
19.1476539026
 21
80.9956155168
  0
LINE
  8
0
 62
7
  6
CONTINUOUS
 10
22.2232792113
 20
81.0407846778
 11
22.3851535938
 21
80.9956155168
  0
LINE
  8
0
 62
7
  6
CONTINUOUS
 10
28.2935917113
 20
80.0470630411
 11
28.1317164026
 21
80.0922322021
  0
LINE
  8
0
 62
7
  6
CONTINUOUS
 10
26.1892164026
 20
81.0407846778
 11
26.3510917113
 21
80.9956155168
  0
LINE
  8
0
 62
7
  6
CONTINUOUS
 10
27.8079667113
 20
80.0018938643
 11
28.0507792113
 21
79.9115555344
  0
LINE
  8
0
 62
7
  6
CONTINUOUS
 10
26.6748414026
 20
81.1311229998
 11
26.4320289026
 21
81.2214613217
  0
LINE
  8
0
 62
7
  6
CONTINUOUS
 10
28.3745289026
 20
80.7246005508
 11
28.1317164026
 21
80.8149388728
  0
LINE
  8
0
 62
7
  6
CONTINUOUS
 10
29.5076542113
 20
80.3632471996
 11
29.7504667113
 21
80.2729088777
  0
LINE
  8
0
 62
7
  6
CONTINUOUS
 10
30.0742164026
 20
81.0859538388
 11
29.8314039026
 21
81.1762921607
  0
LINE
  8
0
 62
7
  6
CONTINUOUS
 10
27.8079667113
 20
80.7246005508
 11
28.1317164026
 21
80.5890930046
  0
LINE
  8
0
 62
7
  6
CONTINUOUS
 10
30.0742164026
 20
80.3632471996
 11
29.7504667113
 21
80.4987546826
  0
LINE
  8
0
 62
7
  6
CONTINUOUS
 10
28.0507792113
 20
80.9052771948
 11
28.1317164026
 21
80.9956155168
  0
LINE
  8
0
 62
7
  6
CONTINUOUS
 10
14.6960913929
 20
81.0859538388
 11
14.5342164026
 21
80.9956155168
  0
LINE
  8
0
 62
7
  6
CONTINUOUS
 10
14.8579663833
 20
80.8601080338
 11
15.1007788833
 21
80.9956155168
  0
LINE
  8
0
 62
7
  6
CONTINUOUS
 10
18.0954664798
 20
81.1311229998
 11
17.9335914026
 21
81.0407846778
  0
LINE
  8
0
 62
7
  6
CONTINUOUS
 10
17.9335914026
 20
80.8601080338
 11
18.0954664798
 21
80.9504463558
  0
LINE
  8
0
 62
7
  6
CONTINUOUS
 10
16.5576538254
 20
79.9567247033
 11
16.8004663254
 21
80.0922322021
  0
LINE
  8
0
 62
7
  6
CONTINUOUS
 10
15.1817164219
 20
79.8663863694
 11
15.667341364
 21
79.8212172045
  0
LINE
  8
0
 62
7
  6
CONTINUOUS
 10
20.928279057
 20
79.8663863694
 11
21.2520287482
 21
79.8212172045
  0
LINE
  8
0
 62
7
  6
CONTINUOUS
 10
18.6620289026
 20
81.0859538388
 11
18.985779057
 21
81.0407846778
  0
LINE
  8
0
 62
7
  6
CONTINUOUS
 10
21.899529057
 20
81.0859538388
 11
22.2232792113
 21
81.0407846778
  0
LINE
  8
0
 62
7
  6
CONTINUOUS
 10
28.1317164026
 20
80.5890930046
 11
29.5076542113
 21
80.3632471996
  0
LINE
  8
0
 62
7
  6
CONTINUOUS
 10
29.7504667113
 20
80.4987546826
 11
28.3745289026
 21
80.7246005508
  0
LINE
  8
0
 62
7
  6
CONTINUOUS
 10
19.228591557
 20
81.2214613217
 11
18.985779057
 21
81.2666304827
  0
LINE
  8
0
 62
7
  6
CONTINUOUS
 10
28.0507792113
 20
79.9115555344
 11
28.2935917113
 21
79.8663863694
  0
LINE
  8
0
 62
7
  6
CONTINUOUS
 10
26.4320289026
 20
81.2214613217
 11
26.1892164026
 21
81.2666304827
  0
LINE
  8
0
 62
7
  6
CONTINUOUS
 10
29.5885914026
 20
81.0407846778
 11
29.7504667113
 21
80.9956155168
  0
LINE
  8
0
 62
7
  6
CONTINUOUS
 10
29.8314039026
 20
80.182570524
 11
29.7504667113
 21
80.0922322021
  0
LINE
  8
0
 62
7
  6
CONTINUOUS
 10
27.8079667113
 20
81.1311229998
 11
27.6460914026
 21
80.9956155168
  0
LINE
  8
0
 62
7
  6
CONTINUOUS
 10
20.685466557
 20
81.1762921607
 11
20.5235912482
 21
81.0859538388
  0
LINE
  8
0
 62
7
  6
CONTINUOUS
 10
20.7664037482
 20
80.6342622289
 11
20.6045289026
 21
80.5439238436
  0
LINE
  8
0
 62
7
  6
CONTINUOUS
 10
20.928279057
 20
80.4084163606
 11
21.0901539026
 21
80.4987546826
  0
LINE
  8
0
 62
7
  6
CONTINUOUS
 10
17.5289038254
 20
79.8212172045
 11
17.9335914026
 21
79.8212172045
  0
LINE
  8
0
 62
7
  6
CONTINUOUS
 10
19.3904664026
 20
79.8212172045
 11
19.7951537482
 21
79.8212172045
  0
LINE
  8
0
 62
7
  6
CONTINUOUS
 10
21.2520287482
 20
79.8212172045
 11
21.7376537482
 21
79.8212172045
  0
LINE
  8
0
 62
7
  6
CONTINUOUS
 10
22.6279660938
 20
79.8212172045
 11
23.0326539026
 21
79.8212172045
  0
LINE
  8
0
 62
7
  6
CONTINUOUS
 10
23.6801542113
 20
79.8212172045
 11
24.0848410938
 21
79.8212172045
  0
LINE
  8
0
 62
7
  6
CONTINUOUS
 10
24.7323414026
 20
79.8212172045
 11
25.1370292113
 21
79.8212172045
  0
LINE
  8
0
 62
7
  6
CONTINUOUS
 10
26.5939042113
 20
79.8212172045
 11
26.9985910938
 21
79.8212172045
  0
LINE
  8
0
 62
7
  6
CONTINUOUS
 10
28.7792167113
 20
79.8212172045
 11
29.2648417113
 21
79.8212172045
  0
LINE
  8
0
 62
7
  6
CONTINUOUS
 10
29.2648417113
 20
80.0018938643
 11
28.7792167113
 21
80.0018938643
  0
LINE
  8
0
 62
7
  6
CONTINUOUS
 10
21.7376537482
 20
80.0018938643
 11
21.2520287482
 21
80.0018938643
  0
LINE
  8
0
 62
7
  6
CONTINUOUS
 10
28.0507792113
 20
80.182570524
 11
27.6460914026
 21
80.182570524
  0
LINE
  8
0
 62
7
  6
CONTINUOUS
 10
16.8814039798
 20
80.2729088777
 11
16.4767164026
 21
80.2729088777
  0
LINE
  8
0
 62
7
  6
CONTINUOUS
 10
15.5864039412
 20
81.0859538388
 11
16.152966364
 21
81.0407846778
  0
LINE
  8
0
 62
7
  6
CONTINUOUS
 10
16.2339039026
 20
81.2214613217
 11
15.667341364
 21
81.2666304827
  0
LINE
  8
0
 62
7
  6
CONTINUOUS
 10
28.2935917113
 20
79.8663863694
 11
28.7792167113
 21
79.8212172045
  0
LINE
  8
0
 62
7
  6
CONTINUOUS
 10
28.7792167113
 20
80.0018938643
 11
28.2935917113
 21
80.0470630411
  0
LINE
  8
0
 62
7
  6
CONTINUOUS
 10
22.3851535938
 20
81.2214613217
 11
21.899529057
 21
81.2666304827
  0
LINE
  8
0
 62
7
  6
CONTINUOUS
 10
29.1029664026
 20
81.0859538388
 11
29.5885914026
 21
81.0407846778
  0
LINE
  8
0
 62
7
  6
CONTINUOUS
 10
29.5885914026
 20
81.2214613217
 11
29.1029664026
 21
81.2666304827
  0
LINE
  8
0
 62
7
  6
CONTINUOUS
 10
25.8654667113
 20
81.0859538388
 11
26.1892164026
 21
81.0407846778
  0
LINE
  8
0
 62
7
  6
CONTINUOUS
 10
29.8314039026
 20
81.1762921607
 11
29.5885914026
 21
81.2214613217
  0
LINE
  8
0
 62
7
  6
CONTINUOUS
 10
30.0742164026
 20
79.9567247033
 11
30.2360907851
 21
80.0922322021
  0
LINE
  8
0
 62
7
  6
CONTINUOUS
 10
22.3851535938
 20
80.2277397167
 11
22.1423410938
 21
80.0922322021
  0
LINE
  8
0
 62
7
  6
CONTINUOUS
 10
25.2989035938
 20
81.1311229998
 11
25.1370292113
 21
81.0407846778
  0
LINE
  8
0
 62
7
  6
CONTINUOUS
 10
25.1370292113
 20
80.8601080338
 11
25.2989035938
 21
80.9504463558
  0
LINE
  8
0
 62
7
  6
CONTINUOUS
 10
14.9389039219
 20
81.1762921607
 11
14.6960913929
 21
81.0859538388
  0
LINE
  8
0
 62
7
  6
CONTINUOUS
 10
18.3382787482
 20
81.2214613217
 11
18.0954664798
 21
81.1311229998
  0
LINE
  8
0
 62
7
  6
CONTINUOUS
 10
18.0954664798
 20
80.9504463558
 11
18.3382787482
 21
81.0407846778
  0
LINE
  8
0
 62
7
  6
CONTINUOUS
 10
16.3957789798
 20
80.137401363
 11
16.152966364
 21
80.0470630411
  0
LINE
  8
0
 62
7
  6
CONTINUOUS
 10
29.5885914026
 20
80.0470630411
 11
29.2648417113
 21
80.0018938643
  0
LINE
  8
0
 62
7
  6
CONTINUOUS
 10
21.7376537482
 20
79.8212172045
 11
22.1423410938
 21
79.8663863694
  0
LINE
  8
0
 62
7
  6
CONTINUOUS
 10
29.2648417113
 20
79.8212172045
 11
29.7504667113
 21
79.8663863694
  0
LINE
  8
0
 62
7
  6
CONTINUOUS
 10
15.667341364
 20
79.8212172045
 11
16.2339039026
 21
79.8663863694
  0
LINE
  8
0
 62
7
  6
CONTINUOUS
 10
16.152966364
 20
80.0470630411
 11
15.5864039412
 21
80.0018938643
  0
LINE
  8
0
 62
7
  6
CONTINUOUS
 10
21.5757789026
 20
80.5890930046
 11
22.4660917113
 21
80.5890930046
  0
LINE
  8
0
 62
7
  6
CONTINUOUS
 10
22.4660917113
 20
80.7697697118
 11
21.5757789026
 21
80.7697697118
  0
LINE
  8
0
 62
7
  6
CONTINUOUS
 10
16.4767164026
 20
80.8149388728
 11
16.8814039798
 21
80.8149388728
  0
LINE
  8
0
 62
7
  6
CONTINUOUS
 10
20.442654057
 20
80.9052771948
 11
20.8473414026
 21
80.9052771948
  0
LINE
  8
0
 62
7
  6
CONTINUOUS
 10
29.8314039026
 20
80.9052771948
 11
30.2360907851
 21
80.9052771948
  0
LINE
  8
0
 62
7
  6
CONTINUOUS
 10
21.413904057
 20
81.0859538388
 11
21.899529057
 21
81.0859538388
  0
LINE
  8
0
 62
7
  6
CONTINUOUS
 10
28.6173414026
 20
81.0859538388
 11
29.1029664026
 21
81.0859538388
  0
LINE
  8
0
 62
7
  6
CONTINUOUS
 10
29.1029664026
 20
81.2666304827
 11
28.6173414026
 21
81.2666304827
  0
LINE
  8
0
 62
7
  6
CONTINUOUS
 10
26.1892164026
 20
81.2666304827
 11
25.8654667113
 21
81.2666304827
  0
LINE
  8
0
 62
7
  6
CONTINUOUS
 10
25.1370292113
 20
81.2666304827
 11
24.7323414026
 21
81.2666304827
  0
LINE
  8
0
 62
7
  6
CONTINUOUS
 10
24.0848410938
 20
81.2666304827
 11
23.6801542113
 21
81.2666304827
  0
LINE
  8
0
 62
7
  6
CONTINUOUS
 10
21.899529057
 20
81.2666304827
 11
21.413904057
 21
81.2666304827
  0
LINE
  8
0
 62
7
  6
CONTINUOUS
 10
18.985779057
 20
81.2666304827
 11
18.6620289026
 21
81.2666304827
  0
LINE
  8
0
 62
7
  6
CONTINUOUS
 10
23.6801542113
 20
81.7183222192
 11
24.0848410938
 21
81.7183222192
  0
LINE
  8
0
 62
7
  6
CONTINUOUS
 10
24.0848410938
 20
81.9441680241
 11
23.6801542113
 21
81.9441680241
  0
LINE
  8
0
 62
7
  6
CONTINUOUS
 10
17.9335914026
 20
81.9441680241
 11
17.5289038254
 21
81.9441680241
  0
LINE
  8
0
 62
7
  6
CONTINUOUS
 10
16.5864858698
 20
82.3458073684
 11
17.1640857578
 21
82.3458073684
  0
LINE
  8
0
 62
7
  6
CONTINUOUS
 10
18.881567837
 20
82.3458073684
 11
20.8323875091
 21
82.3458073684
  0
LINE
  8
0
 62
7
  6
CONTINUOUS
 10
21.2914039026
 20
82.3458073684
 11
23.2422235747
 21
82.3458073684
  0
LINE
  8
0
 62
7
  6
CONTINUOUS
 10
25.881567837
 20
82.3458073684
 11
27.8323875091
 21
82.3458073684
  0
LINE
  8
0
 62
7
  6
CONTINUOUS
 10
28.2914039026
 20
82.3458073684
 11
30.2422235747
 21
82.3458073684
  0
LINE
  8
0
 62
7
  6
CONTINUOUS
 10
25.5417160938
 20
81.2214613217
 11
25.2989035938
 21
81.1311229998
  0
LINE
  8
0
 62
7
  6
CONTINUOUS
 10
22.1423410938
 20
79.8663863694
 11
22.3851535938
 21
79.9567247033
  0
LINE
  8
0
 62
7
  6
CONTINUOUS
 10
29.7504667113
 20
79.8663863694
 11
30.0742164026
 21
79.9567247033
  0
LINE
  8
0
 62
7
  6
CONTINUOUS
 10
29.7504667113
 20
80.0922322021
 11
29.5885914026
 21
80.0470630411
  0
LINE
  8
0
 62
7
  6
CONTINUOUS
 10
28.2935917113
 20
81.0407846778
 11
28.6173414026
 21
81.0859538388
  0
LINE
  8
0
 62
7
  6
CONTINUOUS
 10
25.5417160938
 20
81.0407846778
 11
25.8654667113
 21
81.0859538388
  0
LINE
  8
0
 62
7
  6
CONTINUOUS
 10
21.2520287482
 20
80.5439238436
 11
21.5757789026
 21
80.5890930046
  0
LINE
  8
0
 62
7
  6
CONTINUOUS
 10
25.8654667113
 20
81.2666304827
 11
25.5417160938
 21
81.2214613217
  0
LINE
  8
0
 62
7
  6
CONTINUOUS
 10
21.0901539026
 20
81.0407846778
 11
21.413904057
 21
81.0859538388
  0
LINE
  8
0
 62
7
  6
CONTINUOUS
 10
28.6173414026
 20
81.2666304827
 11
28.1317164026
 21
81.2214613217
  0
LINE
  8
0
 62
7
  6
CONTINUOUS
 10
21.5757789026
 20
80.7697697118
 11
21.0901539026
 21
80.7246005508
  0
LINE
  8
0
 62
7
  6
CONTINUOUS
 10
15.667341364
 20
81.2666304827
 11
15.1817164219
 21
81.2214613217
  0
LINE
  8
0
 62
7
  6
CONTINUOUS
 10
21.413904057
 20
81.2666304827
 11
20.8473414026
 21
81.2214613217
  0
LINE
  8
0
 62
7
  6
CONTINUOUS
 10
17.7340268534
 20
83.9523647455
 11
16.8159940665
 21
83.9523647455
  0
LINE
  8
0
 62
7
  6
CONTINUOUS
 10
25.2989035938
 20
80.9504463558
 11
25.5417160938
 21
81.0407846778
  0
LINE
  8
0
 62
7
  6
CONTINUOUS
 10
28.1317164026
 20
80.9956155168
 11
28.2935917113
 21
81.0407846778
  0
LINE
  8
0
 62
7
  6
CONTINUOUS
 10
28.1317164026
 20
81.2214613217
 11
27.8079667113
 21
81.1311229998
  0
LINE
  8
0
 62
7
  6
CONTINUOUS
 10
22.1423410938
 20
80.0922322021
 11
21.7376537482
 21
80.0018938643
  0
LINE
  8
0
 62
7
  6
CONTINUOUS
 10
18.3382787482
 20
81.0407846778
 11
18.6620289026
 21
81.0859538388
  0
LINE
  8
0
 62
7
  6
CONTINUOUS
 10
18.6620289026
 20
81.2666304827
 11
18.3382787482
 21
81.2214613217
  0
LINE
  8
0
 62
7
  6
CONTINUOUS
 10
15.2626539026
 20
81.0407846778
 11
15.5864039412
 21
81.0859538388
  0
LINE
  8
0
 62
7
  6
CONTINUOUS
 10
24.3897645583
 20
86.0179385159
 11
25.3077973452
 21
86.0179385159
  0
LINE
  8
0
 62
7
  6
CONTINUOUS
 10
21.0901539026
 20
80.4987546826
 11
21.2520287482
 21
80.5439238436
  0
LINE
  8
0
 62
7
  6
CONTINUOUS
 10
21.0901539026
 20
80.7246005508
 11
20.7664037482
 21
80.6342622289
  0
LINE
  8
0
 62
7
  6
CONTINUOUS
 10
20.928279057
 20
80.9956155168
 11
21.0901539026
 21
81.0407846778
  0
LINE
  8
0
 62
7
  6
CONTINUOUS
 10
16.2339039026
 20
79.8663863694
 11
16.5576538254
 21
79.9567247033
  0
LINE
  8
0
 62
7
  6
CONTINUOUS
 10
20.8473414026
 20
81.2214613217
 11
20.685466557
 21
81.1762921607
  0
LINE
  8
0
 62
7
  6
CONTINUOUS
 10
15.1817164219
 20
81.2214613217
 11
14.9389039219
 21
81.1762921607
  0
LINE
  8
0
 62
7
  6
CONTINUOUS
 10
30.2422235747
 20
87.624495893
 11
28.2914039026
 21
87.624495893
  0
LINE
  8
0
 62
7
  6
CONTINUOUS
 10
25.5373055419
 20
87.624495893
 11
24.9597056539
 21
87.624495893
  0
LINE
  8
0
 62
7
  6
CONTINUOUS
 10
23.2422235747
 20
87.624495893
 11
21.2914039026
 21
87.624495893
  0
LINE
  8
0
 62
7
  6
CONTINUOUS
 10
20.8323875091
 20
87.624495893
 11
18.881567837
 21
87.624495893
  0
LINE
  8
0
 62
7
  6
CONTINUOUS
 10
16.2422235747
 20
87.624495893
 11
14.2914039026
 21
87.624495893
  0
LINE
  8
0
 62
7
  6
CONTINUOUS
 10
15.1007788833
 20
80.9956155168
 11
15.2626539026
 21
81.0407846778
  0
CIRCLE
  8
0
 62
7
  6
CONTINUOUS
 10
29.2668137386
 20
90.8949876963
 40
2.9262295082
  0
ARC
  8
0
 62
7
  6
CONTINUOUS
 10
16.5864858698
 20
84.6408893356
 40
2.2950819672
 50
180.0
 51
270.0
  0
ARC
  8
0
 62
7
  6
CONTINUOUS
 10
25.5373055419
 20
85.3294139258
 40
2.2950819672
 50
0.0
 51
90.0
  0
ARC
  8
0
 62
7
  6
CONTINUOUS
 10
17.1640857578
 20
84.4113811389
 40
2.0655737705
 50
270.0
 51
326.2510114041
  0
ARC
  8
0
 62
7
  6
CONTINUOUS
 10
24.9597056539
 20
85.5589221225
 40
2.0655737705
 50
90.0
 51
146.2510114041
  0
ARC
  8
0
 62
7
  6
CONTINUOUS
 10
17.7340268534
 20
85.0999057291
 40
1.1475409836
 50
270.0
 51
360.0
  0
ARC
  8
0
 62
7
  6
CONTINUOUS
 10
24.3897645583
 20
84.8703975323
 40
1.1475409836
 50
90.0
 51
180.0
  0
ARC
  8
0
 62
7
  6
CONTINUOUS
 10
16.8159940665
 20
84.5261352373
 40
0.5737704918
 50
180.0
 51
270.0
  0
ARC
  8
0
 62
7
  6
CONTINUOUS
 10
25.3077973452
 20
85.4441680241
 40
0.5737704918
 50
0.0
 51
90.0
  0
SOLID
  8
0
 62
7
  6
CONTINUOUS
 10
23.6801542113
 20
81.7183227236
 11
23.6801542113
 21
81.9441686006
 12
24.0848410938
 22
81.7183227236
 13
24.0848410938
 23
81.9441686006
  0
SOLID
  8
0
 62
7
  6
CONTINUOUS
 10
15.667341364
 20
81.2666309695
 11
16.2339039026
 21
81.2214609164
 12
15.1817164219
 22
81.2214609164
 13
15.1817164219
 23
81.2214609164
  0
SOLID
  8
0
 62
7
  6
CONTINUOUS
 10
14.9389039219
 20
81.1762930432
 11
15.1817164219
 21
81.2214609164
 12
16.2339039026
 22
81.2214609164
 13
16.2339039026
 23
81.2214609164
  0
SOLID
  8
0
 62
7
  6
CONTINUOUS
 10
16.2339039026
 20
81.2214609164
 11
16.5576538254
 21
81.1311230186
 12
14.9389039219
 22
81.1762930432
 13
14.9389039219
 23
81.1762930432
  0
SOLID
  8
0
 62
7
  6
CONTINUOUS
 10
14.6960913929
 20
81.0859529385
 11
14.9389039219
 21
81.1762930432
 12
16.5576538254
 22
81.1311230186
 13
16.5576538254
 23
81.1311230186
  0
SOLID
  8
0
 62
7
  6
CONTINUOUS
 10
14.6960913929
 20
81.0859529385
 11
16.5576538254
 21
81.1311230186
 12
15.5864039412
 22
81.0859529385
 13
15.5864039412
 23
81.0859529385
  0
SOLID
  8
0
 62
7
  6
CONTINUOUS
 10
15.5864039412
 20
81.0859529385
 11
16.5576538254
 21
81.1311230186
 12
16.152966364
 22
81.0407850924
 13
16.152966364
 23
81.0407850924
  0
SOLID
  8
0
 62
7
  6
CONTINUOUS
 10
16.5576538254
 20
81.1311230186
 11
16.8004663254
 21
80.9956150678
 12
16.152966364
 22
81.0407850924
 13
16.152966364
 23
81.0407850924
  0
SOLID
  8
0
 62
7
  6
CONTINUOUS
 10
16.3957789798
 20
80.9504471662
 11
16.152966364
 21
81.0407850924
 12
16.8004663254
 22
80.9956150678
 13
16.8004663254
 23
80.9956150678
  0
SOLID
  8
0
 62
7
  6
CONTINUOUS
 10
16.3957789798
 20
80.9504471662
 11
16.8004663254
 21
80.9956150678
 12
16.4767164026
 22
80.8149392411
 13
16.4767164026
 23
80.8149392411
  0
SOLID
  8
0
 62
7
  6
CONTINUOUS
 10
16.8004663254
 20
80.9956150678
 11
16.8814039798
 21
80.8149392411
 12
16.4767164026
 22
80.8149392411
 13
16.4767164026
 23
80.8149392411
  0
SOLID
  8
0
 62
7
  6
CONTINUOUS
 10
18.3382787482
 20
81.2214616557
 11
18.6620289026
 21
81.2666316803
 12
18.985779057
 22
81.2666316803
 13
18.985779057
 23
81.2666316803
  0
SOLID
  8
0
 62
7
  6
CONTINUOUS
 10
18.985779057
 20
81.2666316803
 11
19.228591557
 21
81.2214616557
 12
18.3382787482
 22
81.2214616557
 13
18.3382787482
 23
81.2214616557
  0
SOLID
  8
0
 62
7
  6
CONTINUOUS
 10
18.0954664798
 20
81.1311237295
 11
18.3382787482
 21
81.2214616557
 12
19.228591557
 22
81.2214616557
 13
19.228591557
 23
81.2214616557
  0
SOLID
  8
0
 62
7
  6
CONTINUOUS
 10
19.228591557
 20
81.2214616557
 11
19.471404057
 21
81.1311237295
 12
18.0954664798
 22
81.1311237295
 13
18.0954664798
 23
81.1311237295
  0
SOLID
  8
0
 62
7
  6
CONTINUOUS
 10
19.471404057
 20
81.1311237295
 11
18.6620289026
 21
81.085952994
 12
18.0954664798
 22
81.1311237295
 13
18.0954664798
 23
81.1311237295
  0
SOLID
  8
0
 62
7
  6
CONTINUOUS
 10
17.9335914026
 20
81.0407858033
 11
18.0954664798
 21
81.1311237295
 12
18.6620289026
 22
81.085952994
 13
18.6620289026
 23
81.085952994
  0
SOLID
  8
0
 62
7
  6
CONTINUOUS
 10
18.6620289026
 20
81.085952994
 11
18.3382787482
 21
81.0407858033
 12
17.9335914026
 22
81.0407858033
 13
17.9335914026
 23
81.0407858033
  0
SOLID
  8
0
 62
7
  6
CONTINUOUS
 10
18.6620289026
 20
81.085952994
 11
19.471404057
 21
81.1311237295
 12
18.985779057
 22
81.0407858033
 13
18.985779057
 23
81.0407858033
  0
SOLID
  8
0
 62
7
  6
CONTINUOUS
 10
19.471404057
 20
81.1311237295
 11
19.6332789026
 21
81.0407858033
 12
18.985779057
 22
81.0407858033
 13
18.985779057
 23
81.0407858033
  0
SOLID
  8
0
 62
7
  6
CONTINUOUS
 10
19.1476539026
 20
80.9956150678
 11
18.985779057
 21
81.0407858033
 12
19.6332789026
 22
81.0407858033
 13
19.6332789026
 23
81.0407858033
  0
SOLID
  8
0
 62
7
  6
CONTINUOUS
 10
19.6332789026
 20
81.0407858033
 11
19.714216557
 21
80.950447877
 12
19.1476539026
 22
80.9956150678
 13
19.1476539026
 23
80.9956150678
  0
SOLID
  8
0
 62
7
  6
CONTINUOUS
 10
19.3095287482
 20
80.9052771416
 11
19.1476539026
 21
80.9956150678
 12
19.714216557
 22
80.950447877
 13
19.714216557
 23
80.950447877
  0
SOLID
  8
0
 62
7
  6
CONTINUOUS
 10
19.3095287482
 20
80.9052771416
 11
19.714216557
 21
80.950447877
 12
19.3904664026
 22
80.724602
 13
19.3904664026
 23
80.724602
  0
SOLID
  8
0
 62
7
  6
CONTINUOUS
 10
19.714216557
 20
80.950447877
 11
19.7951537482
 21
80.724602
 12
19.3904664026
 22
80.724602
 13
19.3904664026
 23
80.724602
  0
SOLID
  8
0
 62
7
  6
CONTINUOUS
 10
18.3382787482
 20
81.0407858033
 11
18.0954664798
 21
80.950447877
 12
17.9335914026
 22
81.0407858033
 13
17.9335914026
 23
81.0407858033
  0
SOLID
  8
0
 62
7
  6
CONTINUOUS
 10
18.0954664798
 20
80.950447877
 11
17.9335914026
 21
80.860107117
 12
17.9335914026
 22
81.0407858033
 13
17.9335914026
 23
81.0407858033
  0
SOLID
  8
0
 62
7
  6
CONTINUOUS
 10
17.9335914026
 20
80.860107117
 11
17.5289038254
 21
79.8212184918
 12
17.9335914026
 22
81.0407858033
 13
17.9335914026
 23
81.0407858033
  0
SOLID
  8
0
 62
7
  6
CONTINUOUS
 10
17.9335914026
 20
81.0407858033
 11
17.5289038254
 21
79.8212184918
 12
17.9335914026
 22
81.9441693115
 13
17.9335914026
 23
81.9441693115
  0
SOLID
  8
0
 62
7
  6
CONTINUOUS
 10
17.5289038254
 20
79.8212184918
 11
17.5289038254
 21
81.9441693115
 12
17.9335914026
 22
81.9441693115
 13
17.9335914026
 23
81.9441693115
  0
SOLID
  8
0
 62
7
  6
CONTINUOUS
 10
17.9335914026
 20
80.860107117
 11
17.9335914026
 21
79.8212184918
 12
17.5289038254
 22
79.8212184918
 13
17.5289038254
 23
79.8212184918
  0
SOLID
  8
0
 62
7
  6
CONTINUOUS
 10
19.3904664026
 20
79.8212184918
 11
19.3904664026
 21
80.724602
 12
19.7951537482
 22
80.724602
 13
19.7951537482
 23
80.724602
  0
SOLID
  8
0
 62
7
  6
CONTINUOUS
 10
19.7951537482
 20
80.724602
 11
19.7951537482
 21
79.8212184918
 12
19.3904664026
 22
79.8212184918
 13
19.3904664026
 23
79.8212184918
  0
SOLID
  8
0
 62
7
  6
CONTINUOUS
 10
20.8473414026
 20
81.2214605025
 11
21.413904057
 21
81.2666311764
 12
21.899529057
 22
81.2666311764
 13
21.899529057
 23
81.2666311764
  0
SOLID
  8
0
 62
7
  6
CONTINUOUS
 10
21.899529057
 20
81.2666311764
 11
22.3851535938
 21
81.2214605025
 12
20.8473414026
 22
81.2214605025
 13
20.8473414026
 23
81.2214605025
  0
SOLID
  8
0
 62
7
  6
CONTINUOUS
 10
20.685466557
 20
81.1762930432
 11
20.8473414026
 21
81.2214605025
 12
22.3851535938
 22
81.2214605025
 13
22.3851535938
 23
81.2214605025
  0
SOLID
  8
0
 62
7
  6
CONTINUOUS
 10
22.3851535938
 20
81.2214605025
 11
22.6279660938
 21
81.1311230186
 12
20.685466557
 22
81.1762930432
 13
20.685466557
 23
81.1762930432
  0
SOLID
  8
0
 62
7
  6
CONTINUOUS
 10
20.5235912482
 20
81.0859528171
 11
20.685466557
 21
81.1762930432
 12
22.6279660938
 22
81.1311230186
 13
22.6279660938
 23
81.1311230186
  0
SOLID
  8
0
 62
7
  6
CONTINUOUS
 10
20.5235912482
 20
81.0859528171
 11
22.6279660938
 21
81.1311230186
 12
21.413904057
 22
81.0859528171
 13
21.413904057
 23
81.0859528171
  0
SOLID
  8
0
 62
7
  6
CONTINUOUS
 10
21.413904057
 20
81.0859528171
 11
22.6279660938
 21
81.1311230186
 12
21.899529057
 22
81.0859528171
 13
21.899529057
 23
81.0859528171
  0
SOLID
  8
0
 62
7
  6
CONTINUOUS
 10
21.899529057
 20
81.0859528171
 11
22.6279660938
 21
81.1311230186
 12
22.2232792113
 22
81.0407853953
 13
22.2232792113
 23
81.0407853953
  0
SOLID
  8
0
 62
7
  6
CONTINUOUS
 10
22.6279660938
 20
81.1311230186
 11
22.7898414026
 21
81.0407853953
 12
22.2232792113
 22
81.0407853953
 13
22.2232792113
 23
81.0407853953
  0
SOLID
  8
0
 62
7
  6
CONTINUOUS
 10
20.442654057
 20
80.9956147215
 11
20.5235912482
 21
81.0859528171
 12
21.413904057
 22
81.0859528171
 13
21.413904057
 23
81.0859528171
  0
SOLID
  8
0
 62
7
  6
CONTINUOUS
 10
22.3851535938
 20
80.9956147215
 11
22.2232792113
 21
81.0407853953
 12
22.7898414026
 22
81.0407853953
 13
22.7898414026
 23
81.0407853953
  0
SOLID
  8
0
 62
7
  6
CONTINUOUS
 10
22.3851535938
 20
80.9956147215
 11
22.7898414026
 21
81.0407853953
 12
22.4660917113
 22
80.9052766258
 13
22.4660917113
 23
80.9052766258
  0
SOLID
  8
0
 62
7
  6
CONTINUOUS
 10
22.7898414026
 20
81.0407853953
 11
22.8707785938
 21
80.9052766258
 12
22.4660917113
 22
80.9052766258
 13
22.4660917113
 23
80.9052766258
  0
SOLID
  8
0
 62
7
  6
CONTINUOUS
 10
22.4660917113
 20
80.7697691908
 11
22.4660917113
 21
80.9052766258
 12
22.8707785938
 22
80.9052766258
 13
22.8707785938
 23
80.9052766258
  0
SOLID
  8
0
 62
7
  6
CONTINUOUS
 10
22.4660917113
 20
80.7697691908
 11
22.8707785938
 21
80.9052766258
 12
22.4660917113
 22
80.5890933383
 13
22.4660917113
 23
80.5890933383
  0
SOLID
  8
0
 62
7
  6
CONTINUOUS
 10
22.4660917113
 20
80.5890933383
 11
22.8707785938
 21
80.9052766258
 12
22.4660917113
 22
80.3180780386
 13
22.4660917113
 23
80.3180780386
  0
SOLID
  8
0
 62
7
  6
CONTINUOUS
 10
22.8707785938
 20
80.9052766258
 11
22.8707785938
 21
80.1825694858
 12
22.4660917113
 22
80.3180780386
 13
22.4660917113
 23
80.3180780386
  0
SOLID
  8
0
 62
7
  6
CONTINUOUS
 10
25.5417160938
 20
81.2214615393
 11
25.8654667113
 21
81.2666307014
 12
26.1892164026
 22
81.2666307014
 13
26.1892164026
 23
81.2666307014
  0
SOLID
  8
0
 62
7
  6
CONTINUOUS
 10
26.1892164026
 20
81.2666307014
 11
26.4320289026
 21
81.2214615393
 12
25.5417160938
 22
81.2214615393
 13
25.5417160938
 23
81.2214615393
  0
SOLID
  8
0
 62
7
  6
CONTINUOUS
 10
25.2989035938
 20
81.131123215
 11
25.5417160938
 21
81.2214615393
 12
26.4320289026
 22
81.2214615393
 13
26.4320289026
 23
81.2214615393
  0
SOLID
  8
0
 62
7
  6
CONTINUOUS
 10
26.4320289026
 20
81.2214615393
 11
26.6748414026
 21
81.131123215
 12
25.2989035938
 22
81.131123215
 13
25.2989035938
 23
81.131123215
  0
SOLID
  8
0
 62
7
  6
CONTINUOUS
 10
26.6748414026
 20
81.131123215
 11
25.8654667113
 21
81.085952994
 12
25.2989035938
 22
81.131123215
 13
25.2989035938
 23
81.131123215
  0
SOLID
  8
0
 62
7
  6
CONTINUOUS
 10
25.1370292113
 20
81.0407848907
 11
25.2989035938
 21
81.131123215
 12
25.8654667113
 22
81.085952994
 13
25.8654667113
 23
81.085952994
  0
SOLID
  8
0
 62
7
  6
CONTINUOUS
 10
25.8654667113
 20
81.085952994
 11
25.5417160938
 21
81.0407848907
 12
25.1370292113
 22
81.0407848907
 13
25.1370292113
 23
81.0407848907
  0
SOLID
  8
0
 62
7
  6
CONTINUOUS
 10
25.8654667113
 20
81.085952994
 11
26.6748414026
 21
81.131123215
 12
26.1892164026
 22
81.0407848907
 13
26.1892164026
 23
81.0407848907
  0
SOLID
  8
0
 62
7
  6
CONTINUOUS
 10
26.6748414026
 20
81.131123215
 11
26.8367167113
 21
81.0407848907
 12
26.1892164026
 22
81.0407848907
 13
26.1892164026
 23
81.0407848907
  0
SOLID
  8
0
 62
7
  6
CONTINUOUS
 10
26.3510917113
 20
80.9956150678
 11
26.1892164026
 21
81.0407848907
 12
26.8367167113
 22
81.0407848907
 13
26.8367167113
 23
81.0407848907
  0
SOLID
  8
0
 62
7
  6
CONTINUOUS
 10
26.3510917113
 20
80.9956150678
 11
26.8367167113
 21
81.0407848907
 12
26.5129660938
 22
80.9052774043
 13
26.5129660938
 23
80.9052774043
  0
SOLID
  8
0
 62
7
  6
CONTINUOUS
 10
26.8367167113
 20
81.0407848907
 11
26.9176539026
 21
80.9052774043
 12
26.5129660938
 22
80.9052774043
 13
26.5129660938
 23
80.9052774043
  0
SOLID
  8
0
 62
7
  6
CONTINUOUS
 10
26.5939042113
 20
80.6794315936
 11
26.5129660938
 21
80.9052774043
 12
26.9176539026
 22
80.9052774043
 13
26.9176539026
 23
80.9052774043
  0
SOLID
  8
0
 62
7
  6
CONTINUOUS
 10
26.9176539026
 20
80.9052774043
 11
26.9985910938
 21
80.6794315936
 12
26.5939042113
 22
80.6794315936
 13
26.5939042113
 23
80.6794315936
  0
SOLID
  8
0
 62
7
  6
CONTINUOUS
 10
25.5417160938
 20
81.0407848907
 11
25.2989035938
 21
80.9504471662
 12
25.1370292113
 22
81.0407848907
 13
25.1370292113
 23
81.0407848907
  0
SOLID
  8
0
 62
7
  6
CONTINUOUS
 10
25.2989035938
 20
80.9504471662
 11
25.1370292113
 21
80.860107117
 12
25.1370292113
 22
81.0407848907
 13
25.1370292113
 23
81.0407848907
  0
SOLID
  8
0
 62
7
  6
CONTINUOUS
 10
25.1370292113
 20
80.860107117
 11
24.7323414026
 21
79.8212175129
 12
25.1370292113
 22
81.0407848907
 13
25.1370292113
 23
81.0407848907
  0
SOLID
  8
0
 62
7
  6
CONTINUOUS
 10
25.1370292113
 20
81.0407848907
 11
24.7323414026
 21
79.8212175129
 12
25.1370292113
 22
81.2666307014
 13
25.1370292113
 23
81.2666307014
  0
SOLID
  8
0
 62
7
  6
CONTINUOUS
 10
24.7323414026
 20
79.8212175129
 11
24.7323414026
 21
81.2666307014
 12
25.1370292113
 22
81.2666307014
 13
25.1370292113
 23
81.2666307014
  0
SOLID
  8
0
 62
7
  6
CONTINUOUS
 10
25.1370292113
 20
80.860107117
 11
25.1370292113
 21
79.8212175129
 12
24.7323414026
 22
79.8212175129
 13
24.7323414026
 23
79.8212175129
  0
SOLID
  8
0
 62
7
  6
CONTINUOUS
 10
26.5939042113
 20
79.8212175129
 11
26.5939042113
 21
80.6794315936
 12
26.9985910938
 22
80.6794315936
 13
26.9985910938
 23
80.6794315936
  0
SOLID
  8
0
 62
7
  6
CONTINUOUS
 10
26.9985910938
 20
80.6794315936
 11
26.9985910938
 21
79.8212175129
 12
26.5939042113
 22
79.8212175129
 13
26.5939042113
 23
79.8212175129
  0
SOLID
  8
0
 62
7
  6
CONTINUOUS
 10
28.1317164026
 20
81.2214608812
 11
28.6173414026
 21
81.266630966
 12
29.1029664026
 22
81.266630966
 13
29.1029664026
 23
81.266630966
  0
SOLID
  8
0
 62
7
  6
CONTINUOUS
 10
29.1029664026
 20
81.266630966
 11
29.5885914026
 21
81.2214608812
 12
28.1317164026
 22
81.2214608812
 13
28.1317164026
 23
81.2214608812
  0
SOLID
  8
0
 62
7
  6
CONTINUOUS
 10
27.8079667113
 20
81.1311230186
 11
28.1317164026
 21
81.2214608812
 12
29.5885914026
 22
81.2214608812
 13
29.5885914026
 23
81.2214608812
  0
SOLID
  8
0
 62
7
  6
CONTINUOUS
 10
27.8079667113
 20
81.1311230186
 11
29.5885914026
 21
81.2214609449
 12
29.8314039026
 22
81.1762930432
 13
29.8314039026
 23
81.1762930432
  0
SOLID
  8
0
 62
7
  6
CONTINUOUS
 10
27.8079667113
 20
81.1311230186
 11
29.8314039026
 21
81.1762930432
 12
28.6173414026
 22
81.0859529092
 13
28.6173414026
 23
81.0859529092
  0
SOLID
  8
0
 62
7
  6
CONTINUOUS
 10
28.6173414026
 20
81.0859529092
 11
29.8314039026
 21
81.1762930432
 12
29.1029664026
 22
81.0859529092
 13
29.1029664026
 23
81.0859529092
  0
SOLID
  8
0
 62
7
  6
CONTINUOUS
 10
29.8314039026
 20
81.1762930432
 11
30.0742164026
 21
81.0859529092
 12
29.1029664026
 22
81.0859529092
 13
29.1029664026
 23
81.0859529092
  0
SOLID
  8
0
 62
7
  6
CONTINUOUS
 10
29.5885914026
 20
81.0407850924
 11
29.1029664026
 21
81.0859529092
 12
30.0742164026
 22
81.0859529092
 13
30.0742164026
 23
81.0859529092
  0
SOLID
  8
0
 62
7
  6
CONTINUOUS
 10
27.6460914026
 20
80.9956150863
 11
27.8079667113
 21
81.1311230186
 12
28.6173414026
 22
81.0859529092
 13
28.6173414026
 23
81.0859529092
  0
SOLID
  8
0
 62
7
  6
CONTINUOUS
 10
29.5885914026
 20
81.0407850924
 11
30.0742164026
 21
81.0859529092
 12
29.7504667113
 22
80.9956150863
 13
29.7504667113
 23
80.9956150863
  0
SOLID
  8
0
 62
7
  6
CONTINUOUS
 10
29.7504667113
 20
80.9956150863
 11
30.0742164026
 21
81.0859529092
 12
29.8314039026
 22
80.9052772633
 13
29.8314039026
 23
80.9052772633
  0
SOLID
  8
0
 62
7
  6
CONTINUOUS
 10
30.0742164026
 20
81.0859529092
 11
30.2360907851
 21
80.9052772633
 12
29.8314039026
 22
80.9052772633
 13
29.8314039026
 23
80.9052772633
  0
SOLID
  8
0
 62
7
  6
CONTINUOUS
 10
15.2626539026
 20
81.0407850924
 11
14.5342164026
 21
80.9956150441
 12
15.5864039412
 22
81.08595288
 13
15.5864039412
 23
81.08595288
  0
SOLID
  8
0
 62
7
  6
CONTINUOUS
 10
14.5342164026
 20
80.9956150441
 11
14.6960913929
 21
81.08595288
 12
15.5864039412
 22
81.08595288
 13
15.5864039412
 23
81.08595288
  0
SOLID
  8
0
 62
7
  6
CONTINUOUS
 10
15.2626539026
 20
81.0407850924
 11
15.1007788833
 21
80.9956150441
 12
14.5342164026
 22
80.9956150441
 13
14.5342164026
 23
80.9956150441
  0
SOLID
  8
0
 62
7
  6
CONTINUOUS
 10
14.372341405
 20
80.8149392154
 11
14.5342164026
 21
80.9956150441
 12
15.1007788833
 22
80.9956150441
 13
15.1007788833
 23
80.9956150441
  0
SOLID
  8
0
 62
7
  6
CONTINUOUS
 10
20.442654057
 20
80.9956151344
 11
21.413904057
 21
81.085952994
 12
21.0901539026
 22
81.0407850924
 13
21.0901539026
 23
81.0407850924
  0
SOLID
  8
0
 62
7
  6
CONTINUOUS
 10
21.0901539026
 20
81.0407850924
 11
20.928279057
 21
80.9956151344
 12
20.442654057
 22
80.9956151344
 13
20.442654057
 23
80.9956151344
  0
SOLID
  8
0
 62
7
  6
CONTINUOUS
 10
20.442654057
 20
80.9052772082
 11
20.442654057
 21
80.9956151344
 12
20.928279057
 22
80.9956151344
 13
20.928279057
 23
80.9956151344
  0
SOLID
  8
0
 62
7
  6
CONTINUOUS
 10
20.928279057
 20
80.9956151344
 11
20.8473414026
 21
80.9052772082
 12
20.442654057
 22
80.9052772082
 13
20.442654057
 23
80.9052772082
  0
SOLID
  8
0
 62
7
  6
CONTINUOUS
 10
27.6460914026
 20
80.9956151344
 11
28.6173414026
 21
81.085952994
 12
28.2935917113
 22
81.0407850924
 13
28.2935917113
 23
81.0407850924
  0
SOLID
  8
0
 62
7
  6
CONTINUOUS
 10
28.2935917113
 20
81.0407850924
 11
28.1317164026
 21
80.9956151344
 12
27.6460914026
 22
80.9956151344
 13
27.6460914026
 23
80.9956151344
  0
SOLID
  8
0
 62
7
  6
CONTINUOUS
 10
27.6460914026
 20
80.9052772082
 11
27.6460914026
 21
80.9956151344
 12
28.1317164026
 22
80.9956151344
 13
28.1317164026
 23
80.9956151344
  0
SOLID
  8
0
 62
7
  6
CONTINUOUS
 10
28.1317164026
 20
80.9956151344
 11
28.0507792113
 21
80.9052772082
 12
27.6460914026
 22
80.9052772082
 13
27.6460914026
 23
80.9052772082
  0
SOLID
  8
0
 62
7
  6
CONTINUOUS
 10
27.8079667113
 20
80.7246012891
 11
27.6460914026
 21
80.9052772082
 12
28.0507792113
 22
80.9052772082
 13
28.0507792113
 23
80.9052772082
  0
SOLID
  8
0
 62
7
  6
CONTINUOUS
 10
14.372341405
 20
80.8149392154
 11
15.1007788833
 21
80.9956150678
 12
14.8579663833
 22
80.860107117
 13
14.8579663833
 23
80.860107117
  0
SOLID
  8
0
 62
7
  6
CONTINUOUS
 10
14.8579663833
 20
80.860107117
 11
14.7770289026
 21
80.7697691908
 12
14.372341405
 22
80.8149392154
 13
14.372341405
 23
80.8149392154
  0
SOLID
  8
0
 62
7
  6
CONTINUOUS
 10
14.2914039026
 20
80.5439233137
 11
14.372341405
 21
80.8149392154
 12
14.7770289026
 22
80.7697691908
 13
14.7770289026
 23
80.7697691908
  0
SOLID
  8
0
 62
7
  6
CONTINUOUS
 10
21.0901539026
 20
80.7246012891
 11
21.5757789026
 21
80.7697692348
 12
22.4660917113
 22
80.7697692348
 13
22.4660917113
 23
80.7697692348
  0
SOLID
  8
0
 62
7
  6
CONTINUOUS
 10
21.0901539026
 20
80.7246012891
 11
22.4660917113
 21
80.7697692348
 12
20.7664037482
 22
80.6342622289
 13
20.7664037482
 23
80.6342622289
  0
SOLID
  8
0
 62
7
  6
CONTINUOUS
 10
20.7664037482
 20
80.6342622289
 11
22.4660917113
 21
80.7697692348
 12
21.5757789026
 22
80.5890933823
 13
21.5757789026
 23
80.5890933823
  0
SOLID
  8
0
 62
7
  6
CONTINUOUS
 10
22.4660917113
 20
80.7697692348
 11
22.4660917113
 21
80.5890933823
 12
21.5757789026
 22
80.5890933823
 13
21.5757789026
 23
80.5890933823
  0
SOLID
  8
0
 62
7
  6
CONTINUOUS
 10
27.8079667113
 20
80.7246017059
 11
28.0507792113
 21
80.9052771416
 12
28.1317164026
 22
80.8149392154
 13
28.1317164026
 23
80.8149392154
  0
SOLID
  8
0
 62
7
  6
CONTINUOUS
 10
28.1317164026
 20
80.8149392154
 11
28.3745289026
 21
80.7246017059
 12
27.8079667113
 22
80.7246017059
 13
27.8079667113
 23
80.7246017059
  0
SOLID
  8
0
 62
7
  6
CONTINUOUS
 10
28.1317164026
 20
80.5890933383
 11
27.8079667113
 21
80.7246017059
 12
28.3745289026
 22
80.7246017059
 13
28.3745289026
 23
80.7246017059
  0
SOLID
  8
0
 62
7
  6
CONTINUOUS
 10
28.3745289026
 20
80.7246017059
 11
29.7504667113
 21
80.4987554121
 12
28.1317164026
 22
80.5890933383
 13
28.1317164026
 23
80.5890933383
  0
SOLID
  8
0
 62
7
  6
CONTINUOUS
 10
29.5076542113
 20
80.363247863
 11
28.1317164026
 21
80.5890933383
 12
29.7504667113
 22
80.4987554121
 13
29.7504667113
 23
80.4987554121
  0
SOLID
  8
0
 62
7
  6
CONTINUOUS
 10
29.7504667113
 20
80.4987554121
 11
30.0742164026
 21
80.363247863
 12
29.5076542113
 22
80.363247863
 13
29.5076542113
 23
80.363247863
  0
SOLID
  8
0
 62
7
  6
CONTINUOUS
 10
29.7504667113
 20
80.272909535
 11
29.5076542113
 21
80.363247863
 12
30.0742164026
 22
80.363247863
 13
30.0742164026
 23
80.363247863
  0
SOLID
  8
0
 62
7
  6
CONTINUOUS
 10
29.7504667113
 20
80.272909535
 11
30.0742164026
 21
80.363247863
 12
29.8314039026
 22
80.1825698574
 13
29.8314039026
 23
80.1825698574
  0
SOLID
  8
0
 62
7
  6
CONTINUOUS
 10
30.0742164026
 20
80.363247863
 11
30.2360907851
 21
80.1825698574
 12
29.8314039026
 22
80.1825698574
 13
29.8314039026
 23
80.1825698574
  0
SOLID
  8
0
 62
7
  6
CONTINUOUS
 10
29.7504667113
 20
80.0922319387
 11
29.8314039026
 21
80.1825698574
 12
30.2360907851
 22
80.1825698574
 13
30.2360907851
 23
80.1825698574
  0
SOLID
  8
0
 62
7
  6
CONTINUOUS
 10
30.2360907851
 20
80.1825698574
 11
30.2360907851
 21
80.0922319387
 12
29.7504667113
 22
80.0922319387
 13
29.7504667113
 23
80.0922319387
  0
SOLID
  8
0
 62
7
  6
CONTINUOUS
 10
29.5885914026
 20
80.047063658
 11
29.7504667113
 21
80.0922319387
 12
30.2360907851
 22
80.0922319387
 13
30.2360907851
 23
80.0922319387
  0
SOLID
  8
0
 62
7
  6
CONTINUOUS
 10
29.5885914026
 20
80.047063658
 11
30.2360907851
 21
80.0922319387
 12
29.2648417113
 22
80.00189402
 13
29.2648417113
 23
80.00189402
  0
SOLID
  8
0
 62
7
  6
CONTINUOUS
 10
30.2360907851
 20
80.0922319387
 11
30.0742164026
 21
79.9567257317
 12
29.2648417113
 22
80.00189402
 13
29.2648417113
 23
80.00189402
  0
SOLID
  8
0
 62
7
  6
CONTINUOUS
 10
30.0742164026
 20
79.9567257317
 11
28.0507792113
 21
79.9115557072
 12
29.2648417113
 22
80.00189402
 13
29.2648417113
 23
80.00189402
  0
SOLID
  8
0
 62
7
  6
CONTINUOUS
 10
29.2648417113
 20
80.00189402
 11
28.0507792113
 21
79.9115557072
 12
28.7792167113
 22
80.00189402
 13
28.7792167113
 23
80.00189402
  0
SOLID
  8
0
 62
7
  6
CONTINUOUS
 10
28.0507792113
 20
79.9115557072
 11
27.8079667113
 21
80.00189402
 12
28.7792167113
 22
80.00189402
 13
28.7792167113
 23
80.00189402
  0
SOLID
  8
0
 62
7
  6
CONTINUOUS
 10
28.0507792113
 20
79.9115557072
 11
30.0742164026
 21
79.9567257317
 12
28.2935917113
 22
79.8663855159
 13
28.2935917113
 23
79.8663855159
  0
SOLID
  8
0
 62
7
  6
CONTINUOUS
 10
30.0742164026
 20
79.9567257317
 11
29.7504667113
 21
79.8663855159
 12
28.2935917113
 22
79.8663855159
 13
28.2935917113
 23
79.8663855159
  0
SOLID
  8
0
 62
7
  6
CONTINUOUS
 10
28.7792167113
 20
79.8212181826
 11
28.2935917113
 21
79.8663855159
 12
29.7504667113
 22
79.8663855159
 13
29.7504667113
 23
79.8663855159
  0
SOLID
  8
0
 62
7
  6
CONTINUOUS
 10
29.7504667113
 20
79.8663855159
 11
29.2648417113
 21
79.8212181826
 12
28.7792167113
 22
79.8212181826
 13
28.7792167113
 23
79.8212181826
  0
SOLID
  8
0
 62
7
  6
CONTINUOUS
 10
14.2914039026
 20
80.5439233137
 11
14.7770289026
 21
80.7697691908
 12
14.6960913929
 22
80.5890933383
 13
14.6960913929
 23
80.5890933383
  0
SOLID
  8
0
 62
7
  6
CONTINUOUS
 10
14.6960913929
 20
80.5890933383
 11
14.6960913929
 21
80.4535855216
 12
14.2914039026
 22
80.5439233137
 13
14.2914039026
 23
80.5439233137
  0
SOLID
  8
0
 62
7
  6
CONTINUOUS
 10
14.372341405
 20
80.272909535
 11
14.2914039026
 21
80.5439233137
 12
14.6960913929
 22
80.4535855216
 13
14.6960913929
 23
80.4535855216
  0
SOLID
  8
0
 62
7
  6
CONTINUOUS
 10
14.6960913929
 20
80.4535855216
 11
14.8579663833
 21
80.2277395104
 12
14.372341405
 22
80.272909535
 13
14.372341405
 23
80.272909535
  0
SOLID
  8
0
 62
7
  6
CONTINUOUS
 10
14.5342164026
 20
80.0922318249
 11
14.372341405
 21
80.272909535
 12
14.8579663833
 22
80.2277395104
 13
14.8579663833
 23
80.2277395104
  0
SOLID
  8
0
 62
7
  6
CONTINUOUS
 10
14.8579663833
 20
80.2277395104
 11
15.1007788833
 21
80.0922318249
 12
14.5342164026
 22
80.0922318249
 13
14.5342164026
 23
80.0922318249
  0
SOLID
  8
0
 62
7
  6
CONTINUOUS
 10
14.6960913929
 20
80.001893699
 11
14.5342164026
 21
80.0922318249
 12
15.1007788833
 22
80.0922318249
 13
15.1007788833
 23
80.0922318249
  0
SOLID
  8
0
 62
7
  6
CONTINUOUS
 10
15.1007788833
 20
80.0922318249
 11
15.5864039412
 21
80.001893699
 12
14.6960913929
 22
80.001893699
 13
14.6960913929
 23
80.001893699
  0
SOLID
  8
0
 62
7
  6
CONTINUOUS
 10
14.9389039219
 20
79.9115557072
 11
14.6960913929
 21
80.001893699
 12
15.5864039412
 22
80.001893699
 13
15.5864039412
 23
80.001893699
  0
SOLID
  8
0
 62
7
  6
CONTINUOUS
 10
20.6045289026
 20
80.5439232728
 11
20.7664037482
 21
80.6342622289
 12
21.5757789026
 22
80.5890933383
 13
21.5757789026
 23
80.5890933383
  0
SOLID
  8
0
 62
7
  6
CONTINUOUS
 10
21.5757789026
 20
80.5890933383
 11
21.2520287482
 21
80.5439232728
 12
20.6045289026
 22
80.5439232728
 13
20.6045289026
 23
80.5439232728
  0
SOLID
  8
0
 62
7
  6
CONTINUOUS
 10
20.442654057
 20
80.3632474613
 11
20.6045289026
 21
80.5439232728
 12
21.2520287482
 22
80.5439232728
 13
21.2520287482
 23
80.5439232728
  0
SOLID
  8
0
 62
7
  6
CONTINUOUS
 10
20.928279057
 20
80.4084163606
 11
20.442654057
 21
80.3632474613
 12
21.0901539026
 22
80.4987554121
 13
21.0901539026
 23
80.4987554121
  0
SOLID
  8
0
 62
7
  6
CONTINUOUS
 10
20.442654057
 20
80.3632474613
 11
21.2520287482
 21
80.5439233137
 12
21.0901539026
 22
80.4987554121
 13
21.0901539026
 23
80.4987554121
  0
SOLID
  8
0
 62
7
  6
CONTINUOUS
 10
20.928279057
 20
80.4084163606
 11
20.8473414026
 21
80.272909535
 12
20.442654057
 22
80.3632474613
 13
20.442654057
 23
80.3632474613
  0
SOLID
  8
0
 62
7
  6
CONTINUOUS
 10
20.442654057
 20
80.2277395104
 11
20.442654057
 21
80.3632474613
 12
20.8473414026
 22
80.272909535
 13
20.8473414026
 23
80.272909535
  0
SOLID
  8
0
 62
7
  6
CONTINUOUS
 10
20.8473414026
 20
80.272909535
 11
20.8473414026
 21
80.1825694858
 12
20.442654057
 22
80.2277395104
 13
20.442654057
 23
80.2277395104
  0
SOLID
  8
0
 62
7
  6
CONTINUOUS
 10
20.5235912482
 20
80.047063658
 11
20.442654057
 21
80.2277395104
 12
20.8473414026
 22
80.1825694858
 13
20.8473414026
 23
80.1825694858
  0
SOLID
  8
0
 62
7
  6
CONTINUOUS
 10
22.4660917113
 20
80.3180780386
 11
22.8707785938
 21
80.1825694858
 12
22.3851535938
 22
80.2277395104
 13
22.3851535938
 23
80.2277395104
  0
SOLID
  8
0
 62
7
  6
CONTINUOUS
 10
22.1423410938
 20
80.0922315596
 11
22.3851535938
 21
80.2277395104
 12
22.8707785938
 22
80.1825694858
 13
22.8707785938
 23
80.1825694858
  0
SOLID
  8
0
 62
7
  6
CONTINUOUS
 10
22.1423410938
 20
80.0922315596
 11
22.8707785938
 21
80.1825694858
 12
22.4660917113
 22
80.047063658
 13
22.4660917113
 23
80.047063658
  0
SOLID
  8
0
 62
7
  6
CONTINUOUS
 10
22.8707785938
 20
80.1825694858
 11
22.9517167113
 21
79.9567257317
 12
22.4660917113
 22
80.047063658
 13
22.4660917113
 23
80.047063658
  0
SOLID
  8
0
 62
7
  6
CONTINUOUS
 10
22.5470289026
 20
79.9115557072
 11
22.4660917113
 21
80.047063658
 12
22.9517167113
 22
79.9567257317
 13
22.9517167113
 23
79.9567257317
  0
SOLID
  8
0
 62
7
  6
CONTINUOUS
 10
22.5470289026
 20
79.9115557072
 11
22.9517167113
 21
79.9567257317
 12
22.6279660938
 22
79.8212179992
 13
22.6279660938
 23
79.8212179992
  0
SOLID
  8
0
 62
7
  6
CONTINUOUS
 10
22.9517167113
 20
79.9567257317
 11
23.0326539026
 21
79.8212179992
 12
22.6279660938
 22
79.8212179992
 13
22.6279660938
 23
79.8212179992
  0
SOLID
  8
0
 62
7
  6
CONTINUOUS
 10
16.3957789798
 20
80.137401363
 11
16.4767164026
 21
80.2729095879
 12
16.8814039798
 22
80.2729095879
 13
16.8814039798
 23
80.2729095879
  0
SOLID
  8
0
 62
7
  6
CONTINUOUS
 10
16.8814039798
 20
80.2729095879
 11
16.8004663254
 21
80.0922315596
 12
16.3957789798
 22
80.137401363
 13
16.3957789798
 23
80.137401363
  0
SOLID
  8
0
 62
7
  6
CONTINUOUS
 10
16.152966364
 20
80.047063658
 11
16.3957789798
 21
80.137401363
 12
16.8004663254
 22
80.0922315596
 13
16.8004663254
 23
80.0922315596
  0
SOLID
  8
0
 62
7
  6
CONTINUOUS
 10
16.152966364
 20
80.047063658
 11
16.8004663254
 21
80.0922315596
 12
15.5864039412
 22
80.0018936334
 13
15.5864039412
 23
80.0018936334
  0
SOLID
  8
0
 62
7
  6
CONTINUOUS
 10
16.8004663254
 20
80.0922315596
 11
16.5576538254
 21
79.9567257317
 12
15.5864039412
 22
80.0018936334
 13
15.5864039412
 23
80.0018936334
  0
SOLID
  8
0
 62
7
  6
CONTINUOUS
 10
14.9389039219
 20
79.9115557072
 11
15.5864039412
 21
80.0018936334
 12
16.5576538254
 22
79.9567257317
 13
16.5576538254
 23
79.9567257317
  0
SOLID
  8
0
 62
7
  6
CONTINUOUS
 10
14.9389039219
 20
79.9115557072
 11
16.5576538254
 21
79.9567257317
 12
15.1817164219
 22
79.8663856541
 13
15.1817164219
 23
79.8663856541
  0
SOLID
  8
0
 62
7
  6
CONTINUOUS
 10
16.5576538254
 20
79.9567257317
 11
16.2339039026
 21
79.8663856541
 12
15.1817164219
 22
79.8663856541
 13
15.1817164219
 23
79.8663856541
  0
SOLID
  8
0
 62
7
  6
CONTINUOUS
 10
15.667341364
 20
79.8212177809
 11
15.1817164219
 21
79.8663856541
 12
16.2339039026
 22
79.8663856541
 13
16.2339039026
 23
79.8663856541
  0
SOLID
  8
0
 62
7
  6
CONTINUOUS
 10
20.5235912482
 20
80.047063658
 11
20.8473414026
 21
80.1825694858
 12
20.928279057
 22
80.0922315596
 13
20.928279057
 23
80.0922315596
  0
SOLID
  8
0
 62
7
  6
CONTINUOUS
 10
20.928279057
 20
80.0922315596
 11
21.2520287482
 21
80.0018936334
 12
20.5235912482
 22
80.047063658
 13
20.5235912482
 23
80.047063658
  0
SOLID
  8
0
 62
7
  6
CONTINUOUS
 10
20.7664037482
 20
79.9115557072
 11
20.5235912482
 21
80.047063658
 12
21.2520287482
 22
80.0018936334
 13
21.2520287482
 23
80.0018936334
  0
SOLID
  8
0
 62
7
  6
CONTINUOUS
 10
21.7376537482
 20
80.0018937
 11
22.1423410938
 21
80.0922315596
 12
22.4660917113
 22
80.047063658
 13
22.4660917113
 23
80.047063658
  0
SOLID
  8
0
 62
7
  6
CONTINUOUS
 10
22.4660917113
 20
80.047063658
 11
22.3851535938
 21
79.9567257317
 12
21.7376537482
 22
80.0018937
 13
21.7376537482
 23
80.0018937
  0
SOLID
  8
0
 62
7
  6
CONTINUOUS
 10
22.3851535938
 20
79.9567257317
 11
20.7664037482
 21
79.9115557072
 12
21.7376537482
 22
80.0018937
 13
21.7376537482
 23
80.0018937
  0
SOLID
  8
0
 62
7
  6
CONTINUOUS
 10
20.7664037482
 20
79.9115557072
 11
21.2520287482
 21
80.0018937
 12
21.7376537482
 22
80.0018937
 13
21.7376537482
 23
80.0018937
  0
SOLID
  8
0
 62
7
  6
CONTINUOUS
 10
20.7664037482
 20
79.9115557072
 11
22.3851535938
 21
79.9567257317
 12
20.928279057
 22
79.8663857266
 13
20.928279057
 23
79.8663857266
  0
SOLID
  8
0
 62
7
  6
CONTINUOUS
 10
22.3851535938
 20
79.9567257317
 11
22.1423410938
 21
79.8663857266
 12
20.928279057
 22
79.8663857266
 13
20.928279057
 23
79.8663857266
  0
SOLID
  8
0
 62
7
  6
CONTINUOUS
 10
21.2520287482
 20
79.8212177572
 11
20.928279057
 21
79.8663857266
 12
22.1423410938
 22
79.8663857266
 13
22.1423410938
 23
79.8663857266
  0
SOLID
  8
0
 62
7
  6
CONTINUOUS
 10
22.1423410938
 20
79.8663857266
 11
21.7376537482
 21
79.8212177572
 12
21.2520287482
 22
79.8212177572
 13
21.2520287482
 23
79.8212177572
  0
SOLID
  8
0
 62
7
  6
CONTINUOUS
 10
28.2935917113
 20
80.047063658
 11
27.8079667113
 21
80.0018936097
 12
28.1317164026
 22
80.0922315596
 13
28.1317164026
 23
80.0922315596
  0
SOLID
  8
0
 62
7
  6
CONTINUOUS
 10
28.1317164026
 20
80.0922315596
 11
27.8079667113
 21
80.0018936097
 12
28.0507792113
 22
80.1825694621
 13
28.0507792113
 23
80.1825694621
  0
SOLID
  8
0
 62
7
  6
CONTINUOUS
 10
27.8079667113
 20
80.0018936097
 11
27.6460914026
 21
80.1825694621
 12
28.0507792113
 22
80.1825694621
 13
28.0507792113
 23
80.1825694621
  0
SOLID
  8
0
 62
7
  6
CONTINUOUS
 10
28.2935917113
 20
80.047063658
 11
28.7792167113
 21
80.0018936097
 12
27.8079667113
 22
80.0018936097
 13
27.8079667113
 23
80.0018936097
  0
SOLID
  8
0
 62
7
  6
CONTINUOUS
 10
23.6801542113
 20
79.8212177809
 11
23.6801542113
 21
81.2666309695
 12
24.0848410938
 22
79.8212177809
 13
24.0848410938
 23
81.2666309695
  0
TEXT
  8
0
 62
5
  6
CONTINUOUS
 10
35.4037071698
 20
79.9510761323
  7
TEXTSTYLE_4
 40
1.4918032787
  1
The brand for plastic modular belts and chains
 41
1.0
 72
0
  0
ENDBLK
  8
0
  6
BYBLOCK
 62
0
  0
BLOCK
  8
0
 62
2
  6
CONTINUOUS
  2
AMMEAAL_LOGO_BL0
 70
64
 10
49.5289569145
 20
36.290492329
  0
LINE
  8
0
 62
7
  6
CONTINUOUS
 10
13.9755886502
 20
36.5746189152
 11
15.3762622382
 21
43.164270051
  0
LINE
  8
0
 62
7
  6
CONTINUOUS
 10
33.5475651599
 20
49.7583790919
 11
16.2543341757
 21
44.1394677336
  0
LINE
  8
0
 62
7
  6
CONTINUOUS
 10
14.3810986484
 20
35.3265874697
 11
27.8938341184
 21
23.159665803
  0
LINE
  8
0
 62
7
  6
CONTINUOUS
 10
14.8536605876
 20
37.5498165979
 11
34.3085454449
 21
43.871091876
  0
LINE
  8
0
 62
7
  6
CONTINUOUS
 10
34.3009761981
 20
25.2414724613
 11
19.0991487943
 21
38.9292593363
  0
LINE
  8
0
 62
7
  6
CONTINUOUS
 10
35.2366570937
 20
48.2375138836
 11
33.4788499267
 21
39.9676813592
  0
LINE
  8
0
 62
7
  6
CONTINUOUS
 10
32.2192064208
 20
34.0415245943
 11
30.9835996402
 21
28.2284517304
  0
LINE
  8
0
 62
7
  6
CONTINUOUS
 10
36.4626300711
 20
25.943836381
 11
38.1838468352
 21
34.0415245943
  0
LINE
  8
0
 62
7
  6
CONTINUOUS
 10
39.443490341
 20
39.9676813592
 11
40.2431255853
 21
43.7296694061
  0
LINE
  8
0
 62
7
  6
CONTINUOUS
 10
29.177416054
 20
22.8868320402
 11
35.5845581337
 21
24.9686386984
  0
LINE
  8
0
 62
7
  6
CONTINUOUS
 10
34.8311470955
 20
49.4855453291
 11
39.8376155872
 21
44.9777008516
  0
ARC
  8
0
 62
7
  6
CONTINUOUS
 10
16.6598441738
 20
42.8914362882
 40
1.3122579196
 50
108.0
 51
168.0
  0
ARC
  8
0
 62
7
  6
CONTINUOUS
 10
33.9530751581
 20
48.5103476465
 40
1.3122579196
 50
348.0
 51
108.0
  0
ARC
  8
0
 62
7
  6
CONTINUOUS
 10
38.9595436497
 20
44.0025031689
 40
1.3122579196
 50
348.0
 51
48.0
  0
ARC
  8
0
 62
7
  6
CONTINUOUS
 10
28.7719060558
 20
24.1348634856
 40
1.3122579196
 50
228.0
 51
288.0
  0
ARC
  8
0
 62
7
  6
CONTINUOUS
 10
15.2591705858
 20
36.3017851524
 40
1.3122579196
 50
108.0
 51
228.0
  0
ARC
  8
0
 62
7
  6
CONTINUOUS
 10
35.1790481355
 20
26.2166701439
 40
1.3122579196
 50
228.0
 51
348.0
  0
TEXT
  8
0
 62
5
  6
CONTINUOUS
 10
24.8197618226
 20
35.1947509598
  7
TEXTSTYLE_3
 40
4.9209671985
  1
Ammeraal Beltech
 41
1.0
 51
15.0
 72
0
  0
TEXT
  8
0
 62
5
  6
CONTINUOUS
 10
44.2612033089
 20
31.1023849487
  7
TEXTSTYLE_4
 40
1.9683868794
  1
Innovation 
 41
1.0
 72
0
  0
TEXT
  8
0
 62
5
  6
CONTINUOUS
 10
59.2870573501
 20
31.1023849487
  7
TEXTSTYLE_4
 40
1.9683868794
  1
& Service in Belting
 41
1.0
 72
0
  0
ENDBLK
  8
0
  6
BYBLOCK
 62
0
  0
BLOCK
  8
0
  2
_FILLED
 70
64
 10
0.0
 20
0.0
  0
SOLID
  8
0
  6
BYBLOCK
 62
0
 10
0.0
 20
0.0
 11
-1.0
 21
0.2142857143
 12
-1.0
 22
-0.2142857143
 13
-1.0
 23
-0.2142857143
  0
ENDBLK
  8
0
  6
BYBLOCK
 62
0
  0
BLOCK
  8
0
 62
2
  6
CONTINUOUS
  2
*D0
 70
65
 10
0.0
 20
0.0
  0
TEXT
  8
0
 62
5
  6
CONTINUOUS
 10
27.2979800426
 20
148.9091234482
  7
STANDARD
 40
3.5
  1
18
 50
90.0
 41
0.8
 72
1
 11
27.2979800426
 21
151.7091234482
  0
LINE
  8
0
 62
2
  6
CONTINUOUS
 10
98.2416369648
 20
161.5262025329
 11
26.1729800426
 21
161.5262025329
  0
LINE
  8
0
 62
2
  6
CONTINUOUS
 10
98.2416369648
 20
143.1482025329
 11
26.1729800426
 21
143.1482025329
  0
LINE
  8
0
 62
2
  6
CONTINUOUS
 10
28.1729800426
 20
161.5262025329
 11
28.1729800426
 21
152.3372025329
  0
LINE
  8
0
 62
2
  6
CONTINUOUS
 10
28.1729800426
 20
143.1482025329
 11
28.1729800426
 21
152.3372025329
  0
INSERT
  8
0
 62
2
  6
CONTINUOUS
  2
_FILLED
 10
28.1729800426
 20
161.5262025329
 41
3.5
 42
3.5
 43
3.5
 50
90.0
  0
INSERT
  8
0
 62
2
  6
CONTINUOUS
  2
_FILLED
 10
28.1729800426
 20
143.1482025329
 41
3.5
 42
3.5
 43
3.5
 50
270.0
  0
ENDBLK
  8
0
  6
BYBLOCK
 62
0
  0
BLOCK
  8
0
 62
2
  6
CONTINUOUS
  2
*D1
 70
65
 10
0.0
 20
0.0
  0
TEXT
  8
0
 62
5
  6
CONTINUOUS
 10
87.3408936983
 20
166.7464444345
  7
TEXTSTYLE_1
 40
3.5
  1
n
 50
34.7534296122
 41
1.0
 72
0
  0
TEXT
  8
0
 62
5
  6
CONTINUOUS
 10
91.1750868471
 20
169.4066588386
  7
STANDARD
 40
3.5
  1
4.70
 50
34.7534296122
 41
0.8
 72
0
  0
TEXT
  8
0
 62
5
  6
CONTINUOUS
 10
100.3771504041
 20
175.7911734084
  7
STANDARD
 40
3.5
  1
 for M5 pinol
 50
34.7534296122
 41
0.8
 72
0
  0
LINE
  8
0
 62
2
  6
CONTINUOUS
 10
70.0370691974
 20
153.6758414229
 11
68.1076758173
 21
152.3372025329
  0
LINE
  8
0
 62
2
  6
CONTINUOUS
 10
68.1076758173
 20
152.3372025329
 11
130.7826471651
 21
195.8219345451
  0
LINE
  8
0
 62
2
  6
CONTINUOUS
 10
66.1782824371
 20
150.9985636428
 11
68.1076758173
 21
152.3372025329
  0
LINE
  8
0
 62
2
  6
CONTINUOUS
 10
68.1076758173
 20
152.3372025329
 11
62.0702183498
 21
148.1483339245
  0
INSERT
  8
0
 62
2
  6
CONTINUOUS
  2
_FILLED
 10
70.0370691968
 20
153.6758414225
 41
3.5
 42
3.5
 43
3.5
 50
214.7538181813
  0
INSERT
  8
0
 62
2
  6
CONTINUOUS
  2
_FILLED
 10
66.1782824377
 20
150.9985636432
 41
3.5
 42
3.5
 43
3.5
 50
34.7538181813
  0
ENDBLK
  8
0
  6
BYBLOCK
 62
0
  0
BLOCK
  8
0
 62
2
  6
CONTINUOUS
  2
*D2
 70
65
 10
0.0
 20
0.0
  0
TEXT
  8
0
 62
5
  6
CONTINUOUS
 10
21.4873521084
 20
204.5563894838
  7
STANDARD
 40
2.1
  1
 0
 50
90.0
 41
0.8
 72
1
 11
21.4873521084
 21
206.2363894838
  0
TEXT
  8
0
 62
5
  6
CONTINUOUS
 10
23.5873521084
 20
193.3563894838
  7
STANDARD
 40
3.5
  1
18.8
 50
90.0
 41
0.8
 72
1
 11
23.5873521084
 21
198.9563894838
  0
TEXT
  8
0
 62
5
  6
CONTINUOUS
 10
24.2873521084
 20
204.5563894838
  7
STANDARD
 40
2.1
  1
-0.3
 50
90.0
 41
0.8
 72
1
 11
24.2873521084
 21
207.9163894838
  0
LINE
  8
0
 62
2
  6
CONTINUOUS
 10
34.9525070456
 20
192.9019800474
 11
23.3373521084
 21
192.9019800474
  0
LINE
  8
0
 62
2
  6
CONTINUOUS
 10
48.1592927701
 20
211.7139050474
 11
23.3373521084
 21
211.7139050474
  0
LINE
  8
0
 62
2
  6
CONTINUOUS
 10
25.3373521084
 20
192.9019800474
 11
25.3373521084
 21
202.3079425474
  0
LINE
  8
0
 62
2
  6
CONTINUOUS
 10
25.3373521084
 20
211.7139050474
 11
25.3373521084
 21
202.3079425474
  0
INSERT
  8
0
 62
2
  6
CONTINUOUS
  2
_FILLED
 10
25.3373521084
 20
192.9019800474
 41
3.5
 42
3.5
 43
3.5
 50
270.0
  0
INSERT
  8
0
 62
2
  6
CONTINUOUS
  2
_FILLED
 10
25.3373521084
 20
211.7139050474
 41
3.5
 42
3.5
 43
3.5
 50
90.0
  0
ENDBLK
  8
0
  6
BYBLOCK
 62
0
  0
BLOCK
  8
0
 62
2
  6
CONTINUOUS
  2
*D3
 70
65
 10
0.0
 20
0.0
  0
TEXT
  8
0
 62
5
  6
CONTINUOUS
 10
69.552692852
 20
189.3633125
  7
STANDARD
 40
2.1
  1
+0.9
 41
0.8
 72
1
 11
72.912692852
 21
189.3633125
  0
TEXT
  8
0
 62
5
  6
CONTINUOUS
 10
58.352692852
 20
187.2633125
  7
STANDARD
 40
3.5
  1
38.9
 41
0.8
 72
1
 11
63.952692852
 21
187.2633125
  0
TEXT
  8
0
 62
5
  6
CONTINUOUS
 10
69.552692852
 20
186.5633125
  7
STANDARD
 40
2.1
  1
+0.1
 41
0.8
 72
1
 11
72.912692852
 21
186.5633125
  0
LINE
  8
0
 62
2
  6
CONTINUOUS
 10
87.5577258173
 20
210.7139050474
 11
87.5577258173
 21
183.5133125
  0
LINE
  8
0
 62
2
  6
CONTINUOUS
 10
48.6576258173
 20
210.7139050474
 11
48.6576258173
 21
183.5133125
  0
LINE
  8
0
 62
2
  6
CONTINUOUS
 10
87.5577258173
 20
185.5133125
 11
68.1076758173
 21
185.5133125
  0
LINE
  8
0
 62
2
  6
CONTINUOUS
 10
48.6576258173
 20
185.5133125
 11
68.1076758173
 21
185.5133125
  0
INSERT
  8
0
 62
2
  6
CONTINUOUS
  2
_FILLED
 10
87.5577258173
 20
185.5133125
 41
3.5
 42
3.5
 43
3.5
  0
INSERT
  8
0
 62
2
  6
CONTINUOUS
  2
_FILLED
 10
48.6576258173
 20
185.5133125
 41
3.5
 42
3.5
 43
3.5
 50
180.0
  0
ENDBLK
  8
0
  6
BYBLOCK
 62
0
  0
ENDSEC
  0
SECTION
  2
ENTITIES
  0
TEXT
  8
0
 62
7
  6
CONTINUOUS
 10
4.1388942932
 20
3.9504901274
  7
TEXTSTYLE_2
 40
1.8
  1
This drawing belongs to Ammeraal Beltech. It is not allowed to use, copy or to bring it to the knowledge a third party without the express permission from Ammeraal modular Beltech.
 41
1.0
 72
0
  0
INSERT
  8
0
 62
2
  6
CONTINUOUS
  2
AMMEAAL_LOGO_BL0
 10
49.5289569145
 20
36.290492329
  0
INSERT
  8
0
 62
2
  6
CONTINUOUS
  2
UNI_LOGO2_BL1
 10
47.9221081579
 20
86.7496072713
  0
DIMENSION
  8
0
 62
2
  6
CONTINUOUS
  2
*D0
 10
28.1729800426
 20
143.1482025329
 11
26.8025861678
 21
149.2059327901
 70
128
 13
98.2416369648
 23
161.5262025329
 14
98.2416369648
 24
143.1482025329
 50
270.0
  0
DIMENSION
  8
0
 62
2
  6
CONTINUOUS
  2
*D1
 10
70.0370691968
 20
153.6758414225
 11
107.8147949298
 21
183.0814675283
 70
131
 15
66.1782824377
 25
150.9985636432
  0
DIMENSION
  8
0
 62
2
  6
CONTINUOUS
  2
*D2
 10
25.3373521084
 20
211.7139050474
 11
23.1183400711
 21
198.3112844309
 70
128
 13
34.9525070456
 23
192.9019800474
 14
48.1592927701
 24
211.7139050474
 50
90.0
  0
DIMENSION
  8
0
 62
2
  6
CONTINUOUS
  2
*D3
 10
48.6576258173
 20
185.5133125
 11
62.832692852
 21
189.0133125
 70
128
 13
87.5577258173
 23
210.7139050474
 14
48.6576258173
 24
210.7139050474
 50
180.0
  0
LINE
  8
0
 62
2
  6
CONTINUOUS
 10
10.0
 20
79.3144574633
 11
200.0
 21
79.3144574633
  0
LINE
  8
0
 62
2
  6
CONTINUOUS
 10
10.0
 20
79.3144574633
 11
10.0
 21
8.3144574633
  0
LINE
  8
0
 62
2
  6
CONTINUOUS
 10
89.0
 20
74.3144574633
 11
200.0
 21
74.3144574633
  0
LINE
  8
0
 62
2
  6
CONTINUOUS
 10
10.0
 20
69.3144574633
 11
170.0
 21
69.3144574633
  0
LINE
  8
0
 62
2
  6
CONTINUOUS
 10
10.0
 20
64.3144574633
 11
200.0
 21
64.3144574633
  0
LINE
  8
0
 62
2
  6
CONTINUOUS
 10
10.0
 20
59.3144574633
 11
200.0
 21
59.3144574633
  0
LINE
  8
0
 62
2
  6
CONTINUOUS
 10
10.0
 20
54.3144574633
 11
200.0
 21
54.3144574633
  0
LINE
  8
0
 62
2
  6
CONTINUOUS
 10
89.0
 20
44.3144574633
 11
200.0
 21
44.3144574633
  0
LINE
  8
0
 62
2
  6
CONTINUOUS
 10
89.0
 20
27.3144574633
 11
200.0
 21
27.3144574633
  0
LINE
  8
0
 62
2
  6
CONTINUOUS
 10
10.0
 20
8.3144574633
 11
200.0
 21
8.3144574633
  0
LINE
  8
0
 62
2
  6
CONTINUOUS
 10
35.0
 20
79.3144574633
 11
35.0
 21
69.3144574633
  0
LINE
  8
0
 62
2
  6
CONTINUOUS
 10
47.0
 20
69.3144574633
 11
47.0
 21
54.3144574633
  0
LINE
  8
0
 62
2
  6
CONTINUOUS
 10
89.0
 20
79.3144574633
 11
89.0
 21
8.3144574633
  0
LINE
  8
0
 62
2
  6
CONTINUOUS
 10
114.0
 20
79.3144574633
 11
114.0
 21
44.3144574633
  0
LINE
  8
0
 62
2
  6
CONTINUOUS
 10
170.0
 20
79.3144574633
 11
170.0
 21
64.3144574633
  0
LINE
  8
0
 62
2
  6
CONTINUOUS
 10
200.0
 20
79.3144574633
 11
200.0
 21
8.3144574633
  0
TEXT
  8
0
 62
4
  6
CONTINUOUS
 10
11.0
 20
73.0644574633
  7
TEXTSTYLE_5
 40
2.5
  1
Drawing No.
 41
1.0
 72
0
  0
TEXT
  8
0
 62
7
  6
CONTINUOUS
 10
36.0
 20
72.3144574633
  7
TEXTSTYLE_6
 40
4.0
  1
P607
 41
1.0
 72
0
  0
TEXT
  8
0
 62
4
  6
CONTINUOUS
 10
90.0
 20
75.5644574633
  7
TEXTSTYLE_6
 40
2.5
  1
Material
 41
1.0
 72
0
  0
TEXT
  8
0
 62
4
  6
CONTINUOUS
 10
115.0
 20
75.5644574633
  7
TEXTSTYLE_5
 40
2.5
  1
PA6 12.5-15% glas,blå
 41
1.0
 72
0
  0
TEXT
  8
0
 62
4
  6
CONTINUOUS
 10
181.1211832061
 20
75.5644574633
  7
TEXTSTYLE_5
 40
2.5
  1
Scale
 41
1.0
 72
1
 11
185.0
 21
75.5644574633
  0
TEXT
  8
0
 62
4
  6
CONTINUOUS
 10
90.0
 20
70.5644574633
  7
TEXTSTYLE_6
 40
2.5
  1
Shrinkage
 41
1.0
 72
0
  0
TEXT
  8
0
 62
4
  6
CONTINUOUS
 10
115.0
 20
70.5644574633
  7
TEXTSTYLE_5
 40
2.5
  1
2.1%
 41
1.0
 72
0
  0
TEXT
  8
0
 62
4
  6
CONTINUOUS
 10
182.0114503817
 20
65.5644574633
  7
TEXTSTYLE_5
 40
3.0
  1
1:1
 41
1.0
 72
1
 11
185.0
 21
65.5644574633
  0
TEXT
  8
0
 62
4
  6
CONTINUOUS
 10
11.0
 20
65.5644574633
  7
TEXTSTYLE_5
 40
2.5
  1
Designer
 41
1.0
 72
0
  0
TEXT
  8
0
 62
4
  6
CONTINUOUS
 10
48.0
 20
65.5644574633
  7
TEXTSTYLE_5
 40
2.5
  1
MD
 41
1.0
 72
0
  0
TEXT
  8
0
 62
4
  6
CONTINUOUS
 10
90.0
 20
65.5644574633
  7
TEXTSTYLE_7
 40
2.5
  1
Proj. surf. Area
 41
1.0
 72
0
  0
TEXT
  8
0
 62
4
  6
CONTINUOUS
 10
115.0
 20
65.5644574633
  7
TEXTSTYLE_5
 40
2.5
  1
1123mm²
 41
1.0
 72
0
  0
TEXT
  8
0
 62
4
  6
CONTINUOUS
 10
11.0
 20
60.5644574633
  7
TEXTSTYLE_5
 40
2.5
  1
Date
 41
1.0
 72
0
  0
TEXT
  8
0
 62
4
  6
CONTINUOUS
 10
48.0
 20
60.5644574633
  7
TEXTSTYLE_5
 40
2.5
  1
26-maj-05
 41
1.0
 72
0
  0
TEXT
  8
0
 62
4
  6
CONTINUOUS
 10
90.0
 20
60.5644574633
  7
TEXTSTYLE_6
 40
2.5
  1
Tool No.
 41
1.0
 72
0
  0
TEXT
  8
0
 62
4
  6
CONTINUOUS
 10
115.0
 20
60.5644574633
  7
TEXTSTYLE_5
 40
2.5
  1
180250
 41
1.0
 72
0
  0
TEXT
  8
0
 62
4
  6
CONTINUOUS
 10
11.0
 20
55.5644574633
  7
TEXTSTYLE_5
 40
2.5
  1
Part Name
 41
1.0
 72
0
  0
TEXT
  8
0
 62
4
  6
CONTINUOUS
 10
48.0
 20
55.5644574633
  7
TEXTSTYLE_5
 40
2.5
  1
P607
 41
1.0
 72
0
  0
TEXT
  8
0
 62
4
  6
CONTINUOUS
 10
55.7767175573
 20
55.5644574633
  7
TEXTSTYLE_5
 40
2.5
  1
.
 41
1.0
 72
0
  0
TEXT
  8
0
 62
4
  6
CONTINUOUS
 10
56.7690839695
 20
55.5644574633
  7
TEXTSTYLE_5
 40
2.5
  1
PART
 41
1.0
 72
0
  0
TEXT
  8
0
 62
4
  6
CONTINUOUS
 10
90.0
 20
55.5644574633
  7
TEXTSTYLE_8
 40
2.5
  1
Finish Top Surf.
 41
1.0
 72
0
  0
TEXT
  8
0
 62
4
  6
CONTINUOUS
 10
115.0
 20
55.5644574633
  7
TEXTSTYLE_5
 40
2.5
  1
AGIE 1040
 41
1.0
 72
0
  0
TEXT
  8
0
 62
4
  6
CONTINUOUS
 10
90.0
 20
50.5644574633
  7
TEXTSTYLE_5
 40
2.5
  1
Project No.
 41
1.0
 72
0
  0
TEXT
  8
0
 62
7
  6
CONTINUOUS
 10
115.0
 20
47.3144574633
  7
TEXTSTYLE_5
 40
4.0
  1
200014
 41
1.0
 72
0
  0
TEXT
  8
0
 62
4
  6
CONTINUOUS
 10
90.0
 20
40.5644574633
  7
TEXTSTYLE_5
 40
2.5
  1
Project
 41
1.0
 72
0
  0
TEXT
  8
0
 62
7
  6
CONTINUOUS
 10
90.0
 20
31.5644574633
  7
TEXTSTYLE_5
 40
4.5
  1
uni RETAINER RINGS
 41
1.0
 72
0
  0
TEXT
  8
0
 62
4
  6
CONTINUOUS
 10
90.0
 20
23.5644574633
  7
TEXTSTYLE_5
 40
2.5
  1
Name
 41
1.0
 72
0
  0
TEXT
  8
0
 62
7
  6
CONTINUOUS
 10
90.0
 20
13.5644574633
  7
TEXTSTYLE_5
 40
4.5
  1
RR SQ1.5"
 41
1.0
 72
0
  0
TEXT
  8
0
 62
5
  6
CONTINUOUS
 10
11.0
 20
17.4075574633
  7
TEXTSTYLE_9
 40
1.607
  1
Ammeraal Beltech             Hjulmagervej 21             	tel: +45 7572 3100
 41
1.0
 72
0
  0
TEXT
  8
0
 62
5
  6
CONTINUOUS
 10
11.0
 20
14.8324574633
  7
TEXTSTYLE_9
 40
1.61
  1
Modular A/S                       DK-Vejle                          fax: +45 7572 3348
 41
1.0
 72
0
  0
TEXT
  8
0
 62
5
  6
CONTINUOUS
 10
11.0
 20
12.2044574633
  7
TEXTSTYLE_9
 40
1.6
  1
                                                                                
 41
1.0
 72
0
  0
TEXT
  8
0
 62
5
  6
CONTINUOUS
 10
61.8091603053
 20
12.2044574633
  7
TEXTSTYLE_9
 40
1.65
  1
     admin@unichains.dk
 41
1.0
 72
0
  0
TEXT
  8
0
 62
5
  6
CONTINUOUS
 10
11.0
 20
9.5644574633
  7
TEXTSTYLE_9
 40
1.6
  1
                                                                                
 41
1.0
 72
0
  0
TEXT
  8
0
 62
5
  6
CONTINUOUS
 10
61.8091603053
 20
9.5644574633
  7
TEXTSTYLE_9
 40
1.65
  1
     www.unichains.com
 41
1.0
 72
0
  0
LINE
  8
0
 62
2
  6
CONTINUOUS
 10
114.0
 20
104.3144573777
 11
200.0
 21
104.3144573777
  0
LINE
  8
0
 62
2
  6
CONTINUOUS
 10
114.0
 20
104.3144573777
 11
114.0
 21
79.3144573777
  0
LINE
  8
0
 62
2
  6
CONTINUOUS
 10
114.0
 20
99.3144573777
 11
200.0
 21
99.3144573777
  0
LINE
  8
0
 62
2
  6
CONTINUOUS
 10
114.0
 20
94.3144573777
 11
200.0
 21
94.3144573777
  0
LINE
  8
0
 62
2
  6
CONTINUOUS
 10
114.0
 20
89.3144573777
 11
200.0
 21
89.3144573777
  0
LINE
  8
0
 62
2
  6
CONTINUOUS
 10
114.0
 20
84.3144573777
 11
200.0
 21
84.3144573777
  0
LINE
  8
0
 62
2
  6
CONTINUOUS
 10
114.0
 20
79.3144573777
 11
200.0
 21
79.3144573777
  0
LINE
  8
0
 62
2
  6
CONTINUOUS
 10
122.0
 20
104.3144573777
 11
122.0
 21
79.3144573777
  0
LINE
  8
0
 62
2
  6
CONTINUOUS
 10
176.0
 20
104.3144573777
 11
176.0
 21
79.3144573777
  0
LINE
  8
0
 62
2
  6
CONTINUOUS
 10
188.0
 20
104.3144573777
 11
188.0
 21
79.3144573777
  0
LINE
  8
0
 62
2
  6
CONTINUOUS
 10
200.0
 20
104.3144573777
 11
200.0
 21
79.3144573777
  0
TEXT
  8
0
 62
4
  6
CONTINUOUS
 10
116.5687022901
 20
100.3144573777
  7
TEXTSTYLE_5
 40
3.0
  1
D
 41
1.0
 72
1
 11
118.0
 21
100.3144573777
  0
TEXT
  8
0
 62
4
  6
CONTINUOUS
 10
116.5687022901
 20
95.3144573777
  7
TEXTSTYLE_5
 40
3.0
  1
C
 41
1.0
 72
1
 11
118.0
 21
95.3144573777
  0
TEXT
  8
0
 62
4
  6
CONTINUOUS
 10
116.8034351145
 20
90.3144573777
  7
TEXTSTYLE_5
 40
3.0
  1
B
 41
1.0
 72
1
 11
118.0
 21
90.3144573777
  0
TEXT
  8
0
 62
4
  6
CONTINUOUS
 10
116.5687022901
 20
85.3144573777
  7
TEXTSTYLE_5
 40
3.0
  1
A
 41
1.0
 72
1
 11
118.0
 21
85.3144573777
  0
TEXT
  8
0
 62
4
  6
CONTINUOUS
 10
123.36
 20
85.3144573777
  7
TEXTSTYLE_8
 40
3.0
  1
Forspænd 0.2 til 0.6mm
 41
1.0
 72
0
  0
TEXT
  8
0
 62
4
  6
CONTINUOUS
 10
178.0377862595
 20
86.1144573777
  7
TEXTSTYLE_10
 40
1.4
  1
11/10-02
 41
1.0
 72
1
 11
182.0
 21
86.1144573777
  0
TEXT
  8
0
 62
4
  6
CONTINUOUS
 10
192.4423664122
 20
86.1144573777
  7
TEXTSTYLE_11
 40
1.4
  1
MD
 41
1.0
 72
1
 11
194.0
 21
86.1144573777
  0
TEXT
  8
0
 62
4
  6
CONTINUOUS
 10
114.7767175573
 20
80.3144573777
  7
TEXTSTYLE_8
 40
3.0
  1
Rev
 41
1.0
 72
1
 11
118.0
 21
80.3144573777
  0
TEXT
  8
0
 62
4
  6
CONTINUOUS
 10
123.36
 20
80.3144573777
  7
TEXTSTYLE_8
 40
3.0
  1
Modification
 41
1.0
 72
0
  0
TEXT
  8
0
 62
4
  6
CONTINUOUS
 10
177.7003816794
 20
80.3144573777
  7
TEXTSTYLE_8
 40
3.0
  1
Date
 41
1.0
 72
1
 11
182.0
 21
80.3144573777
  0
TEXT
  8
0
 62
4
  6
CONTINUOUS
 10
190.5419847328
 20
80.3144573777
  7
TEXTSTYLE_8
 40
3.0
  1
Init.
 41
1.0
 72
1
 11
194.0
 21
80.3144573777
  0
TEXT
  8
NOTES
 62
5
  6
CONTINUOUS
 10
12.9705689784
 20
111.5925708246
  7
STANDARD
 40
3.5
  1
M5x12 DIN 912 18/8
 41
0.8
 72
0
  0
TEXT
  8
NOTES
 62
5
  6
CONTINUOUS
 10
12.9705689784
 20
106.3425708246
  7
STANDARD
 40
3.5
  1
møtrik M5 DIN 934 18/8
 41
0.8
 72
0
  0
TEXT
  8
NOTES
 62
5
  6
CONTINUOUS
 10
12.9705689784
 20
101.0925708246
  7
STANDARD
 40
3.5
  1
pinol M5x8 DIN 914-18/8
 41
0.8
 72
0
  0
INSERT
  8
NOTES
 62
2
  6
CONTINUOUS
  2
BALLOON_BL2
 10
30.9319852941
 20
188.5367647059
  0
LINE
  8
0
 62
7
  6
CONTINUOUS
 10
0.0
 20
0.0
 11
210.0
 21
0.0
  0
LINE
  8
0
 62
7
  6
CONTINUOUS
 10
0.0
 20
0.0
 11
0.0
 21
297.0
  0
LINE
  8
0
 62
7
  6
CONTINUOUS
 10
10.0
 20
10.0
 11
10.0
 21
287.0
  0
LINE
  8
0
 62
7
  6
CONTINUOUS
 10
200.0
 20
10.0
 11
200.0
 21
287.0
  0
LINE
  8
0
 62
7
  6
CONTINUOUS
 10
210.0
 20
0.0
 11
210.0
 21
297.0
  0
LINE
  8
0
 62
7
  6
CONTINUOUS
 10
10.0
 20
287.0
 11
200.0
 21
287.0
  0
LINE
  8
0
 62
7
  6
CONTINUOUS
 10
0.0
 20
297.0
 11
210.0
 21
297.0
  0
LINE
  8
0
 62
9
  6
CONTINUOUS
 10
36.3000553462
 20
210.4149661585
 11
35.9525070456
 21
192.9019800474
  0
LINE
  8
0
 62
9
  6
CONTINUOUS
 10
36.8104548505
 20
210.4048371903
 11
36.4631075611
 21
192.9019800474
  0
LINE
  8
0
 62
7
  6
CONTINUOUS
 10
37.7329258173
 20
196.9859800474
 11
37.7329258173
 21
202.8344105999
  0
LINE
  8
0
 62
7
  6
CONTINUOUS
 10
41.8169258173
 20
196.9859800474
 11
41.8169258173
 21
210.7883940886
  0
LINE
  8
0
 62
7
  6
CONTINUOUS
 10
45.9009258173
 20
196.9859800474
 11
45.9009258173
 21
215.5280407561
  0
LINE
  8
0
 62
7
  6
CONTINUOUS
 10
48.329262445
 20
192.9019800474
 11
48.6488705217
 21
211.2123145009
  0
LINE
  8
0
 62
9
  6
CONTINUOUS
 10
50.5912414669
 20
223.9148550474
 11
50.5912414669
 21
224.4253550474
  0
LINE
  8
0
 62
7
  6
CONTINUOUS
 10
100.2628445889
 20
192.9019800474
 11
87.8860891896
 21
192.9019800474
  0
LINE
  8
0
 62
7
  6
CONTINUOUS
 10
48.329262445
 20
192.9019800474
 11
35.9525070456
 21
192.9019800474
  0
LINE
  8
0
 62
7
  6
CONTINUOUS
 10
98.9929258173
 20
196.9859800474
 11
89.8039258173
 21
196.9859800474
  0
LINE
  8
0
 62
7
  6
CONTINUOUS
 10
45.9009258173
 20
196.9859800474
 11
37.7329258173
 21
196.9859800474
  0
LINE
  8
0
 62
9
  6
CONTINUOUS
 10
99.404896784
 20
210.4048371903
 11
99.9152962883
 21
210.4149661585
  0
LINE
  8
0
 62
9
  6
CONTINUOUS
 10
36.8104548505
 20
210.4048371903
 11
36.3000553462
 21
210.4149661585
  0
LINE
  8
0
 62
7
  6
CONTINUOUS
 10
87.0560588644
 20
211.7139050474
 11
49.1592927701
 21
211.7139050474
  0
LINE
  8
0
 62
7
  6
CONTINUOUS
 10
65.7593758173
 20
222.4854550474
 11
70.4559758173
 21
222.4854550474
  0
LINE
  8
0
 62
7
  6
CONTINUOUS
 10
58.3012910476
 20
222.8938550474
 11
77.9140605869
 21
222.8938550474
  0
LINE
  8
0
 62
9
  6
CONTINUOUS
 10
85.6241101676
 20
223.9148550474
 11
50.5912414669
 21
223.9148550474
  0
LINE
  8
0
 62
9
  6
CONTINUOUS
 10
85.6241101676
 20
224.4253550474
 11
50.5912414669
 21
224.4253550474
  0
LINE
  8
0
 62
9
  6
CONTINUOUS
 10
85.6241101676
 20
223.9148550474
 11
85.6241101676
 21
224.4253550474
  0
LINE
  8
0
 62
7
  6
CONTINUOUS
 10
87.8860891896
 20
192.9019800474
 11
87.5664811128
 21
211.2123145009
  0
LINE
  8
0
 62
9
  6
CONTINUOUS
 10
99.404896784
 20
210.4048371903
 11
99.7522440735
 21
192.9019800474
  0
LINE
  8
0
 62
9
  6
CONTINUOUS
 10
99.9152962883
 20
210.4149661585
 11
100.2628445889
 21
192.9019800474
  0
LINE
  8
0
 62
7
  6
CONTINUOUS
 10
35.9525070456
 20
247.7419046157
 11
35.9525070456
 21
265.0989046157
  0
LINE
  8
0
 62
9
  6
CONTINUOUS
 10
36.3000553462
 20
265.0989046157
 11
36.3000553462
 21
264.0779046157
  0
LINE
  8
0
 62
9
  6
CONTINUOUS
 10
36.3000553462
 20
247.7419046157
 11
36.3000553462
 21
248.7629046157
  0
POLYLINE
  8
0
 62
7
  6
CONTINUOUS
 66
1
 70
0
  0
VERTEX
  8
0
 62
7
  6
CONTINUOUS
 10
35.9525070456
 20
247.7419046157
  0
VERTEX
  8
0
 62
7
  6
CONTINUOUS
 10
35.965281176
 20
247.6284290434
  0
VERTEX
  8
0
 62
7
  6
CONTINUOUS
 10
36.003178128
 20
247.5201875824
  0
VERTEX
  8
0
 62
7
  6
CONTINUOUS
 10
36.063717053
 20
247.423847595
  0
VERTEX
  8
0
 62
7
  6
CONTINUOUS
 10
36.1449517993
 20
247.3426214951
  0
VERTEX
  8
0
 62
7
  6
CONTINUOUS
 10
36.2413117141
 20
247.2820826735
  0
VERTEX
  8
0
 62
7
  6
CONTINUOUS
 10
36.3495839994
 20
247.244182078
  0
VERTEX
  8
0
 62
7
  6
CONTINUOUS
 10
36.4631075611
 20
247.2314046157
  0
SEQEND
  0
LINE
  8
0
 62
7
  6
CONTINUOUS
 10
37.7329258173
 20
258.778303115
 11
37.7329258173
 21
254.0625061163
  0
POLYLINE
  8
0
 62
7
  6
CONTINUOUS
 66
1
 70
0
  0
VERTEX
  8
0
 62
7
  6
CONTINUOUS
 10
35.9525070456
 20
264.0779046157
  0
VERTEX
  8
0
 62
7
  6
CONTINUOUS
 10
36.0468088312
 20
263.8444577186
  0
VERTEX
  8
0
 62
7
  6
CONTINUOUS
 10
36.2544556518
 20
263.6537556926
  0
VERTEX
  8
0
 62
7
  6
CONTINUOUS
 10
36.5761518577
 20
263.5674046157
  0
SEQEND
  0
LINE
  8
0
 62
7
  6
CONTINUOUS
 10
45.9009258173
 20
254.0625061163
 11
45.9009258173
 21
258.778303115
  0
LINE
  8
0
 62
7
  6
CONTINUOUS
 10
48.329262445
 20
247.2314046157
 11
48.329262445
 21
265.6094046157
  0
LINE
  8
0
 62
9
  6
CONTINUOUS
 10
48.6488705217
 20
265.6094046157
 11
48.6488705217
 21
247.2314046157
  0
LINE
  8
0
 62
9
  6
CONTINUOUS
 10
49.1592927701
 20
265.6094046157
 11
49.1592927701
 21
247.2314046157
  0
LINE
  8
0
 62
9
  6
CONTINUOUS
 10
50.5912414669
 20
247.2314046157
 11
50.5912414669
 21
249.2734046157
  0
LINE
  8
0
 62
9
  6
CONTINUOUS
 10
50.5912414669
 20
263.5674046157
 11
50.5912414669
 21
265.6094046157
  0
LINE
  8
0
 62
7
  6
CONTINUOUS
 10
41.8169258173
 20
261.1362016144
 11
37.7329258173
 21
258.778303115
  0
LINE
  8
0
 62
7
  6
CONTINUOUS
 10
37.7329258173
 20
254.0625061163
 11
41.8169258173
 21
251.7046076169
  0
POLYLINE
  8
0
 62
7
  6
CONTINUOUS
 66
1
 70
0
  0
VERTEX
  8
0
 62
7
  6
CONTINUOUS
 10
99.7522440735
 20
247.2314046157
  0
VERTEX
  8
0
 62
7
  6
CONTINUOUS
 10
99.8657676352
 20
247.244182078
  0
VERTEX
  8
0
 62
7
  6
CONTINUOUS
 10
99.9740399205
 20
247.2820826735
  0
VERTEX
  8
0
 62
7
  6
CONTINUOUS
 10
100.0703998352
 20
247.3426214951
  0
VERTEX
  8
0
 62
7
  6
CONTINUOUS
 10
100.1516345816
 20
247.423847595
  0
VERTEX
  8
0
 62
7
  6
CONTINUOUS
 10
100.2121735066
 20
247.5201875824
  0
VERTEX
  8
0
 62
7
  6
CONTINUOUS
 10
100.2500704585
 20
247.6284290434
  0
VERTEX
  8
0
 62
7
  6
CONTINUOUS
 10
100.2628445889
 20
247.7419046157
  0
SEQEND
  0
POLYLINE
  8
0
 62
9
  6
CONTINUOUS
 66
1
 70
0
  0
VERTEX
  8
0
 62
9
  6
CONTINUOUS
 10
99.404896784
 20
247.2314046157
  0
VERTEX
  8
0
 62
9
  6
CONTINUOUS
 10
99.5040339006
 20
247.2411270089
  0
VERTEX
  8
0
 62
9
  6
CONTINUOUS
 10
99.5993949152
 20
247.2699238655
  0
VERTEX
  8
0
 62
9
  6
CONTINUOUS
 10
99.6873475564
 20
247.3166983223
  0
VERTEX
  8
0
 62
9
  6
CONTINUOUS
 10
99.7658037346
 20
247.3809266039
  0
VERTEX
  8
0
 62
9
  6
CONTINUOUS
 10
99.8290308452
 20
247.457915704
  0
VERTEX
  8
0
 62
9
  6
CONTINUOUS
 10
99.8761028212
 20
247.5457218534
  0
VERTEX
  8
0
 62
9
  6
CONTINUOUS
 10
99.9052267056
 20
247.6410005434
  0
VERTEX
  8
0
 62
9
  6
CONTINUOUS
 10
99.9152962883
 20
247.741904638
  0
SEQEND
  0
POLYLINE
  8
0
 62
9
  6
CONTINUOUS
 66
1
 70
0
  0
VERTEX
  8
0
 62
9
  6
CONTINUOUS
 10
36.8104548505
 20
247.2314046157
  0
VERTEX
  8
0
 62
9
  6
CONTINUOUS
 10
36.7113177339
 20
247.2411270089
  0
VERTEX
  8
0
 62
9
  6
CONTINUOUS
 10
36.6159567193
 20
247.2699238655
  0
VERTEX
  8
0
 62
9
  6
CONTINUOUS
 10
36.5280040781
 20
247.3166983223
  0
VERTEX
  8
0
 62
9
  6
CONTINUOUS
 10
36.4495478999
 20
247.3809266039
  0
VERTEX
  8
0
 62
9
  6
CONTINUOUS
 10
36.3863207893
 20
247.457915704
  0
VERTEX
  8
0
 62
9
  6
CONTINUOUS
 10
36.3392488133
 20
247.5457218534
  0
VERTEX
  8
0
 62
9
  6
CONTINUOUS
 10
36.3101249289
 20
247.6410005434
  0
VERTEX
  8
0
 62
9
  6
CONTINUOUS
 10
36.3000553462
 20
247.741904638
  0
SEQEND
  0
LINE
  8
0
 62
7
  6
CONTINUOUS
 10
58.3012910476
 20
249.2734046157
 11
58.3012910476
 21
263.5674046157
  0
LINE
  8
0
 62
7
  6
CONTINUOUS
 10
45.9009258173
 20
254.0625061163
 11
41.8169258173
 21
251.7046076169
  0
LINE
  8
0
 62
7
  6
CONTINUOUS
 10
36.4631075611
 20
247.2314046157
 11
99.7522440735
 21
247.2314046157
  0
LINE
  8
0
 62
9
  6
CONTINUOUS
 10
35.9525070456
 20
247.7419046157
 11
100.2628445889
 21
247.7419046157
  0
LINE
  8
0
 62
7
  6
CONTINUOUS
 10
45.9009258173
 20
258.778303115
 11
41.8169258173
 21
261.1362016144
  0
LINE
  8
0
 62
9
  6
CONTINUOUS
 10
100.2628445889
 20
248.7629046157
 11
35.9525070456
 21
248.7629046157
  0
LINE
  8
0
 62
7
  6
CONTINUOUS
 10
36.5761485569
 20
249.2734046157
 11
99.6392033796
 21
249.2734046157
  0
POLYLINE
  8
0
 62
9
  6
CONTINUOUS
 66
1
 70
0
  0
VERTEX
  8
0
 62
9
  6
CONTINUOUS
 10
36.8104548505
 20
249.2734046157
  0
VERTEX
  8
0
 62
9
  6
CONTINUOUS
 10
36.7113177339
 20
249.2636822225
  0
VERTEX
  8
0
 62
9
  6
CONTINUOUS
 10
36.6159567193
 20
249.2348853658
  0
VERTEX
  8
0
 62
9
  6
CONTINUOUS
 10
36.5280040781
 20
249.188110909
  0
VERTEX
  8
0
 62
9
  6
CONTINUOUS
 10
36.4495478999
 20
249.1238826275
  0
VERTEX
  8
0
 62
9
  6
CONTINUOUS
 10
36.3863207893
 20
249.0468935274
  0
VERTEX
  8
0
 62
9
  6
CONTINUOUS
 10
36.3392488133
 20
248.9590873779
  0
VERTEX
  8
0
 62
9
  6
CONTINUOUS
 10
36.3101249289
 20
248.8638086879
  0
VERTEX
  8
0
 62
9
  6
CONTINUOUS
 10
36.3000553462
 20
248.7629045934
  0
SEQEND
  0
POLYLINE
  8
0
 62
9
  6
CONTINUOUS
 66
1
 70
0
  0
VERTEX
  8
0
 62
9
  6
CONTINUOUS
 10
99.404896784
 20
249.2734046157
  0
VERTEX
  8
0
 62
9
  6
CONTINUOUS
 10
99.5040339006
 20
249.2636822225
  0
VERTEX
  8
0
 62
9
  6
CONTINUOUS
 10
99.5993949152
 20
249.2348853658
  0
VERTEX
  8
0
 62
9
  6
CONTINUOUS
 10
99.6873475564
 20
249.188110909
  0
VERTEX
  8
0
 62
9
  6
CONTINUOUS
 10
99.7658037346
 20
249.1238826275
  0
VERTEX
  8
0
 62
9
  6
CONTINUOUS
 10
99.8290308452
 20
249.0468935274
  0
VERTEX
  8
0
 62
9
  6
CONTINUOUS
 10
99.8761028212
 20
248.9590873779
  0
VERTEX
  8
0
 62
9
  6
CONTINUOUS
 10
99.9052267056
 20
248.8638086879
  0
VERTEX
  8
0
 62
9
  6
CONTINUOUS
 10
99.9152962883
 20
248.7629045934
  0
SEQEND
  0
POLYLINE
  8
0
 62
7
  6
CONTINUOUS
 66
1
 70
0
  0
VERTEX
  8
0
 62
7
  6
CONTINUOUS
 10
99.6391997768
 20
263.5674046157
  0
VERTEX
  8
0
 62
7
  6
CONTINUOUS
 10
99.9608959827
 20
263.6537556926
  0
VERTEX
  8
0
 62
7
  6
CONTINUOUS
 10
100.1685428033
 20
263.8444577186
  0
VERTEX
  8
0
 62
7
  6
CONTINUOUS
 10
100.2628445889
 20
264.0779046157
  0
SEQEND
  0
POLYLINE
  8
0
 62
7
  6
CONTINUOUS
 66
1
 70
0
  0
VERTEX
  8
0
 62
7
  6
CONTINUOUS
 10
36.5761518577
 20
249.2734046157
  0
VERTEX
  8
0
 62
7
  6
CONTINUOUS
 10
36.2544556518
 20
249.1870535387
  0
VERTEX
  8
0
 62
7
  6
CONTINUOUS
 10
36.0468088312
 20
248.9963515127
  0
VERTEX
  8
0
 62
7
  6
CONTINUOUS
 10
35.9525070456
 20
248.7629046157
  0
SEQEND
  0
POLYLINE
  8
0
 62
9
  6
CONTINUOUS
 66
1
 70
0
  0
VERTEX
  8
0
 62
9
  6
CONTINUOUS
 10
99.404896784
 20
263.5674046157
  0
VERTEX
  8
0
 62
9
  6
CONTINUOUS
 10
99.5040339006
 20
263.5771270089
  0
VERTEX
  8
0
 62
9
  6
CONTINUOUS
 10
99.5993949152
 20
263.6059238655
  0
VERTEX
  8
0
 62
9
  6
CONTINUOUS
 10
99.6873475564
 20
263.6526983223
  0
VERTEX
  8
0
 62
9
  6
CONTINUOUS
 10
99.7658037346
 20
263.7169266039
  0
VERTEX
  8
0
 62
9
  6
CONTINUOUS
 10
99.8290308452
 20
263.793915704
  0
VERTEX
  8
0
 62
9
  6
CONTINUOUS
 10
99.8761028212
 20
263.8817218534
  0
VERTEX
  8
0
 62
9
  6
CONTINUOUS
 10
99.9052267056
 20
263.9770005434
  0
VERTEX
  8
0
 62
9
  6
CONTINUOUS
 10
99.9152962883
 20
264.077904638
  0
SEQEND
  0
POLYLINE
  8
0
 62
9
  6
CONTINUOUS
 66
1
 70
0
  0
VERTEX
  8
0
 62
9
  6
CONTINUOUS
 10
36.8104548505
 20
263.5674046157
  0
VERTEX
  8
0
 62
9
  6
CONTINUOUS
 10
36.7113177339
 20
263.5771270089
  0
VERTEX
  8
0
 62
9
  6
CONTINUOUS
 10
36.6159567193
 20
263.6059238655
  0
VERTEX
  8
0
 62
9
  6
CONTINUOUS
 10
36.5280040781
 20
263.6526983223
  0
VERTEX
  8
0
 62
9
  6
CONTINUOUS
 10
36.4495478999
 20
263.7169266039
  0
VERTEX
  8
0
 62
9
  6
CONTINUOUS
 10
36.3863207893
 20
263.793915704
  0
VERTEX
  8
0
 62
9
  6
CONTINUOUS
 10
36.3392488133
 20
263.8817218534
  0
VERTEX
  8
0
 62
9
  6
CONTINUOUS
 10
36.3101249289
 20
263.9770005434
  0
VERTEX
  8
0
 62
9
  6
CONTINUOUS
 10
36.3000553462
 20
264.077904638
  0
SEQEND
  0
LINE
  8
0
 62
7
  6
CONTINUOUS
 10
36.5761484862
 20
263.5674046157
 11
99.6392033798
 21
263.5674046157
  0
LINE
  8
0
 62
9
  6
CONTINUOUS
 10
35.9525070456
 20
264.0779046157
 11
100.2628445889
 21
264.0779046157
  0
LINE
  8
0
 62
9
  6
CONTINUOUS
 10
100.2628445889
 20
265.0989046157
 11
35.9525070456
 21
265.0989046157
  0
LINE
  8
0
 62
7
  6
CONTINUOUS
 10
36.4631075611
 20
265.6094046157
 11
99.7522440735
 21
265.6094046157
  0
LINE
  8
0
 62
7
  6
CONTINUOUS
 10
77.9140605869
 20
249.2734046157
 11
77.9140605869
 21
263.5674046157
  0
POLYLINE
  8
0
 62
7
  6
CONTINUOUS
 66
1
 70
0
  0
VERTEX
  8
0
 62
7
  6
CONTINUOUS
 10
36.4631075611
 20
265.6094046157
  0
VERTEX
  8
0
 62
7
  6
CONTINUOUS
 10
36.3495839994
 20
265.5966271533
  0
VERTEX
  8
0
 62
7
  6
CONTINUOUS
 10
36.2413117141
 20
265.5587265578
  0
VERTEX
  8
0
 62
7
  6
CONTINUOUS
 10
36.1449517993
 20
265.4981877362
  0
VERTEX
  8
0
 62
7
  6
CONTINUOUS
 10
36.063717053
 20
265.4169616363
  0
VERTEX
  8
0
 62
7
  6
CONTINUOUS
 10
36.003178128
 20
265.3206216489
  0
VERTEX
  8
0
 62
7
  6
CONTINUOUS
 10
35.965281176
 20
265.2123801879
  0
VERTEX
  8
0
 62
7
  6
CONTINUOUS
 10
35.9525070456
 20
265.0989046157
  0
SEQEND
  0
POLYLINE
  8
0
 62
9
  6
CONTINUOUS
 66
1
 70
0
  0
VERTEX
  8
0
 62
9
  6
CONTINUOUS
 10
36.8104548505
 20
265.6094046157
  0
VERTEX
  8
0
 62
9
  6
CONTINUOUS
 10
36.7113177339
 20
265.5996822225
  0
VERTEX
  8
0
 62
9
  6
CONTINUOUS
 10
36.6159567193
 20
265.5708853658
  0
VERTEX
  8
0
 62
9
  6
CONTINUOUS
 10
36.5280040781
 20
265.524110909
  0
VERTEX
  8
0
 62
9
  6
CONTINUOUS
 10
36.4495478999
 20
265.4598826275
  0
VERTEX
  8
0
 62
9
  6
CONTINUOUS
 10
36.3863207893
 20
265.3828935274
  0
VERTEX
  8
0
 62
9
  6
CONTINUOUS
 10
36.3392488133
 20
265.2950873779
  0
VERTEX
  8
0
 62
9
  6
CONTINUOUS
 10
36.3101249289
 20
265.1998086879
  0
VERTEX
  8
0
 62
9
  6
CONTINUOUS
 10
36.3000553462
 20
265.0989045934
  0
SEQEND
  0
POLYLINE
  8
0
 62
9
  6
CONTINUOUS
 66
1
 70
0
  0
VERTEX
  8
0
 62
9
  6
CONTINUOUS
 10
99.404896784
 20
265.6094046157
  0
VERTEX
  8
0
 62
9
  6
CONTINUOUS
 10
99.5040339006
 20
265.5996822225
  0
VERTEX
  8
0
 62
9
  6
CONTINUOUS
 10
99.5993949152
 20
265.5708853658
  0
VERTEX
  8
0
 62
9
  6
CONTINUOUS
 10
99.6873475564
 20
265.524110909
  0
VERTEX
  8
0
 62
9
  6
CONTINUOUS
 10
99.7658037346
 20
265.4598826275
  0
VERTEX
  8
0
 62
9
  6
CONTINUOUS
 10
99.8290308452
 20
265.3828935274
  0
VERTEX
  8
0
 62
9
  6
CONTINUOUS
 10
99.8761028212
 20
265.2950873779
  0
VERTEX
  8
0
 62
9
  6
CONTINUOUS
 10
99.9052267056
 20
265.1998086879
  0
VERTEX
  8
0
 62
9
  6
CONTINUOUS
 10
99.9152962883
 20
265.0989045934
  0
SEQEND
  0
LINE
  8
0
 62
9
  6
CONTINUOUS
 10
85.6241101676
 20
247.2314046157
 11
85.6241101676
 21
249.2734046157
  0
LINE
  8
0
 62
9
  6
CONTINUOUS
 10
85.6241101676
 20
263.5674046157
 11
85.6241101676
 21
265.6094046157
  0
LINE
  8
0
 62
9
  6
CONTINUOUS
 10
87.0560588644
 20
265.6094046157
 11
87.0560588644
 21
247.2314046157
  0
LINE
  8
0
 62
9
  6
CONTINUOUS
 10
87.5664811128
 20
265.6094046157
 11
87.5664811128
 21
247.2314046157
  0
LINE
  8
0
 62
7
  6
CONTINUOUS
 10
87.8860891896
 20
247.2314046157
 11
87.8860891896
 21
265.6094046157
  0
POLYLINE
  8
0
 62
7
  6
CONTINUOUS
 66
1
 70
0
  0
VERTEX
  8
0
 62
7
  6
CONTINUOUS
 10
100.2628445889
 20
248.7629046157
  0
VERTEX
  8
0
 62
7
  6
CONTINUOUS
 10
100.1685428033
 20
248.9963515127
  0
VERTEX
  8
0
 62
7
  6
CONTINUOUS
 10
99.9608959827
 20
249.1870535387
  0
VERTEX
  8
0
 62
7
  6
CONTINUOUS
 10
99.6391997768
 20
249.2734046157
  0
SEQEND
  0
LINE
  8
0
 62
9
  6
CONTINUOUS
 10
99.9152962883
 20
265.0989046157
 11
99.9152962883
 21
264.0779046157
  0
LINE
  8
0
 62
9
  6
CONTINUOUS
 10
99.9152962883
 20
247.7419046157
 11
99.9152962883
 21
248.7629046157
  0
LINE
  8
0
 62
7
  6
CONTINUOUS
 10
100.2628445889
 20
247.7419046157
 11
100.2628445889
 21
265.0989046157
  0
POLYLINE
  8
0
 62
7
  6
CONTINUOUS
 66
1
 70
0
  0
VERTEX
  8
0
 62
7
  6
CONTINUOUS
 10
100.2628445889
 20
265.0989046157
  0
VERTEX
  8
0
 62
7
  6
CONTINUOUS
 10
100.2500704585
 20
265.2123801879
  0
VERTEX
  8
0
 62
7
  6
CONTINUOUS
 10
100.2121735066
 20
265.3206216489
  0
VERTEX
  8
0
 62
7
  6
CONTINUOUS
 10
100.1516345816
 20
265.4169616363
  0
VERTEX
  8
0
 62
7
  6
CONTINUOUS
 10
100.0703998352
 20
265.4981877362
  0
VERTEX
  8
0
 62
7
  6
CONTINUOUS
 10
99.9740399205
 20
265.5587265578
  0
VERTEX
  8
0
 62
7
  6
CONTINUOUS
 10
99.8657676352
 20
265.5966271533
  0
VERTEX
  8
0
 62
7
  6
CONTINUOUS
 10
99.7522440735
 20
265.6094046157
  0
SEQEND
  0
LINE
  8
0
 62
7
  6
CONTINUOUS
 10
35.9525070456
 20
143.6587025329
 11
35.9525070456
 21
161.0157025329
  0
LINE
  8
0
 62
9
  6
CONTINUOUS
 10
36.3000553462
 20
161.0157025329
 11
36.3000553462
 21
159.9947025329
  0
LINE
  8
0
 62
9
  6
CONTINUOUS
 10
36.3000553462
 20
143.6587025329
 11
36.3000553462
 21
144.6797025329
  0
POLYLINE
  8
0
 62
7
  6
CONTINUOUS
 66
1
 70
0
  0
VERTEX
  8
0
 62
7
  6
CONTINUOUS
 10
35.9525070456
 20
161.0157025329
  0
VERTEX
  8
0
 62
7
  6
CONTINUOUS
 10
35.965281176
 20
161.1291781051
  0
VERTEX
  8
0
 62
7
  6
CONTINUOUS
 10
36.003178128
 20
161.2374195661
  0
VERTEX
  8
0
 62
7
  6
CONTINUOUS
 10
36.063717053
 20
161.3337595535
  0
VERTEX
  8
0
 62
7
  6
CONTINUOUS
 10
36.1449517993
 20
161.4149856534
  0
VERTEX
  8
0
 62
7
  6
CONTINUOUS
 10
36.2413117141
 20
161.475524475
  0
VERTEX
  8
0
 62
7
  6
CONTINUOUS
 10
36.3495839994
 20
161.5134250705
  0
VERTEX
  8
0
 62
7
  6
CONTINUOUS
 10
36.4631075611
 20
161.5262025329
  0
SEQEND
  0
LINE
  8
0
 62
7
  6
CONTINUOUS
 10
37.7329258173
 20
154.6951010322
 11
37.7329258173
 21
149.9793040335
  0
POLYLINE
  8
0
 62
7
  6
CONTINUOUS
 66
1
 70
0
  0
VERTEX
  8
0
 62
7
  6
CONTINUOUS
 10
35.9525070456
 20
144.6797025329
  0
VERTEX
  8
0
 62
7
  6
CONTINUOUS
 10
36.0468088312
 20
144.9131494299
  0
VERTEX
  8
0
 62
7
  6
CONTINUOUS
 10
36.2544556518
 20
145.1038514559
  0
VERTEX
  8
0
 62
7
  6
CONTINUOUS
 10
36.5761518577
 20
145.1902025329
  0
SEQEND
  0
LINE
  8
0
 62
7
  6
CONTINUOUS
 10
45.9009258173
 20
154.6951010322
 11
45.9009258173
 21
149.9793040335
  0
LINE
  8
0
 62
7
  6
CONTINUOUS
 10
48.329262445
 20
161.5262025329
 11
48.329262445
 21
143.1482025329
  0
LINE
  8
0
 62
9
  6
CONTINUOUS
 10
48.6488705217
 20
143.1482025329
 11
48.6488705217
 21
161.5262025329
  0
LINE
  8
0
 62
9
  6
CONTINUOUS
 10
49.1592927701
 20
143.1482025329
 11
49.1592927701
 21
161.5262025329
  0
LINE
  8
0
 62
9
  6
CONTINUOUS
 10
50.5912414669
 20
143.1482025329
 11
50.5912414669
 21
145.1902025329
  0
LINE
  8
0
 62
9
  6
CONTINUOUS
 10
50.5912414669
 20
159.4842025329
 11
50.5912414669
 21
161.5262025329
  0
LINE
  8
0
 62
7
  6
CONTINUOUS
 10
41.8169258173
 20
157.0529995316
 11
37.7329258173
 21
154.6951010322
  0
LINE
  8
0
 62
7
  6
CONTINUOUS
 10
41.8169258173
 20
147.6214055341
 11
37.7329258173
 21
149.9793040335
  0
POLYLINE
  8
0
 62
9
  6
CONTINUOUS
 66
1
 70
0
  0
VERTEX
  8
0
 62
9
  6
CONTINUOUS
 10
99.404896784
 20
143.1482025329
  0
VERTEX
  8
0
 62
9
  6
CONTINUOUS
 10
99.5040339006
 20
143.1579249261
  0
VERTEX
  8
0
 62
9
  6
CONTINUOUS
 10
99.5993949152
 20
143.1867217827
  0
VERTEX
  8
0
 62
9
  6
CONTINUOUS
 10
99.6873475564
 20
143.2334962395
  0
VERTEX
  8
0
 62
9
  6
CONTINUOUS
 10
99.7658037346
 20
143.2977245211
  0
VERTEX
  8
0
 62
9
  6
CONTINUOUS
 10
99.8290308452
 20
143.3747136212
  0
VERTEX
  8
0
 62
9
  6
CONTINUOUS
 10
99.8761028212
 20
143.4625197707
  0
VERTEX
  8
0
 62
9
  6
CONTINUOUS
 10
99.9052267056
 20
143.5577984606
  0
VERTEX
  8
0
 62
9
  6
CONTINUOUS
 10
99.9152962883
 20
143.6587025552
  0
SEQEND
  0
POLYLINE
  8
0
 62
9
  6
CONTINUOUS
 66
1
 70
0
  0
VERTEX
  8
0
 62
9
  6
CONTINUOUS
 10
36.8104548505
 20
143.1482025329
  0
VERTEX
  8
0
 62
9
  6
CONTINUOUS
 10
36.7113177339
 20
143.1579249261
  0
VERTEX
  8
0
 62
9
  6
CONTINUOUS
 10
36.6159567193
 20
143.1867217827
  0
VERTEX
  8
0
 62
9
  6
CONTINUOUS
 10
36.5280040781
 20
143.2334962395
  0
VERTEX
  8
0
 62
9
  6
CONTINUOUS
 10
36.4495478999
 20
143.2977245211
  0
VERTEX
  8
0
 62
9
  6
CONTINUOUS
 10
36.3863207893
 20
143.3747136212
  0
VERTEX
  8
0
 62
9
  6
CONTINUOUS
 10
36.3392488133
 20
143.4625197707
  0
VERTEX
  8
0
 62
9
  6
CONTINUOUS
 10
36.3101249289
 20
143.5577984606
  0
VERTEX
  8
0
 62
9
  6
CONTINUOUS
 10
36.3000553462
 20
143.6587025552
  0
SEQEND
  0
POLYLINE
  8
0
 62
7
  6
CONTINUOUS
 66
1
 70
0
  0
VERTEX
  8
0
 62
7
  6
CONTINUOUS
 10
36.4631075611
 20
143.1482025329
  0
VERTEX
  8
0
 62
7
  6
CONTINUOUS
 10
36.3495839994
 20
143.1609799952
  0
VERTEX
  8
0
 62
7
  6
CONTINUOUS
 10
36.2413117141
 20
143.1988805907
  0
VERTEX
  8
0
 62
7
  6
CONTINUOUS
 10
36.1449517993
 20
143.2594194123
  0
VERTEX
  8
0
 62
7
  6
CONTINUOUS
 10
36.063717053
 20
143.3406455122
  0
VERTEX
  8
0
 62
7
  6
CONTINUOUS
 10
36.003178128
 20
143.4369854996
  0
VERTEX
  8
0
 62
7
  6
CONTINUOUS
 10
35.965281176
 20
143.5452269606
  0
VERTEX
  8
0
 62
7
  6
CONTINUOUS
 10
35.9525070456
 20
143.6587025329
  0
SEQEND
  0
LINE
  8
0
 62
7
  6
CONTINUOUS
 10
58.3012910476
 20
159.4842025329
 11
58.3012910476
 21
145.1902025329
  0
LINE
  8
0
 62
7
  6
CONTINUOUS
 10
45.9009258173
 20
149.9793040335
 11
41.8169258173
 21
147.6214055341
  0
LINE
  8
0
 62
7
  6
CONTINUOUS
 10
36.4631075611
 20
143.1482025329
 11
99.7522440735
 21
143.1482025329
  0
LINE
  8
0
 62
9
  6
CONTINUOUS
 10
100.2628445889
 20
143.6587025329
 11
35.9525070456
 21
143.6587025329
  0
LINE
  8
0
 62
7
  6
CONTINUOUS
 10
45.9009258173
 20
154.6951010322
 11
41.8169258173
 21
157.0529995316
  0
LINE
  8
0
 62
9
  6
CONTINUOUS
 10
35.9525070456
 20
144.6797025329
 11
100.2628445889
 21
144.6797025329
  0
LINE
  8
0
 62
7
  6
CONTINUOUS
 10
36.5761484862
 20
145.1902025329
 11
99.6392033798
 21
145.1902025329
  0
POLYLINE
  8
0
 62
9
  6
CONTINUOUS
 66
1
 70
0
  0
VERTEX
  8
0
 62
9
  6
CONTINUOUS
 10
36.8104548505
 20
145.1902025329
  0
VERTEX
  8
0
 62
9
  6
CONTINUOUS
 10
36.7113177339
 20
145.1804801397
  0
VERTEX
  8
0
 62
9
  6
CONTINUOUS
 10
36.6159567193
 20
145.151683283
  0
VERTEX
  8
0
 62
9
  6
CONTINUOUS
 10
36.5280040781
 20
145.1049088263
  0
VERTEX
  8
0
 62
9
  6
CONTINUOUS
 10
36.4495478999
 20
145.0406805447
  0
VERTEX
  8
0
 62
9
  6
CONTINUOUS
 10
36.3863207893
 20
144.9636914446
  0
VERTEX
  8
0
 62
9
  6
CONTINUOUS
 10
36.3392488133
 20
144.8758852951
  0
VERTEX
  8
0
 62
9
  6
CONTINUOUS
 10
36.3101249289
 20
144.7806066051
  0
VERTEX
  8
0
 62
9
  6
CONTINUOUS
 10
36.3000553462
 20
144.6797025106
  0
SEQEND
  0
POLYLINE
  8
0
 62
9
  6
CONTINUOUS
 66
1
 70
0
  0
VERTEX
  8
0
 62
9
  6
CONTINUOUS
 10
99.404896784
 20
145.1902025329
  0
VERTEX
  8
0
 62
9
  6
CONTINUOUS
 10
99.5040339006
 20
145.1804801397
  0
VERTEX
  8
0
 62
9
  6
CONTINUOUS
 10
99.5993949152
 20
145.151683283
  0
VERTEX
  8
0
 62
9
  6
CONTINUOUS
 10
99.6873475564
 20
145.1049088263
  0
VERTEX
  8
0
 62
9
  6
CONTINUOUS
 10
99.7658037346
 20
145.0406805447
  0
VERTEX
  8
0
 62
9
  6
CONTINUOUS
 10
99.8290308452
 20
144.9636914446
  0
VERTEX
  8
0
 62
9
  6
CONTINUOUS
 10
99.8761028212
 20
144.8758852951
  0
VERTEX
  8
0
 62
9
  6
CONTINUOUS
 10
99.9052267056
 20
144.7806066051
  0
VERTEX
  8
0
 62
9
  6
CONTINUOUS
 10
99.9152962883
 20
144.6797025106
  0
SEQEND
  0
POLYLINE
  8
0
 62
7
  6
CONTINUOUS
 66
1
 70
0
  0
VERTEX
  8
0
 62
7
  6
CONTINUOUS
 10
36.5761518577
 20
159.4842025329
  0
VERTEX
  8
0
 62
7
  6
CONTINUOUS
 10
36.2544556518
 20
159.5705536098
  0
VERTEX
  8
0
 62
7
  6
CONTINUOUS
 10
36.0468088312
 20
159.7612556358
  0
VERTEX
  8
0
 62
7
  6
CONTINUOUS
 10
35.9525070456
 20
159.9947025329
  0
SEQEND
  0
POLYLINE
  8
0
 62
7
  6
CONTINUOUS
 66
1
 70
0
  0
VERTEX
  8
0
 62
7
  6
CONTINUOUS
 10
99.6391997768
 20
145.1902025329
  0
VERTEX
  8
0
 62
7
  6
CONTINUOUS
 10
99.9608959827
 20
145.1038514559
  0
VERTEX
  8
0
 62
7
  6
CONTINUOUS
 10
100.1685428033
 20
144.9131494299
  0
VERTEX
  8
0
 62
7
  6
CONTINUOUS
 10
100.2628445889
 20
144.6797025329
  0
SEQEND
  0
POLYLINE
  8
0
 62
9
  6
CONTINUOUS
 66
1
 70
0
  0
VERTEX
  8
0
 62
9
  6
CONTINUOUS
 10
99.404896784
 20
159.4842025329
  0
VERTEX
  8
0
 62
9
  6
CONTINUOUS
 10
99.5040339006
 20
159.4939249261
  0
VERTEX
  8
0
 62
9
  6
CONTINUOUS
 10
99.5993949152
 20
159.5227217827
  0
VERTEX
  8
0
 62
9
  6
CONTINUOUS
 10
99.6873475564
 20
159.5694962395
  0
VERTEX
  8
0
 62
9
  6
CONTINUOUS
 10
99.7658037346
 20
159.6337245211
  0
VERTEX
  8
0
 62
9
  6
CONTINUOUS
 10
99.8290308452
 20
159.7107136212
  0
VERTEX
  8
0
 62
9
  6
CONTINUOUS
 10
99.8761028212
 20
159.7985197707
  0
VERTEX
  8
0
 62
9
  6
CONTINUOUS
 10
99.9052267056
 20
159.8937984606
  0
VERTEX
  8
0
 62
9
  6
CONTINUOUS
 10
99.9152962883
 20
159.9947025552
  0
SEQEND
  0
POLYLINE
  8
0
 62
9
  6
CONTINUOUS
 66
1
 70
0
  0
VERTEX
  8
0
 62
9
  6
CONTINUOUS
 10
36.8104548505
 20
159.4842025329
  0
VERTEX
  8
0
 62
9
  6
CONTINUOUS
 10
36.7113177339
 20
159.4939249261
  0
VERTEX
  8
0
 62
9
  6
CONTINUOUS
 10
36.6159567193
 20
159.5227217827
  0
VERTEX
  8
0
 62
9
  6
CONTINUOUS
 10
36.5280040781
 20
159.5694962395
  0
VERTEX
  8
0
 62
9
  6
CONTINUOUS
 10
36.4495478999
 20
159.6337245211
  0
VERTEX
  8
0
 62
9
  6
CONTINUOUS
 10
36.3863207893
 20
159.7107136212
  0
VERTEX
  8
0
 62
9
  6
CONTINUOUS
 10
36.3392488133
 20
159.7985197707
  0
VERTEX
  8
0
 62
9
  6
CONTINUOUS
 10
36.3101249289
 20
159.8937984606
  0
VERTEX
  8
0
 62
9
  6
CONTINUOUS
 10
36.3000553462
 20
159.9947025552
  0
SEQEND
  0
LINE
  8
0
 62
7
  6
CONTINUOUS
 10
36.5761485569
 20
159.4842025329
 11
99.6392033796
 21
159.4842025329
  0
LINE
  8
0
 62
9
  6
CONTINUOUS
 10
100.2628445889
 20
159.9947025329
 11
35.9525070456
 21
159.9947025329
  0
LINE
  8
0
 62
9
  6
CONTINUOUS
 10
35.9525070456
 20
161.0157025329
 11
100.2628445889
 21
161.0157025329
  0
LINE
  8
0
 62
7
  6
CONTINUOUS
 10
36.4631075611
 20
161.5262025329
 11
99.7522440735
 21
161.5262025329
  0
LINE
  8
0
 62
7
  6
CONTINUOUS
 10
77.9140605869
 20
159.4842025329
 11
77.9140605869
 21
145.1902025329
  0
POLYLINE
  8
0
 62
9
  6
CONTINUOUS
 66
1
 70
0
  0
VERTEX
  8
0
 62
9
  6
CONTINUOUS
 10
36.8104548505
 20
161.5262025329
  0
VERTEX
  8
0
 62
9
  6
CONTINUOUS
 10
36.7113177339
 20
161.5164801397
  0
VERTEX
  8
0
 62
9
  6
CONTINUOUS
 10
36.6159567193
 20
161.487683283
  0
VERTEX
  8
0
 62
9
  6
CONTINUOUS
 10
36.5280040781
 20
161.4409088263
  0
VERTEX
  8
0
 62
9
  6
CONTINUOUS
 10
36.4495478999
 20
161.3766805447
  0
VERTEX
  8
0
 62
9
  6
CONTINUOUS
 10
36.3863207893
 20
161.2996914446
  0
VERTEX
  8
0
 62
9
  6
CONTINUOUS
 10
36.3392488133
 20
161.2118852951
  0
VERTEX
  8
0
 62
9
  6
CONTINUOUS
 10
36.3101249289
 20
161.1166066051
  0
VERTEX
  8
0
 62
9
  6
CONTINUOUS
 10
36.3000553462
 20
161.0157025106
  0
SEQEND
  0
POLYLINE
  8
0
 62
9
  6
CONTINUOUS
 66
1
 70
0
  0
VERTEX
  8
0
 62
9
  6
CONTINUOUS
 10
99.404896784
 20
161.5262025329
  0
VERTEX
  8
0
 62
9
  6
CONTINUOUS
 10
99.5040339006
 20
161.5164801397
  0
VERTEX
  8
0
 62
9
  6
CONTINUOUS
 10
99.5993949152
 20
161.487683283
  0
VERTEX
  8
0
 62
9
  6
CONTINUOUS
 10
99.6873475564
 20
161.4409088263
  0
VERTEX
  8
0
 62
9
  6
CONTINUOUS
 10
99.7658037346
 20
161.3766805447
  0
VERTEX
  8
0
 62
9
  6
CONTINUOUS
 10
99.8290308452
 20
161.2996914446
  0
VERTEX
  8
0
 62
9
  6
CONTINUOUS
 10
99.8761028212
 20
161.2118852951
  0
VERTEX
  8
0
 62
9
  6
CONTINUOUS
 10
99.9052267056
 20
161.1166066051
  0
VERTEX
  8
0
 62
9
  6
CONTINUOUS
 10
99.9152962883
 20
161.0157025106
  0
SEQEND
  0
POLYLINE
  8
0
 62
7
  6
CONTINUOUS
 66
1
 70
0
  0
VERTEX
  8
0
 62
7
  6
CONTINUOUS
 10
99.7522440735
 20
161.5262025329
  0
VERTEX
  8
0
 62
7
  6
CONTINUOUS
 10
99.8657676352
 20
161.5134250705
  0
VERTEX
  8
0
 62
7
  6
CONTINUOUS
 10
99.9740399205
 20
161.475524475
  0
VERTEX
  8
0
 62
7
  6
CONTINUOUS
 10
100.0703998352
 20
161.4149856534
  0
VERTEX
  8
0
 62
7
  6
CONTINUOUS
 10
100.1516345816
 20
161.3337595535
  0
VERTEX
  8
0
 62
7
  6
CONTINUOUS
 10
100.2121735066
 20
161.2374195661
  0
VERTEX
  8
0
 62
7
  6
CONTINUOUS
 10
100.2500704585
 20
161.1291781051
  0
VERTEX
  8
0
 62
7
  6
CONTINUOUS
 10
100.2628445889
 20
161.0157025329
  0
SEQEND
  0
LINE
  8
0
 62
9
  6
CONTINUOUS
 10
85.6241101676
 20
143.1482025329
 11
85.6241101676
 21
145.1902025329
  0
LINE
  8
0
 62
9
  6
CONTINUOUS
 10
85.6241101676
 20
159.4842025329
 11
85.6241101676
 21
161.5262025329
  0
LINE
  8
0
 62
9
  6
CONTINUOUS
 10
87.0560588644
 20
143.1482025329
 11
87.0560588644
 21
161.5262025329
  0
LINE
  8
0
 62
9
  6
CONTINUOUS
 10
87.5664811128
 20
143.1482025329
 11
87.5664811128
 21
161.5262025329
  0
LINE
  8
0
 62
7
  6
CONTINUOUS
 10
87.8860891896
 20
161.5262025329
 11
87.8860891896
 21
143.1482025329
  0
POLYLINE
  8
0
 62
7
  6
CONTINUOUS
 66
1
 70
0
  0
VERTEX
  8
0
 62
7
  6
CONTINUOUS
 10
100.2628445889
 20
159.9947025329
  0
VERTEX
  8
0
 62
7
  6
CONTINUOUS
 10
100.1685428033
 20
159.7612556358
  0
VERTEX
  8
0
 62
7
  6
CONTINUOUS
 10
99.9608959827
 20
159.5705536098
  0
VERTEX
  8
0
 62
7
  6
CONTINUOUS
 10
99.6391997768
 20
159.4842025329
  0
SEQEND
  0
LINE
  8
0
 62
9
  6
CONTINUOUS
 10
99.9152962883
 20
161.0157025329
 11
99.9152962883
 21
159.9947025329
  0
LINE
  8
0
 62
9
  6
CONTINUOUS
 10
99.9152962883
 20
143.6587025329
 11
99.9152962883
 21
144.6797025329
  0
LINE
  8
0
 62
7
  6
CONTINUOUS
 10
100.2628445889
 20
143.6587025329
 11
100.2628445889
 21
161.0157025329
  0
POLYLINE
  8
0
 62
7
  6
CONTINUOUS
 66
1
 70
0
  0
VERTEX
  8
0
 62
7
  6
CONTINUOUS
 10
100.2628445889
 20
143.6587025329
  0
VERTEX
  8
0
 62
7
  6
CONTINUOUS
 10
100.2500704585
 20
143.5452269606
  0
VERTEX
  8
0
 62
7
  6
CONTINUOUS
 10
100.2121735066
 20
143.4369854996
  0
VERTEX
  8
0
 62
7
  6
CONTINUOUS
 10
100.1516345816
 20
143.3406455122
  0
VERTEX
  8
0
 62
7
  6
CONTINUOUS
 10
100.0703998352
 20
143.2594194123
  0
VERTEX
  8
0
 62
7
  6
CONTINUOUS
 10
99.9740399205
 20
143.1988805907
  0
VERTEX
  8
0
 62
7
  6
CONTINUOUS
 10
99.8657676352
 20
143.1609799952
  0
VERTEX
  8
0
 62
7
  6
CONTINUOUS
 10
99.7522440735
 20
143.1482025329
  0
SEQEND
  0
POLYLINE
  8
0
 62
7
  6
CONTINUOUS
 66
1
 70
0
  0
VERTEX
  8
0
 62
7
  6
CONTINUOUS
 10
136.157089662
 20
210.7966538954
  0
VERTEX
  8
0
 62
7
  6
CONTINUOUS
 10
136.0730573128
 20
210.8305347366
  0
VERTEX
  8
0
 62
7
  6
CONTINUOUS
 10
136.0059963183
 20
210.881890015
  0
VERTEX
  8
0
 62
7
  6
CONTINUOUS
 10
135.9593097033
 20
210.9488049739
  0
SEQEND
  0
LINE
  8
0
 62
7
  6
CONTINUOUS
 10
136.157089662
 20
210.7966538954
 11
150.005650637
 21
207.0609802821
  0
POLYLINE
  8
0
 62
9
  6
CONTINUOUS
 66
1
 70
0
  0
VERTEX
  8
0
 62
9
  6
CONTINUOUS
 10
130.4888056166
 20
222.3565554694
  0
VERTEX
  8
0
 62
9
  6
CONTINUOUS
 10
130.5352395597
 20
222.2903004331
  0
VERTEX
  8
0
 62
9
  6
CONTINUOUS
 10
130.6018626054
 20
222.2396053118
  0
VERTEX
  8
0
 62
9
  6
CONTINUOUS
 10
130.685898352
 20
222.2058432887
  0
SEQEND
  0
POLYLINE
  8
0
 62
7
  6
CONTINUOUS
 66
1
 70
0
  0
VERTEX
  8
0
 62
7
  6
CONTINUOUS
 10
141.0409493594
 20
215.1747002563
  0
VERTEX
  8
0
 62
7
  6
CONTINUOUS
 10
140.834412259
 20
215.2498014644
  0
VERTEX
  8
0
 62
7
  6
CONTINUOUS
 10
140.6053810851
 20
215.3747885525
  0
VERTEX
  8
0
 62
7
  6
CONTINUOUS
 10
140.3629803509
 20
215.5494051226
  0
VERTEX
  8
0
 62
7
  6
CONTINUOUS
 10
140.1147389435
 20
215.7686263582
  0
VERTEX
  8
0
 62
7
  6
CONTINUOUS
 10
139.8577836406
 20
216.0348129384
  0
VERTEX
  8
0
 62
7
  6
CONTINUOUS
 10
139.5910396381
 20
216.3506306275
  0
VERTEX
  8
0
 62
7
  6
CONTINUOUS
 10
139.3149687683
 20
216.7182457985
  0
VERTEX
  8
0
 62
7
  6
CONTINUOUS
 10
139.0324538661
 20
217.1371694172
  0
VERTEX
  8
0
 62
7
  6
CONTINUOUS
 10
138.7469503391
 20
217.6059809417
  0
VERTEX
  8
0
 62
7
  6
CONTINUOUS
 10
138.457100108
 20
218.1324816323
  0
VERTEX
  8
0
 62
7
  6
CONTINUOUS
 10
138.3686979377
 20
218.304191939
  0
SEQEND
  0
LINE
  8
0
 62
7
  6
CONTINUOUS
 10
135.9592981988
 20
210.9488231477
 11
130.4888056166
 21
222.3565554694
  0
LINE
  8
0
 62
9
  6
CONTINUOUS
 10
136.157089662
 20
210.7966538954
 11
130.685898352
 21
222.2058432887
  0
LINE
  8
0
 62
9
  6
CONTINUOUS
 10
131.5005195858
 20
221.986097782
 11
136.9717108958
 21
210.5769083888
  0
LINE
  8
0
 62
9
  6
CONTINUOUS
 10
132.1710471101
 20
222.2476752505
 11
135.859508581
 21
214.5560495867
  0
POLYLINE
  8
0
 62
9
  6
CONTINUOUS
 66
1
 70
0
  0
VERTEX
  8
0
 62
9
  6
CONTINUOUS
 10
130.685898352
 20
222.2058432887
  0
VERTEX
  8
0
 62
9
  6
CONTINUOUS
 10
130.4484602332
 20
222.7410539432
  0
VERTEX
  8
0
 62
9
  6
CONTINUOUS
 10
130.1911969769
 20
223.4344919485
  0
VERTEX
  8
0
 62
9
  6
CONTINUOUS
 10
129.9403927521
 20
224.2837408156
  0
VERTEX
  8
0
 62
9
  6
CONTINUOUS
 10
129.7208396943
 20
225.281251651
  0
VERTEX
  8
0
 62
9
  6
CONTINUOUS
 10
129.554415107
 20
226.4117149183
  0
VERTEX
  8
0
 62
9
  6
CONTINUOUS
 10
129.4583203537
 20
227.6513961041
  0
VERTEX
  8
0
 62
9
  6
CONTINUOUS
 10
129.443564211
 20
228.9689106096
  0
VERTEX
  8
0
 62
9
  6
CONTINUOUS
 10
129.5140841847
 20
230.3283424934
  0
VERTEX
  8
0
 62
9
  6
CONTINUOUS
 10
129.668923115
 20
231.706784433
  0
VERTEX
  8
0
 62
9
  6
CONTINUOUS
 10
129.9066333873
 20
233.0941622113
  0
VERTEX
  8
0
 62
9
  6
CONTINUOUS
 10
130.2257740112
 20
234.4802275182
  0
VERTEX
  8
0
 62
9
  6
CONTINUOUS
 10
130.6205888388
 20
235.841183708
  0
VERTEX
  8
0
 62
9
  6
CONTINUOUS
 10
131.0764988312
 20
237.1389403433
  0
VERTEX
  8
0
 62
9
  6
CONTINUOUS
 10
131.5730128586
 20
238.3388232796
  0
VERTEX
  8
0
 62
9
  6
CONTINUOUS
 10
132.0854955256
 20
239.4127269695
  0
VERTEX
  8
0
 62
9
  6
CONTINUOUS
 10
132.5869517306
 20
240.3402061963
  0
VERTEX
  8
0
 62
9
  6
CONTINUOUS
 10
133.0496452135
 20
241.1081452772
  0
VERTEX
  8
0
 62
9
  6
CONTINUOUS
 10
133.4459427877
 20
241.7085380229
  0
SEQEND
  0
POLYLINE
  8
0
 62
7
  6
CONTINUOUS
 66
1
 70
0
  0
VERTEX
  8
0
 62
7
  6
CONTINUOUS
 10
138.3686979377
 20
218.304191939
  0
VERTEX
  8
0
 62
7
  6
CONTINUOUS
 10
138.1655635954
 20
218.7204035789
  0
VERTEX
  8
0
 62
7
  6
CONTINUOUS
 10
137.8765315527
 20
219.3727287901
  0
VERTEX
  8
0
 62
7
  6
CONTINUOUS
 10
137.5934471346
 20
220.0979114211
  0
VERTEX
  8
0
 62
7
  6
CONTINUOUS
 10
137.320208609
 20
220.9118087026
  0
VERTEX
  8
0
 62
7
  6
CONTINUOUS
 10
137.0659969569
 20
221.8297649191
  0
VERTEX
  8
0
 62
7
  6
CONTINUOUS
 10
136.8467994951
 20
222.8660321598
  0
VERTEX
  8
0
 62
7
  6
CONTINUOUS
 10
136.6884956344
 20
224.0264503741
  0
VERTEX
  8
0
 62
7
  6
CONTINUOUS
 10
136.6279009188
 20
225.2470534076
  0
VERTEX
  8
0
 62
7
  6
CONTINUOUS
 10
136.6829550409
 20
226.4074002984
  0
VERTEX
  8
0
 62
7
  6
CONTINUOUS
 10
136.842498478
 20
227.4492795148
  0
VERTEX
  8
0
 62
7
  6
CONTINUOUS
 10
137.0845749402
 20
228.3510059684
  0
VERTEX
  8
0
 62
7
  6
CONTINUOUS
 10
137.3874027858
 20
229.1139880854
  0
VERTEX
  8
0
 62
7
  6
CONTINUOUS
 10
137.7319825104
 20
229.7465236093
  0
VERTEX
  8
0
 62
7
  6
CONTINUOUS
 10
138.103867491
 20
230.2611576876
  0
VERTEX
  8
0
 62
7
  6
CONTINUOUS
 10
138.4986268444
 20
230.6760765536
  0
VERTEX
  8
0
 62
7
  6
CONTINUOUS
 10
138.9090018117
 20
230.9982227965
  0
VERTEX
  8
0
 62
7
  6
CONTINUOUS
 10
139.32360089
 20
231.230644902
  0
VERTEX
  8
0
 62
7
  6
CONTINUOUS
 10
139.7369040006
 20
231.380557785
  0
VERTEX
  8
0
 62
7
  6
CONTINUOUS
 10
140.1511307042
 20
231.4546718848
  0
VERTEX
  8
0
 62
7
  6
CONTINUOUS
 10
140.5599060377
 20
231.4548338746
  0
VERTEX
  8
0
 62
7
  6
CONTINUOUS
 10
140.9571519812
 20
231.3839799509
  0
SEQEND
  0
POLYLINE
  8
0
 62
7
  6
CONTINUOUS
 66
1
 70
0
  0
VERTEX
  8
0
 62
7
  6
CONTINUOUS
 10
135.859502775
 20
214.5560616941
  0
VERTEX
  8
0
 62
7
  6
CONTINUOUS
 10
136.2369909736
 20
213.1316241475
  0
VERTEX
  8
0
 62
7
  6
CONTINUOUS
 10
136.5918991944
 20
211.8089703298
  0
VERTEX
  8
0
 62
7
  6
CONTINUOUS
 10
136.9717108958
 20
210.5769083888
  0
SEQEND
  0
POLYLINE
  8
0
 62
7
  6
CONTINUOUS
 66
1
 70
0
  0
VERTEX
  8
0
 62
7
  6
CONTINUOUS
 10
135.859508581
 20
214.5560495867
  0
VERTEX
  8
0
 62
7
  6
CONTINUOUS
 10
135.3851043362
 20
216.4899376259
  0
VERTEX
  8
0
 62
7
  6
CONTINUOUS
 10
135.017676268
 20
218.5239613393
  0
VERTEX
  8
0
 62
7
  6
CONTINUOUS
 10
134.7593534072
 20
220.6463394703
  0
VERTEX
  8
0
 62
7
  6
CONTINUOUS
 10
134.6116205431
 20
222.844850772
  0
VERTEX
  8
0
 62
7
  6
CONTINUOUS
 10
134.5753263049
 20
225.1068364909
  0
VERTEX
  8
0
 62
7
  6
CONTINUOUS
 10
134.6506783145
 20
227.4192730851
  0
VERTEX
  8
0
 62
7
  6
CONTINUOUS
 10
134.8372420128
 20
229.7688470281
  0
VERTEX
  8
0
 62
7
  6
CONTINUOUS
 10
135.1339431655
 20
232.1420312733
  0
VERTEX
  8
0
 62
7
  6
CONTINUOUS
 10
135.539074035
 20
234.5251629401
  0
VERTEX
  8
0
 62
7
  6
CONTINUOUS
 10
136.0503031815
 20
236.9045217793
  0
VERTEX
  8
0
 62
7
  6
CONTINUOUS
 10
136.6646888399
 20
239.2664089681
  0
VERTEX
  8
0
 62
7
  6
CONTINUOUS
 10
137.3786957929
 20
241.5972257859
  0
VERTEX
  8
0
 62
7
  6
CONTINUOUS
 10
138.1882144674
 20
243.8835486049
  0
VERTEX
  8
0
 62
7
  6
CONTINUOUS
 10
139.0885903953
 20
246.1122215575
  0
SEQEND
  0
POLYLINE
  8
0
 62
9
  6
CONTINUOUS
 66
1
 70
0
  0
VERTEX
  8
0
 62
9
  6
CONTINUOUS
 10
151.0324817359
 20
267.6111431419
  0
VERTEX
  8
0
 62
9
  6
CONTINUOUS
 10
151.0704025869
 20
267.6444795671
  0
VERTEX
  8
0
 62
9
  6
CONTINUOUS
 10
151.1280159062
 20
267.6623755669
  0
VERTEX
  8
0
 62
9
  6
CONTINUOUS
 10
151.2019293188
 20
267.6631947613
  0
VERTEX
  8
0
 62
9
  6
CONTINUOUS
 10
151.288436497
 20
267.6468960717
  0
SEQEND
  0
LINE
  8
0
 62
9
  6
CONTINUOUS
 10
144.5344593271
 20
218.4701696754
 11
143.7198380933
 21
218.6899151821
  0
LINE
  8
0
 62
9
  6
CONTINUOUS
 10
130.685898352
 20
222.2058432887
 11
131.5005195858
 21
221.986097782
  0
POLYLINE
  8
0
 62
9
  6
CONTINUOUS
 66
1
 70
0
  0
VERTEX
  8
0
 62
9
  6
CONTINUOUS
 10
143.5227453578
 20
218.8406273627
  0
VERTEX
  8
0
 62
9
  6
CONTINUOUS
 10
143.569179301
 20
218.7743723265
  0
VERTEX
  8
0
 62
9
  6
CONTINUOUS
 10
143.6358023466
 20
218.7236772052
  0
VERTEX
  8
0
 62
9
  6
CONTINUOUS
 10
143.7198380933
 20
218.6899151821
  0
SEQEND
  0
POLYLINE
  8
0
 62
7
  6
CONTINUOUS
 66
1
 70
0
  0
VERTEX
  8
0
 62
7
  6
CONTINUOUS
 10
133.1899880266
 20
241.6727850931
  0
VERTEX
  8
0
 62
7
  6
CONTINUOUS
 10
132.4692955946
 20
240.5413282582
  0
VERTEX
  8
0
 62
7
  6
CONTINUOUS
 10
131.8070427814
 20
239.3288434206
  0
VERTEX
  8
0
 62
7
  6
CONTINUOUS
 10
131.2097069811
 20
238.0482510074
  0
VERTEX
  8
0
 62
7
  6
CONTINUOUS
 10
130.6829917338
 20
236.7127704911
  0
VERTEX
  8
0
 62
7
  6
CONTINUOUS
 10
130.23186754
 20
235.3357627596
  0
VERTEX
  8
0
 62
7
  6
CONTINUOUS
 10
129.8607378417
 20
233.9310998272
  0
VERTEX
  8
0
 62
7
  6
CONTINUOUS
 10
129.5733228366
 20
232.5129219959
  0
VERTEX
  8
0
 62
7
  6
CONTINUOUS
 10
129.3726002828
 20
231.0953656696
  0
VERTEX
  8
0
 62
7
  6
CONTINUOUS
 10
129.2608252713
 20
229.6925550808
  0
VERTEX
  8
0
 62
7
  6
CONTINUOUS
 10
129.2395215675
 20
228.3184857111
  0
VERTEX
  8
0
 62
7
  6
CONTINUOUS
 10
129.3094460581
 20
226.9873457362
  0
VERTEX
  8
0
 62
7
  6
CONTINUOUS
 10
129.4705968126
 20
225.7124363564
  0
VERTEX
  8
0
 62
7
  6
CONTINUOUS
 10
129.7222068677
 20
224.5069666897
  0
VERTEX
  8
0
 62
7
  6
CONTINUOUS
 10
130.0625505244
 20
223.3841121689
  0
VERTEX
  8
0
 62
7
  6
CONTINUOUS
 10
130.4888056166
 20
222.3565554694
  0
SEQEND
  0
LINE
  8
0
 62
7
  6
CONTINUOUS
 10
133.1899880266
 20
241.6727850931
 11
151.0324817359
 21
267.6111431419
  0
LINE
  8
0
 62
9
  6
CONTINUOUS
 10
133.4459427877
 20
241.7085380229
 11
151.288436497
 21
267.6468960717
  0
POLYLINE
  8
0
 62
9
  6
CONTINUOUS
 66
1
 70
0
  0
VERTEX
  8
0
 62
9
  6
CONTINUOUS
 10
151.288436497
 20
267.6468960717
  0
VERTEX
  8
0
 62
9
  6
CONTINUOUS
 10
151.7014583637
 20
268.2227450756
  0
VERTEX
  8
0
 62
9
  6
CONTINUOUS
 10
152.2222260958
 20
268.8835454402
  0
VERTEX
  8
0
 62
9
  6
CONTINUOUS
 10
152.8416880994
 20
269.5840062171
  0
VERTEX
  8
0
 62
9
  6
CONTINUOUS
 10
153.5479064551
 20
270.2796962021
  0
VERTEX
  8
0
 62
9
  6
CONTINUOUS
 10
154.3247666458
 20
270.9285996363
  0
VERTEX
  8
0
 62
9
  6
CONTINUOUS
 10
155.1520509105
 20
271.4938825082
  0
VERTEX
  8
0
 62
9
  6
CONTINUOUS
 10
156.0063705597
 20
271.9467122812
  0
VERTEX
  8
0
 62
9
  6
CONTINUOUS
 10
156.8634287857
 20
272.2687585118
  0
VERTEX
  8
0
 62
9
  6
CONTINUOUS
 10
157.7087177035
 20
272.4542031125
  0
VERTEX
  8
0
 62
9
  6
CONTINUOUS
 10
158.5361496696
 20
272.5022258322
  0
VERTEX
  8
0
 62
9
  6
CONTINUOUS
 10
159.3395228205
 20
272.4119386695
  0
VERTEX
  8
0
 62
9
  6
CONTINUOUS
 10
159.6212298729
 20
272.3455126441
  0
SEQEND
  0
POLYLINE
  8
0
 62
7
  6
CONTINUOUS
 66
1
 70
0
  0
VERTEX
  8
0
 62
7
  6
CONTINUOUS
 10
149.0775159416
 20
260.6335284761
  0
VERTEX
  8
0
 62
7
  6
CONTINUOUS
 10
150.5144842842
 20
261.8027478562
  0
VERTEX
  8
0
 62
7
  6
CONTINUOUS
 10
151.9712863862
 20
262.811067631
  0
VERTEX
  8
0
 62
7
  6
CONTINUOUS
 10
153.4395401265
 20
263.6526918487
  0
VERTEX
  8
0
 62
7
  6
CONTINUOUS
 10
154.9107899307
 20
264.3227776715
  0
VERTEX
  8
0
 62
7
  6
CONTINUOUS
 10
156.3765653076
 20
264.8174706341
  0
VERTEX
  8
0
 62
7
  6
CONTINUOUS
 10
157.8284274999
 20
265.1339252311
  0
VERTEX
  8
0
 62
7
  6
CONTINUOUS
 10
159.2580179467
 20
265.2703212237
  0
VERTEX
  8
0
 62
7
  6
CONTINUOUS
 10
160.6571062844
 20
265.2258740708
  0
VERTEX
  8
0
 62
7
  6
CONTINUOUS
 10
162.0176376125
 20
265.0008394248
  0
VERTEX
  8
0
 62
7
  6
CONTINUOUS
 10
162.3377817891
 20
264.9200059147
  0
SEQEND
  0
POLYLINE
  8
0
 62
7
  6
CONTINUOUS
 66
1
 70
0
  0
VERTEX
  8
0
 62
7
  6
CONTINUOUS
 10
149.1910294032
 20
207.2807257888
  0
VERTEX
  8
0
 62
7
  6
CONTINUOUS
 10
148.438698996
 20
208.6132753042
  0
VERTEX
  8
0
 62
7
  6
CONTINUOUS
 10
148.1621114519
 20
209.1660835823
  0
SEQEND
  0
LINE
  8
0
 62
7
  6
CONTINUOUS
 10
148.1612719349
 20
209.1678111102
 11
143.5227453578
 21
218.8406273627
  0
LINE
  8
0
 62
9
  6
CONTINUOUS
 10
149.1910294032
 20
207.2807257888
 11
143.7198380933
 21
218.6899151821
  0
LINE
  8
0
 62
9
  6
CONTINUOUS
 10
144.5344593271
 20
218.4701696754
 11
150.005650637
 21
207.0609802821
  0
POLYLINE
  8
0
 62
9
  6
CONTINUOUS
 66
1
 70
0
  0
VERTEX
  8
0
 62
9
  6
CONTINUOUS
 10
143.7198380933
 20
218.6899151821
  0
VERTEX
  8
0
 62
9
  6
CONTINUOUS
 10
143.4824014438
 20
219.225122251
  0
VERTEX
  8
0
 62
9
  6
CONTINUOUS
 10
143.2251397712
 20
219.9185547174
  0
VERTEX
  8
0
 62
9
  6
CONTINUOUS
 10
142.9743365675
 20
220.7677969453
  0
VERTEX
  8
0
 62
9
  6
CONTINUOUS
 10
142.7547835439
 20
221.7653012084
  0
VERTEX
  8
0
 62
9
  6
CONTINUOUS
 10
142.5883579172
 20
222.8957594945
  0
VERTEX
  8
0
 62
9
  6
CONTINUOUS
 10
142.4922613712
 20
224.1354390786
  0
VERTEX
  8
0
 62
9
  6
CONTINUOUS
 10
142.4775034295
 20
225.4529572413
  0
VERTEX
  8
0
 62
9
  6
CONTINUOUS
 10
142.5480227031
 20
226.8123995445
  0
VERTEX
  8
0
 62
9
  6
CONTINUOUS
 10
142.7028629018
 20
228.1908566476
  0
VERTEX
  8
0
 62
9
  6
CONTINUOUS
 10
142.9405762636
 20
229.5782497249
  0
VERTEX
  8
0
 62
9
  6
CONTINUOUS
 10
143.2597206085
 20
230.9643257765
  0
VERTEX
  8
0
 62
9
  6
CONTINUOUS
 10
143.6545383172
 20
232.3252859616
  0
VERTEX
  8
0
 62
9
  6
CONTINUOUS
 10
144.1104496609
 20
233.6230412058
  0
VERTEX
  8
0
 62
9
  6
CONTINUOUS
 10
144.6069632901
 20
234.8229191424
  0
VERTEX
  8
0
 62
9
  6
CONTINUOUS
 10
145.1194440014
 20
235.8968159956
  0
VERTEX
  8
0
 62
9
  6
CONTINUOUS
 10
145.6208972276
 20
236.8242881344
  0
VERTEX
  8
0
 62
9
  6
CONTINUOUS
 10
146.0835874861
 20
237.5922211665
  0
VERTEX
  8
0
 62
9
  6
CONTINUOUS
 10
146.479882529
 20
238.1926099162
  0
SEQEND
  0
POLYLINE
  8
0
 62
9
  6
CONTINUOUS
 66
1
 70
0
  0
VERTEX
  8
0
 62
9
  6
CONTINUOUS
 10
134.2605640216
 20
241.4887925162
  0
VERTEX
  8
0
 62
9
  6
CONTINUOUS
 10
133.8642664474
 20
240.8883997705
  0
VERTEX
  8
0
 62
9
  6
CONTINUOUS
 10
133.4015729645
 20
240.1204606897
  0
VERTEX
  8
0
 62
9
  6
CONTINUOUS
 10
132.9001167594
 20
239.1929814629
  0
VERTEX
  8
0
 62
9
  6
CONTINUOUS
 10
132.3876340925
 20
238.119077773
  0
VERTEX
  8
0
 62
9
  6
CONTINUOUS
 10
131.8911200651
 20
236.9191948366
  0
VERTEX
  8
0
 62
9
  6
CONTINUOUS
 10
131.4352100727
 20
235.6214382013
  0
VERTEX
  8
0
 62
9
  6
CONTINUOUS
 10
131.040395245
 20
234.2604820116
  0
VERTEX
  8
0
 62
9
  6
CONTINUOUS
 10
130.7212546211
 20
232.8744167046
  0
VERTEX
  8
0
 62
9
  6
CONTINUOUS
 10
130.4835443488
 20
231.4870389263
  0
VERTEX
  8
0
 62
9
  6
CONTINUOUS
 10
130.3287054186
 20
230.1085969867
  0
VERTEX
  8
0
 62
9
  6
CONTINUOUS
 10
130.2581854448
 20
228.749165103
  0
VERTEX
  8
0
 62
9
  6
CONTINUOUS
 10
130.2729415875
 20
227.4316505974
  0
VERTEX
  8
0
 62
9
  6
CONTINUOUS
 10
130.3690363409
 20
226.1919694116
  0
VERTEX
  8
0
 62
9
  6
CONTINUOUS
 10
130.5354609281
 20
225.0615061443
  0
VERTEX
  8
0
 62
9
  6
CONTINUOUS
 10
130.755013986
 20
224.063995309
  0
VERTEX
  8
0
 62
9
  6
CONTINUOUS
 10
131.0058182107
 20
223.2147464418
  0
VERTEX
  8
0
 62
9
  6
CONTINUOUS
 10
131.263081467
 20
222.5213084365
  0
VERTEX
  8
0
 62
9
  6
CONTINUOUS
 10
131.5005195858
 20
221.986097782
  0
SEQEND
  0
POLYLINE
  8
0
 62
9
  6
CONTINUOUS
 66
1
 70
0
  0
VERTEX
  8
0
 62
9
  6
CONTINUOUS
 10
134.8325185303
 20
241.0538451727
  0
VERTEX
  8
0
 62
9
  6
CONTINUOUS
 10
134.4504312968
 20
240.4749847723
  0
VERTEX
  8
0
 62
9
  6
CONTINUOUS
 10
134.0042655933
 20
239.7344866936
  0
VERTEX
  8
0
 62
9
  6
CONTINUOUS
 10
133.5207154143
 20
238.8401385923
  0
VERTEX
  8
0
 62
9
  6
CONTINUOUS
 10
133.0265268213
 20
237.8045846139
  0
VERTEX
  8
0
 62
9
  6
CONTINUOUS
 10
132.5477323083
 20
236.6475381017
  0
VERTEX
  8
0
 62
9
  6
CONTINUOUS
 10
132.1080900035
 20
235.3961013201
  0
VERTEX
  8
0
 62
9
  6
CONTINUOUS
 10
131.7273621594
 20
234.0837131391
  0
VERTEX
  8
0
 62
9
  6
CONTINUOUS
 10
131.41960965
 20
232.747108759
  0
VERTEX
  8
0
 62
9
  6
CONTINUOUS
 10
131.1903842652
 20
231.4092395873
  0
VERTEX
  8
0
 62
9
  6
CONTINUOUS
 10
131.0410755295
 20
230.0799888978
  0
VERTEX
  8
0
 62
9
  6
CONTINUOUS
 10
130.9730793578
 20
228.7690730225
  0
VERTEX
  8
0
 62
9
  6
CONTINUOUS
 10
130.9873182093
 20
227.4985862826
  0
VERTEX
  8
0
 62
9
  6
CONTINUOUS
 10
131.0799932468
 20
226.3031664837
  0
VERTEX
  8
0
 62
9
  6
CONTINUOUS
 10
131.2404861568
 20
225.2130779414
  0
VERTEX
  8
0
 62
9
  6
CONTINUOUS
 10
131.4522072836
 20
224.2512055779
  0
VERTEX
  8
0
 62
9
  6
CONTINUOUS
 10
131.694058925
 20
223.4323086813
  0
VERTEX
  8
0
 62
9
  6
CONTINUOUS
 10
131.9421335559
 20
222.7636623765
  0
VERTEX
  8
0
 62
9
  6
CONTINUOUS
 10
132.1710471101
 20
222.2476752505
  0
SEQEND
  0
LINE
  8
0
 62
9
  6
CONTINUOUS
 10
152.1030577308
 20
267.427150565
 11
134.2605640216
 21
241.4887925162
  0
LINE
  8
0
 62
9
  6
CONTINUOUS
 10
152.6750122395
 20
266.9922032215
 11
134.8325185303
 21
241.0538451727
  0
LINE
  8
0
 62
7
  6
CONTINUOUS
 10
149.0775159416
 20
260.6335284761
 11
139.0885903953
 21
246.1122215575
  0
POLYLINE
  8
0
 62
7
  6
CONTINUOUS
 66
1
 70
0
  0
VERTEX
  8
0
 62
7
  6
CONTINUOUS
 10
161.5897585985
 20
264.0936485241
  0
VERTEX
  8
0
 62
7
  6
CONTINUOUS
 10
162.1481269337
 20
264.4125239351
  0
VERTEX
  8
0
 62
7
  6
CONTINUOUS
 10
162.7250906652
 20
264.5821609992
  0
VERTEX
  8
0
 62
7
  6
CONTINUOUS
 10
163.3170892159
 20
264.6068278543
  0
SEQEND
  0
POLYLINE
  8
0
 62
9
  6
CONTINUOUS
 66
1
 70
0
  0
VERTEX
  8
0
 62
9
  6
CONTINUOUS
 10
134.8325185303
 20
241.0538451727
  0
VERTEX
  8
0
 62
9
  6
CONTINUOUS
 10
134.7856696938
 20
241.1289358084
  0
VERTEX
  8
0
 62
9
  6
CONTINUOUS
 10
134.7207457989
 20
241.2057705666
  0
VERTEX
  8
0
 62
9
  6
CONTINUOUS
 10
134.6410023993
 20
241.2804966318
  0
VERTEX
  8
0
 62
9
  6
CONTINUOUS
 10
134.5504381614
 20
241.3493669266
  0
VERTEX
  8
0
 62
9
  6
CONTINUOUS
 10
134.453594354
 20
241.4089280061
  0
VERTEX
  8
0
 62
9
  6
CONTINUOUS
 10
134.3553271308
 20
241.4561932281
  0
VERTEX
  8
0
 62
9
  6
CONTINUOUS
 10
134.2605640216
 20
241.4887925162
  0
SEQEND
  0
LINE
  8
0
 62
9
  6
CONTINUOUS
 10
145.2049868513
 20
218.7317471438
 11
150.6730137938
 21
207.329156472
  0
POLYLINE
  8
0
 62
9
  6
CONTINUOUS
 66
1
 70
0
  0
VERTEX
  8
0
 62
9
  6
CONTINUOUS
 10
133.1899880266
 20
241.6727850931
  0
VERTEX
  8
0
 62
9
  6
CONTINUOUS
 10
133.2279088857
 20
241.7061215226
  0
VERTEX
  8
0
 62
9
  6
CONTINUOUS
 10
133.2855222053
 20
241.7240175192
  0
VERTEX
  8
0
 62
9
  6
CONTINUOUS
 10
133.359435615
 20
241.7248367119
  0
VERTEX
  8
0
 62
9
  6
CONTINUOUS
 10
133.4459427877
 20
241.7085380229
  0
SEQEND
  0
POLYLINE
  8
0
 62
9
  6
CONTINUOUS
 66
1
 70
0
  0
VERTEX
  8
0
 62
9
  6
CONTINUOUS
 10
164.0664214771
 20
264.0952150353
  0
VERTEX
  8
0
 62
9
  6
CONTINUOUS
 10
164.1043423282
 20
264.1285514605
  0
VERTEX
  8
0
 62
9
  6
CONTINUOUS
 10
164.1619556474
 20
264.1464474603
  0
VERTEX
  8
0
 62
9
  6
CONTINUOUS
 10
164.23586906
 20
264.1472666546
  0
VERTEX
  8
0
 62
9
  6
CONTINUOUS
 10
164.3223762383
 20
264.1309679651
  0
SEQEND
  0
POLYLINE
  8
0
 62
7
  6
CONTINUOUS
 66
1
 70
0
  0
VERTEX
  8
0
 62
7
  6
CONTINUOUS
 10
151.1161587288
 20
250.3852237756
  0
VERTEX
  8
0
 62
7
  6
CONTINUOUS
 10
151.3198960588
 20
250.5366732627
  0
VERTEX
  8
0
 62
7
  6
CONTINUOUS
 10
151.6173126384
 20
250.8020400794
  0
VERTEX
  8
0
 62
7
  6
CONTINUOUS
 10
151.873807357
 20
251.0904738399
  0
VERTEX
  8
0
 62
7
  6
CONTINUOUS
 10
152.0836505467
 20
251.3955314106
  0
VERTEX
  8
0
 62
7
  6
CONTINUOUS
 10
152.2421546572
 20
251.7103983096
  0
VERTEX
  8
0
 62
7
  6
CONTINUOUS
 10
152.3457789686
 20
252.0280409305
  0
VERTEX
  8
0
 62
7
  6
CONTINUOUS
 10
152.3922086851
 20
252.3413636621
  0
VERTEX
  8
0
 62
7
  6
CONTINUOUS
 10
152.3804066436
 20
252.6433673924
  0
VERTEX
  8
0
 62
7
  6
CONTINUOUS
 10
152.310636482
 20
252.927305857
  0
VERTEX
  8
0
 62
7
  6
CONTINUOUS
 10
152.1844567506
 20
253.1868363399
  0
VERTEX
  8
0
 62
7
  6
CONTINUOUS
 10
152.0046860961
 20
253.4161613589
  0
VERTEX
  8
0
 62
7
  6
CONTINUOUS
 10
151.7753402977
 20
253.610158172
  0
VERTEX
  8
0
 62
7
  6
CONTINUOUS
 10
151.5015425617
 20
253.764493211
  0
VERTEX
  8
0
 62
7
  6
CONTINUOUS
 10
151.1894090771
 20
253.8757188862
  0
SEQEND
  0
POLYLINE
  8
0
 62
7
  6
CONTINUOUS
 66
1
 70
0
  0
VERTEX
  8
0
 62
7
  6
CONTINUOUS
 10
150.1665334821
 20
249.9042385531
  0
VERTEX
  8
0
 62
7
  6
CONTINUOUS
 10
150.2522161647
 20
249.9348966077
  0
VERTEX
  8
0
 62
7
  6
CONTINUOUS
 10
150.6296382121
 20
250.0982041896
  0
VERTEX
  8
0
 62
7
  6
CONTINUOUS
 10
150.9882014133
 20
250.300301246
  0
VERTEX
  8
0
 62
7
  6
CONTINUOUS
 10
151.1161587288
 20
250.3852237756
  0
SEQEND
  0
POLYLINE
  8
0
 62
7
  6
CONTINUOUS
 66
1
 70
0
  0
VERTEX
  8
0
 62
7
  6
CONTINUOUS
 10
140.9571519812
 20
231.3839799509
  0
VERTEX
  8
0
 62
7
  6
CONTINUOUS
 10
141.3429137927
 20
231.2436579546
  0
VERTEX
  8
0
 62
7
  6
CONTINUOUS
 10
141.7174353118
 20
231.0323486256
  0
VERTEX
  8
0
 62
7
  6
CONTINUOUS
 10
142.0749718664
 20
230.7504091489
  0
VERTEX
  8
0
 62
7
  6
CONTINUOUS
 10
142.410805167
 20
230.3988583321
  0
VERTEX
  8
0
 62
7
  6
CONTINUOUS
 10
142.7270344293
 20
229.9698229803
  0
VERTEX
  8
0
 62
7
  6
CONTINUOUS
 10
142.7842207452
 20
229.8701499371
  0
SEQEND
  0
POLYLINE
  8
0
 62
7
  6
CONTINUOUS
 66
1
 70
0
  0
VERTEX
  8
0
 62
7
  6
CONTINUOUS
 10
140.4751195596
 20
215.4686241627
  0
VERTEX
  8
0
 62
7
  6
CONTINUOUS
 10
140.5132517127
 20
215.6640087282
  0
VERTEX
  8
0
 62
7
  6
CONTINUOUS
 10
140.6857983309
 20
216.1474944394
  0
VERTEX
  8
0
 62
7
  6
CONTINUOUS
 10
140.9340721501
 20
216.6258376514
  0
VERTEX
  8
0
 62
7
  6
CONTINUOUS
 10
141.2534482988
 20
217.090127735
  0
VERTEX
  8
0
 62
7
  6
CONTINUOUS
 10
141.6379774036
 20
217.5317158447
  0
VERTEX
  8
0
 62
7
  6
CONTINUOUS
 10
142.0804964149
 20
217.9423760293
  0
VERTEX
  8
0
 62
7
  6
CONTINUOUS
 10
142.5727620408
 20
218.3144584667
  0
VERTEX
  8
0
 62
7
  6
CONTINUOUS
 10
143.105604304
 20
218.641031965
  0
VERTEX
  8
0
 62
7
  6
CONTINUOUS
 10
143.3313384401
 20
218.7511888217
  0
SEQEND
  0
POLYLINE
  8
0
 62
9
  6
CONTINUOUS
 66
1
 70
0
  0
VERTEX
  8
0
 62
9
  6
CONTINUOUS
 10
147.8664582715
 20
237.5379170661
  0
VERTEX
  8
0
 62
9
  6
CONTINUOUS
 10
147.819609435
 20
237.6130077018
  0
VERTEX
  8
0
 62
9
  6
CONTINUOUS
 10
147.7546855401
 20
237.68984246
  0
VERTEX
  8
0
 62
9
  6
CONTINUOUS
 10
147.6749421405
 20
237.7645685252
  0
VERTEX
  8
0
 62
9
  6
CONTINUOUS
 10
147.5843779026
 20
237.83343882
  0
VERTEX
  8
0
 62
9
  6
CONTINUOUS
 10
147.4875340953
 20
237.8929998994
  0
VERTEX
  8
0
 62
9
  6
CONTINUOUS
 10
147.3892668721
 20
237.9402651214
  0
VERTEX
  8
0
 62
9
  6
CONTINUOUS
 10
147.2945037628
 20
237.9728644096
  0
SEQEND
  0
LINE
  8
0
 62
7
  6
CONTINUOUS
 10
156.7165324014
 20
216.1148650211
 11
150.973954157
 21
228.0111004337
  0
POLYLINE
  8
0
 62
7
  6
CONTINUOUS
 66
1
 70
0
  0
VERTEX
  8
0
 62
7
  6
CONTINUOUS
 10
150.973954157
 20
228.0111004337
  0
VERTEX
  8
0
 62
7
  6
CONTINUOUS
 10
150.9451874962
 20
228.0931289881
  0
VERTEX
  8
0
 62
7
  6
CONTINUOUS
 10
150.9306649736
 20
228.1897855648
  0
VERTEX
  8
0
 62
7
  6
CONTINUOUS
 10
150.9311874313
 20
228.2951449747
  0
VERTEX
  8
0
 62
7
  6
CONTINUOUS
 10
150.9467720442
 20
228.4058211325
  0
VERTEX
  8
0
 62
7
  6
CONTINUOUS
 10
150.9763732956
 20
228.5143891638
  0
VERTEX
  8
0
 62
7
  6
CONTINUOUS
 10
151.0190048097
 20
228.6173522491
  0
VERTEX
  8
0
 62
7
  6
CONTINUOUS
 10
151.0721454446
 20
228.7084186442
  0
SEQEND
  0
POLYLINE
  8
0
 62
7
  6
CONTINUOUS
 66
1
 70
0
  0
VERTEX
  8
0
 62
7
  6
CONTINUOUS
 10
143.4103645909
 20
219.1115393402
  0
VERTEX
  8
0
 62
7
  6
CONTINUOUS
 10
143.2917312721
 20
218.5705845108
  0
VERTEX
  8
0
 62
7
  6
CONTINUOUS
 10
143.1380936752
 20
217.9637692429
  0
VERTEX
  8
0
 62
7
  6
CONTINUOUS
 10
142.9841711104
 20
217.4338991689
  0
VERTEX
  8
0
 62
7
  6
CONTINUOUS
 10
142.8293051562
 20
216.9701335942
  0
VERTEX
  8
0
 62
7
  6
CONTINUOUS
 10
142.6734898906
 20
216.567360432
  0
VERTEX
  8
0
 62
7
  6
CONTINUOUS
 10
142.5159173563
 20
216.220258775
  0
VERTEX
  8
0
 62
7
  6
CONTINUOUS
 10
142.3549475514
 20
215.9237924108
  0
VERTEX
  8
0
 62
7
  6
CONTINUOUS
 10
142.1878686606
 20
215.6736505726
  0
VERTEX
  8
0
 62
7
  6
CONTINUOUS
 10
142.0114490139
 20
215.4680022548
  0
VERTEX
  8
0
 62
7
  6
CONTINUOUS
 10
141.8261061235
 20
215.3106616843
  0
VERTEX
  8
0
 62
7
  6
CONTINUOUS
 10
141.6322774749
 20
215.2037308378
  0
VERTEX
  8
0
 62
7
  6
CONTINUOUS
 10
141.4289123394
 20
215.1475397625
  0
VERTEX
  8
0
 62
7
  6
CONTINUOUS
 10
141.2269717194
 20
215.1415647901
  0
VERTEX
  8
0
 62
7
  6
CONTINUOUS
 10
141.0409493594
 20
215.1747002563
  0
SEQEND
  0
POLYLINE
  8
0
 62
9
  6
CONTINUOUS
 66
1
 70
0
  0
VERTEX
  8
0
 62
9
  6
CONTINUOUS
 10
164.0508496457
 20
268.5926394786
  0
VERTEX
  8
0
 62
9
  6
CONTINUOUS
 10
164.0977549501
 20
268.6809201346
  0
VERTEX
  8
0
 62
9
  6
CONTINUOUS
 10
164.1218839748
 20
268.7702835108
  0
VERTEX
  8
0
 62
9
  6
CONTINUOUS
 10
164.122026788
 20
268.8562485544
  0
VERTEX
  8
0
 62
9
  6
CONTINUOUS
 10
164.0981762269
 20
268.9345046187
  0
VERTEX
  8
0
 62
9
  6
CONTINUOUS
 10
164.0937262207
 20
268.943223142
  0
SEQEND
  0
POLYLINE
  8
0
 62
7
  6
CONTINUOUS
 66
1
 70
0
  0
VERTEX
  8
0
 62
7
  6
CONTINUOUS
 10
146.2239277679
 20
238.1568569865
  0
VERTEX
  8
0
 62
7
  6
CONTINUOUS
 10
145.5032353358
 20
237.0254001516
  0
VERTEX
  8
0
 62
7
  6
CONTINUOUS
 10
144.8409825227
 20
235.812915314
  0
VERTEX
  8
0
 62
7
  6
CONTINUOUS
 10
144.2436467224
 20
234.5323229008
  0
VERTEX
  8
0
 62
7
  6
CONTINUOUS
 10
143.7169314751
 20
233.1968423845
  0
VERTEX
  8
0
 62
7
  6
CONTINUOUS
 10
143.2658072813
 20
231.819834653
  0
VERTEX
  8
0
 62
7
  6
CONTINUOUS
 10
142.894677583
 20
230.4151717205
  0
VERTEX
  8
0
 62
7
  6
CONTINUOUS
 10
142.6072625778
 20
228.9969938893
  0
VERTEX
  8
0
 62
7
  6
CONTINUOUS
 10
142.406540024
 20
227.579437563
  0
VERTEX
  8
0
 62
7
  6
CONTINUOUS
 10
142.2947650125
 20
226.1766269742
  0
VERTEX
  8
0
 62
7
  6
CONTINUOUS
 10
142.2734613088
 20
224.8025576045
  0
VERTEX
  8
0
 62
7
  6
CONTINUOUS
 10
142.3433857993
 20
223.4714176296
  0
VERTEX
  8
0
 62
7
  6
CONTINUOUS
 10
142.5045365538
 20
222.1965082498
  0
VERTEX
  8
0
 62
7
  6
CONTINUOUS
 10
142.756146609
 20
220.991038583
  0
VERTEX
  8
0
 62
7
  6
CONTINUOUS
 10
143.0964902657
 20
219.8681840623
  0
VERTEX
  8
0
 62
7
  6
CONTINUOUS
 10
143.5227453578
 20
218.8406273627
  0
SEQEND
  0
POLYLINE
  8
0
 62
9
  6
CONTINUOUS
 66
1
 70
0
  0
VERTEX
  8
0
 62
9
  6
CONTINUOUS
 10
147.2945037628
 20
237.9728644096
  0
VERTEX
  8
0
 62
9
  6
CONTINUOUS
 10
146.8982087199
 20
237.3724756598
  0
VERTEX
  8
0
 62
9
  6
CONTINUOUS
 10
146.4355184615
 20
236.6045426277
  0
VERTEX
  8
0
 62
9
  6
CONTINUOUS
 10
145.9340652352
 20
235.6770704889
  0
VERTEX
  8
0
 62
9
  6
CONTINUOUS
 10
145.421584524
 20
234.6031736357
  0
VERTEX
  8
0
 62
9
  6
CONTINUOUS
 10
144.9250708947
 20
233.4032956991
  0
VERTEX
  8
0
 62
9
  6
CONTINUOUS
 10
144.469159551
 20
232.1055404549
  0
VERTEX
  8
0
 62
9
  6
CONTINUOUS
 10
144.0743418423
 20
230.7445802698
  0
VERTEX
  8
0
 62
9
  6
CONTINUOUS
 10
143.7551974974
 20
229.3585042182
  0
VERTEX
  8
0
 62
9
  6
CONTINUOUS
 10
143.5174841357
 20
227.9711111409
  0
VERTEX
  8
0
 62
9
  6
CONTINUOUS
 10
143.362643937
 20
226.5926540379
  0
VERTEX
  8
0
 62
9
  6
CONTINUOUS
 10
143.2921246634
 20
225.2332117346
  0
VERTEX
  8
0
 62
9
  6
CONTINUOUS
 10
143.306882605
 20
223.9156935719
  0
VERTEX
  8
0
 62
9
  6
CONTINUOUS
 10
143.402979151
 20
222.6760139878
  0
VERTEX
  8
0
 62
9
  6
CONTINUOUS
 10
143.5694047777
 20
221.5455557018
  0
VERTEX
  8
0
 62
9
  6
CONTINUOUS
 10
143.7889578013
 20
220.5480514387
  0
VERTEX
  8
0
 62
9
  6
CONTINUOUS
 10
144.039761005
 20
219.6988092107
  0
VERTEX
  8
0
 62
9
  6
CONTINUOUS
 10
144.2970226776
 20
219.0053767443
  0
VERTEX
  8
0
 62
9
  6
CONTINUOUS
 10
144.5344593271
 20
218.4701696754
  0
SEQEND
  0
POLYLINE
  8
0
 62
9
  6
CONTINUOUS
 66
1
 70
0
  0
VERTEX
  8
0
 62
9
  6
CONTINUOUS
 10
147.8664582715
 20
237.5379170661
  0
VERTEX
  8
0
 62
9
  6
CONTINUOUS
 10
147.4843734779
 20
236.9590605172
  0
VERTEX
  8
0
 62
9
  6
CONTINUOUS
 10
147.0382108837
 20
236.2185682709
  0
VERTEX
  8
0
 62
9
  6
CONTINUOUS
 10
146.5546635773
 20
235.3242270046
  0
VERTEX
  8
0
 62
9
  6
CONTINUOUS
 10
146.0604768704
 20
234.2886796191
  0
VERTEX
  8
0
 62
9
  6
CONTINUOUS
 10
145.5816827417
 20
233.1316379288
  0
VERTEX
  8
0
 62
9
  6
CONTINUOUS
 10
145.1420391341
 20
231.8802024893
  0
VERTEX
  8
0
 62
9
  6
CONTINUOUS
 10
144.7613085119
 20
230.5678104558
  0
VERTEX
  8
0
 62
9
  6
CONTINUOUS
 10
144.4535524143
 20
229.2311957144
  0
VERTEX
  8
0
 62
9
  6
CONTINUOUS
 10
144.2243240503
 20
227.8933117894
  0
VERTEX
  8
0
 62
9
  6
CONTINUOUS
 10
144.0750140915
 20
226.5640464776
  0
VERTEX
  8
0
 62
9
  6
CONTINUOUS
 10
144.0070185952
 20
225.2531205556
  0
VERTEX
  8
0
 62
9
  6
CONTINUOUS
 10
144.0212591815
 20
223.9826302904
  0
VERTEX
  8
0
 62
9
  6
CONTINUOUS
 10
144.1139359474
 20
222.7872120373
  0
VERTEX
  8
0
 62
9
  6
CONTINUOUS
 10
144.2744298595
 20
221.6971282991
  0
VERTEX
  8
0
 62
9
  6
CONTINUOUS
 10
144.4861509529
 20
220.7352622735
  0
VERTEX
  8
0
 62
9
  6
CONTINUOUS
 10
144.7280016094
 20
219.9163717787
  0
VERTEX
  8
0
 62
9
  6
CONTINUOUS
 10
144.9760747131
 20
219.2477308145
  0
VERTEX
  8
0
 62
9
  6
CONTINUOUS
 10
145.2049868513
 20
218.7317471438
  0
SEQEND
  0
LINE
  8
0
 62
7
  6
CONTINUOUS
 10
146.2239277679
 20
238.1568569865
 11
164.0664214771
 21
264.0952150353
  0
LINE
  8
0
 62
9
  6
CONTINUOUS
 10
146.479882529
 20
238.1926099162
 11
164.3223762383
 21
264.1309679651
  0
LINE
  8
0
 62
9
  6
CONTINUOUS
 10
165.1369974721
 20
263.9112224584
 11
147.2945037628
 21
237.9728644096
  0
LINE
  8
0
 62
9
  6
CONTINUOUS
 10
165.7089519808
 20
263.4762751149
 11
147.8664582715
 21
237.5379170661
  0
POLYLINE
  8
0
 62
9
  6
CONTINUOUS
 66
1
 70
0
  0
VERTEX
  8
0
 62
9
  6
CONTINUOUS
 10
164.3223762383
 20
264.1309679651
  0
VERTEX
  8
0
 62
9
  6
CONTINUOUS
 10
164.7353953725
 20
264.7068133167
  0
VERTEX
  8
0
 62
9
  6
CONTINUOUS
 10
165.2561590793
 20
265.367609201
  0
VERTEX
  8
0
 62
9
  6
CONTINUOUS
 10
165.8756165079
 20
266.0680660929
  0
VERTEX
  8
0
 62
9
  6
CONTINUOUS
 10
166.5818306132
 20
266.7637538856
  0
VERTEX
  8
0
 62
9
  6
CONTINUOUS
 10
167.3586878861
 20
267.4126574624
  0
VERTEX
  8
0
 62
9
  6
CONTINUOUS
 10
168.1859716283
 20
267.9779428495
  0
VERTEX
  8
0
 62
9
  6
CONTINUOUS
 10
169.0402941501
 20
268.4307768563
  0
VERTEX
  8
0
 62
9
  6
CONTINUOUS
 10
169.8973592987
 20
268.752827656
  0
VERTEX
  8
0
 62
9
  6
CONTINUOUS
 10
170.7426576391
 20
268.938275033
  0
VERTEX
  8
0
 62
9
  6
CONTINUOUS
 10
171.570098596
 20
268.9862974895
  0
VERTEX
  8
0
 62
9
  6
CONTINUOUS
 10
172.3734776191
 20
268.8960075153
  0
VERTEX
  8
0
 62
9
  6
CONTINUOUS
 10
172.6551696142
 20
268.8295845375
  0
SEQEND
  0
POLYLINE
  8
0
 62
9
  6
CONTINUOUS
 66
1
 70
0
  0
VERTEX
  8
0
 62
9
  6
CONTINUOUS
 10
132.1710471101
 20
222.2476752505
  0
VERTEX
  8
0
 62
9
  6
CONTINUOUS
 10
132.1022637105
 20
222.1677745395
  0
VERTEX
  8
0
 62
9
  6
CONTINUOUS
 10
132.0165051426
 20
222.0973898625
  0
VERTEX
  8
0
 62
9
  6
CONTINUOUS
 10
131.9180716992
 20
222.040050601
  0
VERTEX
  8
0
 62
9
  6
CONTINUOUS
 10
131.8118992441
 20
221.9986319851
  0
VERTEX
  8
0
 62
9
  6
CONTINUOUS
 10
131.7033117076
 20
221.975210917
  0
VERTEX
  8
0
 62
9
  6
CONTINUOUS
 10
131.5977541221
 20
221.9709618269
  0
VERTEX
  8
0
 62
9
  6
CONTINUOUS
 10
131.5005195858
 20
221.986097782
  0
SEQEND
  0
POLYLINE
  8
0
 62
9
  6
CONTINUOUS
 66
1
 70
0
  0
VERTEX
  8
0
 62
9
  6
CONTINUOUS
 10
146.2239277679
 20
238.1568569865
  0
VERTEX
  8
0
 62
9
  6
CONTINUOUS
 10
146.2618486269
 20
238.190193416
  0
VERTEX
  8
0
 62
9
  6
CONTINUOUS
 10
146.3194619465
 20
238.2080894126
  0
VERTEX
  8
0
 62
9
  6
CONTINUOUS
 10
146.3933753562
 20
238.2089086052
  0
VERTEX
  8
0
 62
9
  6
CONTINUOUS
 10
146.479882529
 20
238.1926099162
  0
SEQEND
  0
LINE
  8
0
 62
9
  6
CONTINUOUS
 10
147.2945037628
 20
237.9728644096
 11
146.479882529
 21
238.1926099162
  0
LINE
  8
0
 62
9
  6
CONTINUOUS
 10
133.4459427877
 20
241.7085380229
 11
134.2605640216
 21
241.4887925162
  0
POLYLINE
  8
0
 62
7
  6
CONTINUOUS
 66
1
 70
0
  0
VERTEX
  8
0
 62
7
  6
CONTINUOUS
 10
170.3732428345
 20
256.7672081269
  0
VERTEX
  8
0
 62
7
  6
CONTINUOUS
 10
170.4344424466
 20
256.8423627946
  0
VERTEX
  8
0
 62
7
  6
CONTINUOUS
 10
170.5009865144
 20
256.8981126885
  0
VERTEX
  8
0
 62
7
  6
CONTINUOUS
 10
170.5688214908
 20
256.9311916604
  0
VERTEX
  8
0
 62
7
  6
CONTINUOUS
 10
170.6357575031
 20
256.9404790883
  0
VERTEX
  8
0
 62
7
  6
CONTINUOUS
 10
170.6708577756
 20
256.9350231475
  0
SEQEND
  0
POLYLINE
  8
0
 62
7
  6
CONTINUOUS
 66
1
 70
0
  0
VERTEX
  8
0
 62
7
  6
CONTINUOUS
 10
147.8221919631
 20
250.5135584761
  0
VERTEX
  8
0
 62
7
  6
CONTINUOUS
 10
147.9735121034
 20
250.2860217071
  0
VERTEX
  8
0
 62
7
  6
CONTINUOUS
 10
148.1775473496
 20
250.0942285025
  0
VERTEX
  8
0
 62
7
  6
CONTINUOUS
 10
148.4290335189
 20
249.942815886
  0
VERTEX
  8
0
 62
7
  6
CONTINUOUS
 10
148.7211107241
 20
249.8359139991
  0
SEQEND
  0
LINE
  8
0
 62
7
  6
CONTINUOUS
 10
170.3732428345
 20
256.7672081269
 11
151.0721454446
 21
228.7084186442
  0
LINE
  8
0
 62
7
  6
CONTINUOUS
 10
149.7229828579
 20
243.2435755381
 11
139.0885903953
 21
246.1122215575
  0
POLYLINE
  8
0
 62
7
  6
CONTINUOUS
 66
1
 70
0
  0
VERTEX
  8
0
 62
7
  6
CONTINUOUS
 10
152.0120418742
 20
252.6356351199
  0
VERTEX
  8
0
 62
7
  6
CONTINUOUS
 10
152.1056234094
 20
252.3803289625
  0
VERTEX
  8
0
 62
7
  6
CONTINUOUS
 10
152.1398095596
 20
252.102449937
  0
VERTEX
  8
0
 62
7
  6
CONTINUOUS
 10
152.1133664486
 20
251.8101724538
  0
VERTEX
  8
0
 62
7
  6
CONTINUOUS
 10
152.0270153756
 20
251.5114690809
  0
VERTEX
  8
0
 62
7
  6
CONTINUOUS
 10
151.8831117728
 20
251.2144876675
  0
VERTEX
  8
0
 62
7
  6
CONTINUOUS
 10
151.6855809553
 20
250.9273290925
  0
VERTEX
  8
0
 62
7
  6
CONTINUOUS
 10
151.439811049
 20
250.6578262932
  0
VERTEX
  8
0
 62
7
  6
CONTINUOUS
 10
151.1525060162
 20
250.4133306034
  0
SEQEND
  0
POLYLINE
  8
0
 62
9
  6
CONTINUOUS
 66
1
 70
0
  0
VERTEX
  8
0
 62
9
  6
CONTINUOUS
 10
145.2049868513
 20
218.7317471438
  0
VERTEX
  8
0
 62
9
  6
CONTINUOUS
 10
145.1362034517
 20
218.6518464329
  0
VERTEX
  8
0
 62
9
  6
CONTINUOUS
 10
145.0504448839
 20
218.5814617559
  0
VERTEX
  8
0
 62
9
  6
CONTINUOUS
 10
144.9520114405
 20
218.5241224944
  0
VERTEX
  8
0
 62
9
  6
CONTINUOUS
 10
144.8458389854
 20
218.4827038784
  0
VERTEX
  8
0
 62
9
  6
CONTINUOUS
 10
144.7372514488
 20
218.4592828103
  0
VERTEX
  8
0
 62
9
  6
CONTINUOUS
 10
144.6316938634
 20
218.4550337203
  0
VERTEX
  8
0
 62
9
  6
CONTINUOUS
 10
144.5344593271
 20
218.4701696754
  0
SEQEND
  0
POLYLINE
  8
0
 62
9
  6
CONTINUOUS
 66
1
 70
0
  0
VERTEX
  8
0
 62
9
  6
CONTINUOUS
 10
177.084789387
 20
265.076711372
  0
VERTEX
  8
0
 62
9
  6
CONTINUOUS
 10
177.1316946913
 20
265.164992028
  0
VERTEX
  8
0
 62
9
  6
CONTINUOUS
 10
177.155823716
 20
265.2543554042
  0
VERTEX
  8
0
 62
9
  6
CONTINUOUS
 10
177.1559665293
 20
265.3403204478
  0
VERTEX
  8
0
 62
9
  6
CONTINUOUS
 10
177.1321159681
 20
265.4185765121
  0
VERTEX
  8
0
 62
9
  6
CONTINUOUS
 10
177.127665962
 20
265.4272950353
  0
SEQEND
  0
POLYLINE
  8
0
 62
7
  6
CONTINUOUS
 66
1
 70
0
  0
VERTEX
  8
0
 62
7
  6
CONTINUOUS
 10
148.3813945334
 20
249.793594054
  0
VERTEX
  8
0
 62
7
  6
CONTINUOUS
 10
148.7248912205
 20
249.7279623404
  0
VERTEX
  8
0
 62
7
  6
CONTINUOUS
 10
149.0920779616
 20
249.7093906925
  0
VERTEX
  8
0
 62
7
  6
CONTINUOUS
 10
149.4747524116
 20
249.7382939702
  0
VERTEX
  8
0
 62
7
  6
CONTINUOUS
 10
149.8643662558
 20
249.8140265219
  0
VERTEX
  8
0
 62
7
  6
CONTINUOUS
 10
150.1665334821
 20
249.9042385531
  0
SEQEND
  0
POLYLINE
  8
0
 62
7
  6
CONTINUOUS
 66
1
 70
0
  0
VERTEX
  8
0
 62
7
  6
CONTINUOUS
 10
150.1241066321
 20
249.8920996558
  0
VERTEX
  8
0
 62
7
  6
CONTINUOUS
 10
149.7570096252
 20
249.8049201223
  0
VERTEX
  8
0
 62
7
  6
CONTINUOUS
 10
149.3942799278
 20
249.7660127554
  0
VERTEX
  8
0
 62
7
  6
CONTINUOUS
 10
149.0458118607
 20
249.7764388465
  0
VERTEX
  8
0
 62
7
  6
CONTINUOUS
 10
148.7211107241
 20
249.8359139991
  0
SEQEND
  0
LINE
  8
0
 62
7
  6
CONTINUOUS
 10
176.8631107013
 20
245.4027644548
 11
164.7951558524
 21
248.6581164424
  0
POLYLINE
  8
0
 62
7
  6
CONTINUOUS
 66
1
 70
0
  0
VERTEX
  8
0
 62
7
  6
CONTINUOUS
 10
151.1131231132
 20
253.3132795969
  0
VERTEX
  8
0
 62
7
  6
CONTINUOUS
 10
151.4052003184
 20
253.20637771
  0
VERTEX
  8
0
 62
7
  6
CONTINUOUS
 10
151.6566864877
 20
253.0549650935
  0
VERTEX
  8
0
 62
7
  6
CONTINUOUS
 10
151.8607217339
 20
252.863171889
  0
VERTEX
  8
0
 62
7
  6
CONTINUOUS
 10
152.0120418742
 20
252.6356351199
  0
SEQEND
  0
POLYLINE
  8
0
 62
9
  6
CONTINUOUS
 66
1
 70
0
  0
VERTEX
  8
0
 62
9
  6
CONTINUOUS
 10
152.6750122395
 20
266.9922032215
  0
VERTEX
  8
0
 62
9
  6
CONTINUOUS
 10
152.6281633994
 20
267.0672938623
  0
VERTEX
  8
0
 62
9
  6
CONTINUOUS
 10
152.5632395006
 20
267.1441286234
  0
VERTEX
  8
0
 62
9
  6
CONTINUOUS
 10
152.4834960986
 20
267.2188546891
  0
VERTEX
  8
0
 62
9
  6
CONTINUOUS
 10
152.3929318605
 20
267.2877249824
  0
VERTEX
  8
0
 62
9
  6
CONTINUOUS
 10
152.2960880553
 20
267.3472860593
  0
VERTEX
  8
0
 62
9
  6
CONTINUOUS
 10
152.1978208358
 20
267.3945512787
  0
VERTEX
  8
0
 62
9
  6
CONTINUOUS
 10
152.1030577308
 20
267.427150565
  0
SEQEND
  0
LINE
  8
0
 62
7
  6
CONTINUOUS
 10
150.6730137938
 20
207.329156472
 11
156.7165324014
 21
216.1148650211
  0
LINE
  8
0
 62
7
  6
CONTINUOUS
 10
176.8631107013
 20
245.4027644548
 11
182.9066293089
 21
254.1884730039
  0
POLYLINE
  8
0
 62
7
  6
CONTINUOUS
 66
1
 70
0
  0
VERTEX
  8
0
 62
7
  6
CONTINUOUS
 10
151.1131231132
 20
253.3132795969
  0
VERTEX
  8
0
 62
7
  6
CONTINUOUS
 10
150.7884219767
 20
253.3727547495
  0
VERTEX
  8
0
 62
7
  6
CONTINUOUS
 10
150.4399539095
 20
253.3831808406
  0
VERTEX
  8
0
 62
7
  6
CONTINUOUS
 10
150.0772242121
 20
253.3442734737
  0
VERTEX
  8
0
 62
7
  6
CONTINUOUS
 10
149.7101272052
 20
253.2570939402
  0
VERTEX
  8
0
 62
7
  6
CONTINUOUS
 10
149.348676338
 20
253.1240202707
  0
VERTEX
  8
0
 62
7
  6
CONTINUOUS
 10
149.0027310481
 20
252.9486823679
  0
VERTEX
  8
0
 62
7
  6
CONTINUOUS
 10
148.6817278211
 20
252.7358629927
  0
VERTEX
  8
0
 62
7
  6
CONTINUOUS
 10
148.3944227883
 20
252.4913673029
  0
VERTEX
  8
0
 62
7
  6
CONTINUOUS
 10
148.148652882
 20
252.2218645035
  0
VERTEX
  8
0
 62
7
  6
CONTINUOUS
 10
147.9511220645
 20
251.9347059285
  0
VERTEX
  8
0
 62
7
  6
CONTINUOUS
 10
147.8072184617
 20
251.6377245151
  0
VERTEX
  8
0
 62
7
  6
CONTINUOUS
 10
147.7208673887
 20
251.3390211422
  0
VERTEX
  8
0
 62
7
  6
CONTINUOUS
 10
147.6944242777
 20
251.046743659
  0
VERTEX
  8
0
 62
7
  6
CONTINUOUS
 10
147.7286104279
 20
250.7688646335
  0
VERTEX
  8
0
 62
7
  6
CONTINUOUS
 10
147.8221919631
 20
250.5135584761
  0
SEQEND
  0
POLYLINE
  8
0
 62
7
  6
CONTINUOUS
 66
1
 70
0
  0
VERTEX
  8
0
 62
7
  6
CONTINUOUS
 10
151.1894090771
 20
253.8757188862
  0
VERTEX
  8
0
 62
7
  6
CONTINUOUS
 10
150.84591239
 20
253.9413505998
  0
VERTEX
  8
0
 62
7
  6
CONTINUOUS
 10
150.4787256489
 20
253.9599222478
  0
VERTEX
  8
0
 62
7
  6
CONTINUOUS
 10
150.0960511988
 20
253.9310189701
  0
VERTEX
  8
0
 62
7
  6
CONTINUOUS
 10
149.7064373546
 20
253.8552864184
  0
VERTEX
  8
0
 62
7
  6
CONTINUOUS
 10
149.3185874458
 20
253.7344163326
  0
VERTEX
  8
0
 62
7
  6
CONTINUOUS
 10
148.9411653983
 20
253.5711087507
  0
VERTEX
  8
0
 62
7
  6
CONTINUOUS
 10
148.5826021972
 20
253.3690116943
  0
VERTEX
  8
0
 62
7
  6
CONTINUOUS
 10
148.2509075517
 20
253.1326396776
  0
VERTEX
  8
0
 62
7
  6
CONTINUOUS
 10
147.9534909721
 20
252.8672728609
  0
VERTEX
  8
0
 62
7
  6
CONTINUOUS
 10
147.6969962534
 20
252.5788391004
  0
VERTEX
  8
0
 62
7
  6
CONTINUOUS
 10
147.4871530638
 20
252.2737815296
  0
VERTEX
  8
0
 62
7
  6
CONTINUOUS
 10
147.3286489533
 20
251.9589146307
  0
VERTEX
  8
0
 62
7
  6
CONTINUOUS
 10
147.2250246419
 20
251.6412720098
  0
VERTEX
  8
0
 62
7
  6
CONTINUOUS
 10
147.1785949253
 20
251.3279492782
  0
VERTEX
  8
0
 62
7
  6
CONTINUOUS
 10
147.1903969669
 20
251.0259455479
  0
VERTEX
  8
0
 62
7
  6
CONTINUOUS
 10
147.2601671284
 20
250.7420070833
  0
VERTEX
  8
0
 62
7
  6
CONTINUOUS
 10
147.3863468598
 20
250.4824766004
  0
VERTEX
  8
0
 62
7
  6
CONTINUOUS
 10
147.5661175144
 20
250.2531515814
  0
VERTEX
  8
0
 62
7
  6
CONTINUOUS
 10
147.7954633127
 20
250.0591547683
  0
VERTEX
  8
0
 62
7
  6
CONTINUOUS
 10
148.0692610488
 20
249.9048197292
  0
VERTEX
  8
0
 62
7
  6
CONTINUOUS
 10
148.3813945334
 20
249.793594054
  0
SEQEND
  0
POLYLINE
  8
0
 62
7
  6
CONTINUOUS
 66
1
 70
0
  0
VERTEX
  8
0
 62
7
  6
CONTINUOUS
 10
150.6730137938
 20
207.329156472
  0
VERTEX
  8
0
 62
7
  6
CONTINUOUS
 10
150.6050007184
 20
207.2478535946
  0
VERTEX
  8
0
 62
7
  6
CONTINUOUS
 10
150.5196172612
 20
207.175845911
  0
VERTEX
  8
0
 62
7
  6
CONTINUOUS
 10
150.4222385886
 20
207.1175304837
  0
VERTEX
  8
0
 62
7
  6
CONTINUOUS
 10
150.3160575968
 20
207.0748661759
  0
VERTEX
  8
0
 62
7
  6
CONTINUOUS
 10
150.2083582791
 20
207.0507779652
  0
VERTEX
  8
0
 62
7
  6
CONTINUOUS
 10
150.1026949004
 20
207.0460153894
  0
VERTEX
  8
0
 62
7
  6
CONTINUOUS
 10
150.005650637
 20
207.0609802821
  0
SEQEND
  0
LINE
  8
0
 62
7
  6
CONTINUOUS
 10
159.7119084042
 20
257.7648824566
 11
149.0775159416
 21
260.6335284761
  0
LINE
  8
0
 62
7
  6
CONTINUOUS
 10
163.784089538
 20
263.6847776242
 11
163.3170892159
 21
264.6068278543
  0
LINE
  8
0
 62
9
  6
CONTINUOUS
 10
170.5101166208
 20
256.9025648833
 11
170.7949750413
 21
256.8257238248
  0
POLYLINE
  8
0
 62
7
  6
CONTINUOUS
 66
1
 70
0
  0
VERTEX
  8
0
 62
7
  6
CONTINUOUS
 10
170.6708577756
 20
256.9350231475
  0
VERTEX
  8
0
 62
7
  6
CONTINUOUS
 10
170.6973040493
 20
256.9253519113
  0
VERTEX
  8
0
 62
7
  6
CONTINUOUS
 10
170.7514882794
 20
256.8863531702
  0
VERTEX
  8
0
 62
7
  6
CONTINUOUS
 10
170.7949750413
 20
256.8257238248
  0
SEQEND
  0
POLYLINE
  8
0
 62
9
  6
CONTINUOUS
 66
1
 70
0
  0
VERTEX
  8
0
 62
9
  6
CONTINUOUS
 10
165.7089519808
 20
263.4762751149
  0
VERTEX
  8
0
 62
9
  6
CONTINUOUS
 10
165.6621031406
 20
263.5513657557
  0
VERTEX
  8
0
 62
9
  6
CONTINUOUS
 10
165.5971792419
 20
263.6282005167
  0
VERTEX
  8
0
 62
9
  6
CONTINUOUS
 10
165.5174358398
 20
263.7029265824
  0
VERTEX
  8
0
 62
9
  6
CONTINUOUS
 10
165.4268716017
 20
263.7717968758
  0
VERTEX
  8
0
 62
9
  6
CONTINUOUS
 10
165.3300277965
 20
263.8313579527
  0
VERTEX
  8
0
 62
9
  6
CONTINUOUS
 10
165.2317605771
 20
263.8786231721
  0
VERTEX
  8
0
 62
9
  6
CONTINUOUS
 10
165.1369974721
 20
263.9112224584
  0
SEQEND
  0
POLYLINE
  8
0
 62
7
  6
CONTINUOUS
 66
1
 70
0
  0
VERTEX
  8
0
 62
7
  6
CONTINUOUS
 10
164.0937262207
 20
268.943223142
  0
VERTEX
  8
0
 62
7
  6
CONTINUOUS
 10
163.6100666863
 20
269.7408458204
  0
VERTEX
  8
0
 62
7
  6
CONTINUOUS
 10
163.0670452606
 20
270.4377080622
  0
VERTEX
  8
0
 62
7
  6
CONTINUOUS
 10
162.4713487441
 20
271.0274933695
  0
VERTEX
  8
0
 62
7
  6
CONTINUOUS
 10
161.8302084004
 20
271.5062295916
  0
VERTEX
  8
0
 62
7
  6
CONTINUOUS
 10
161.1500866183
 20
271.8723884208
  0
VERTEX
  8
0
 62
7
  6
CONTINUOUS
 10
160.4358511067
 20
272.1257671375
  0
SEQEND
  0
POLYLINE
  8
0
 62
9
  6
CONTINUOUS
 66
1
 70
0
  0
VERTEX
  8
0
 62
9
  6
CONTINUOUS
 10
164.0508496457
 20
268.5926394786
  0
VERTEX
  8
0
 62
9
  6
CONTINUOUS
 10
163.78626069
 20
269.0516403487
  0
VERTEX
  8
0
 62
9
  6
CONTINUOUS
 10
163.435642353
 20
269.5666539738
  0
VERTEX
  8
0
 62
9
  6
CONTINUOUS
 10
162.9964103436
 20
270.0950091069
  0
VERTEX
  8
0
 62
9
  6
CONTINUOUS
 10
162.4690991315
 20
270.5955234121
  0
VERTEX
  8
0
 62
9
  6
CONTINUOUS
 10
161.8590079216
 20
271.030518435
  0
VERTEX
  8
0
 62
9
  6
CONTINUOUS
 10
161.1768518626
 20
271.3685662845
  0
VERTEX
  8
0
 62
9
  6
CONTINUOUS
 10
160.4385737719
 20
271.587062891
  0
VERTEX
  8
0
 62
9
  6
CONTINUOUS
 10
159.6638685862
 20
271.6741286009
  0
VERTEX
  8
0
 62
9
  6
CONTINUOUS
 10
158.8659629235
 20
271.6278158627
  0
VERTEX
  8
0
 62
9
  6
CONTINUOUS
 10
158.0508377815
 20
271.4489812833
  0
VERTEX
  8
0
 62
9
  6
CONTINUOUS
 10
157.2243646192
 20
271.1384164374
  0
VERTEX
  8
0
 62
9
  6
CONTINUOUS
 10
156.4005366318
 20
270.7017341597
  0
VERTEX
  8
0
 62
9
  6
CONTINUOUS
 10
155.6027863947
 20
270.1566150345
  0
VERTEX
  8
0
 62
9
  6
CONTINUOUS
 10
154.8536684426
 20
269.530866642
  0
VERTEX
  8
0
 62
9
  6
CONTINUOUS
 10
154.1726779773
 20
268.860011315
  0
VERTEX
  8
0
 62
9
  6
CONTINUOUS
 10
153.5753522459
 20
268.1845660503
  0
VERTEX
  8
0
 62
9
  6
CONTINUOUS
 10
153.0732003606
 20
267.5473752645
  0
VERTEX
  8
0
 62
9
  6
CONTINUOUS
 10
152.6750122395
 20
266.9922032215
  0
SEQEND
  0
LINE
  8
0
 62
9
  6
CONTINUOUS
 10
165.4972497879
 20
265.8875239593
 11
164.0508496457
 21
268.5926394786
  0
LINE
  8
0
 62
7
  6
CONTINUOUS
 10
165.640127545
 20
266.0510814037
 11
164.0937262207
 21
268.943223142
  0
LINE
  8
0
 62
7
  6
CONTINUOUS
 10
176.8631107013
 20
245.4027644548
 11
170.7949750413
 21
256.8257238248
  0
LINE
  8
0
 62
7
  6
CONTINUOUS
 10
163.6778786133
 20
263.5303744876
 11
161.5897585985
 21
264.0936485241
  0
LINE
  8
0
 62
9
  6
CONTINUOUS
 10
165.1369974721
 20
263.9112224584
 11
164.3223762383
 21
264.1309679651
  0
LINE
  8
0
 62
9
  6
CONTINUOUS
 10
151.288436497
 20
267.6468960717
 11
152.1030577308
 21
267.427150565
  0
LINE
  8
0
 62
7
  6
CONTINUOUS
 10
163.3170892159
 20
264.6068278543
 11
164.2788526672
 21
264.3809120957
  0
LINE
  8
0
 62
7
  6
CONTINUOUS
 10
164.2884525359
 20
264.3938228848
 11
162.3379065889
 21
264.9199860752
  0
POLYLINE
  8
0
 62
7
  6
CONTINUOUS
 66
1
 70
0
  0
VERTEX
  8
0
 62
7
  6
CONTINUOUS
 10
177.127665962
 20
265.4272950353
  0
VERTEX
  8
0
 62
7
  6
CONTINUOUS
 10
176.6440064275
 20
266.2249177138
  0
VERTEX
  8
0
 62
7
  6
CONTINUOUS
 10
176.1009850018
 20
266.9217799556
  0
VERTEX
  8
0
 62
7
  6
CONTINUOUS
 10
175.5052884854
 20
267.5115652628
  0
VERTEX
  8
0
 62
7
  6
CONTINUOUS
 10
174.8641481416
 20
267.990301485
  0
VERTEX
  8
0
 62
7
  6
CONTINUOUS
 10
174.1840263595
 20
268.3564603141
  0
VERTEX
  8
0
 62
7
  6
CONTINUOUS
 10
173.469790848
 20
268.6098390308
  0
SEQEND
  0
POLYLINE
  8
0
 62
9
  6
CONTINUOUS
 66
1
 70
0
  0
VERTEX
  8
0
 62
9
  6
CONTINUOUS
 10
177.084789387
 20
265.076711372
  0
VERTEX
  8
0
 62
9
  6
CONTINUOUS
 10
176.8202022209
 20
265.5357093614
  0
VERTEX
  8
0
 62
9
  6
CONTINUOUS
 10
176.4695867609
 20
266.0507196157
  0
VERTEX
  8
0
 62
9
  6
CONTINUOUS
 10
176.0303583428
 20
266.5790721043
  0
VERTEX
  8
0
 62
9
  6
CONTINUOUS
 10
175.5030508471
 20
267.0795853566
  0
VERTEX
  8
0
 62
9
  6
CONTINUOUS
 10
174.8929626389
 20
267.5145812946
  0
VERTEX
  8
0
 62
9
  6
CONTINUOUS
 10
174.2108078173
 20
267.852631786
  0
VERTEX
  8
0
 62
9
  6
CONTINUOUS
 10
173.4725280327
 20
268.0711318456
  0
VERTEX
  8
0
 62
9
  6
CONTINUOUS
 10
172.6978171844
 20
268.1582002667
  0
VERTEX
  8
0
 62
9
  6
CONTINUOUS
 10
171.8999028514
 20
268.1118877822
  0
VERTEX
  8
0
 62
9
  6
CONTINUOUS
 10
171.0847686232
 20
267.9330505253
  0
VERTEX
  8
0
 62
9
  6
CONTINUOUS
 10
170.2582887858
 20
267.6224812733
  0
VERTEX
  8
0
 62
9
  6
CONTINUOUS
 10
169.4344580293
 20
267.1857949133
  0
VERTEX
  8
0
 62
9
  6
CONTINUOUS
 10
168.6367082968
 20
266.6406733634
  0
VERTEX
  8
0
 62
9
  6
CONTINUOUS
 10
167.887593159
 20
266.0149248343
  0
VERTEX
  8
0
 62
9
  6
CONTINUOUS
 10
167.2066067926
 20
265.3440716219
  0
VERTEX
  8
0
 62
9
  6
CONTINUOUS
 10
166.6092854727
 20
264.6686301037
  0
VERTEX
  8
0
 62
9
  6
CONTINUOUS
 10
166.1071374686
 20
264.0314436381
  0
VERTEX
  8
0
 62
9
  6
CONTINUOUS
 10
165.7089519808
 20
263.4762751149
  0
SEQEND
  0
LINE
  8
0
 62
9
  6
CONTINUOUS
 10
182.9066293089
 20
254.1884730039
 11
177.084789387
 21
265.076711372
  0
LINE
  8
0
 62
7
  6
CONTINUOUS
 10
182.9521885249
 20
254.5340394846
 11
177.127665962
 21
265.4272950353
  0
POLYLINE
  8
0
 62
7
  6
CONTINUOUS
 66
1
 70
0
  0
VERTEX
  8
0
 62
7
  6
CONTINUOUS
 10
182.9522148978
 20
254.5340106789
  0
VERTEX
  8
0
 62
7
  6
CONTINUOUS
 10
182.9564980676
 20
254.5256006751
  0
VERTEX
  8
0
 62
7
  6
CONTINUOUS
 10
182.9799321703
 20
254.4479724683
  0
VERTEX
  8
0
 62
7
  6
CONTINUOUS
 10
182.9791572382
 20
254.3635980125
  0
VERTEX
  8
0
 62
7
  6
CONTINUOUS
 10
182.9542529776
 20
254.2752759596
  0
VERTEX
  8
0
 62
7
  6
CONTINUOUS
 10
182.9066293089
 20
254.1884730039
  0
SEQEND
  0
POLYLINE
  8
0
 62
7
  6
CONTINUOUS
 66
1
 70
0
  0
VERTEX
  8
0
 62
7
  6
CONTINUOUS
 10
172.6551696142
 20
268.8295845375
  0
VERTEX
  8
0
 62
7
  6
CONTINUOUS
 10
171.8317745048
 20
268.9777658381
  0
VERTEX
  8
0
 62
7
  6
CONTINUOUS
 10
170.9754312373
 20
268.986083003
  0
VERTEX
  8
0
 62
7
  6
CONTINUOUS
 10
170.0924893622
 20
268.8513811984
  0
VERTEX
  8
0
 62
7
  6
CONTINUOUS
 10
169.1923438755
 20
268.5715606127
  0
VERTEX
  8
0
 62
7
  6
CONTINUOUS
 10
168.2866890664
 20
268.1475242019
  0
VERTEX
  8
0
 62
7
  6
CONTINUOUS
 10
167.3876802594
 20
267.5836351517
  0
VERTEX
  8
0
 62
7
  6
CONTINUOUS
 10
166.506669955
 20
266.8870326655
  0
VERTEX
  8
0
 62
7
  6
CONTINUOUS
 10
165.65378272
 20
266.0667129868
  0
VERTEX
  8
0
 62
7
  6
CONTINUOUS
 10
164.8377570677
 20
265.1325782905
  0
VERTEX
  8
0
 62
7
  6
CONTINUOUS
 10
164.0664214771
 20
264.0952150353
  0
SEQEND
  0
POLYLINE
  8
0
 62
7
  6
CONTINUOUS
 66
1
 70
0
  0
VERTEX
  8
0
 62
7
  6
CONTINUOUS
 10
159.6212298729
 20
272.3455126441
  0
VERTEX
  8
0
 62
7
  6
CONTINUOUS
 10
158.7978347636
 20
272.4936939447
  0
VERTEX
  8
0
 62
7
  6
CONTINUOUS
 10
157.9414914961
 20
272.5020111096
  0
VERTEX
  8
0
 62
7
  6
CONTINUOUS
 10
157.058549621
 20
272.367309305
  0
VERTEX
  8
0
 62
7
  6
CONTINUOUS
 10
156.1584041343
 20
272.0874887193
  0
VERTEX
  8
0
 62
7
  6
CONTINUOUS
 10
155.2527493252
 20
271.6634523085
  0
VERTEX
  8
0
 62
7
  6
CONTINUOUS
 10
154.3537405181
 20
271.0995632583
  0
VERTEX
  8
0
 62
7
  6
CONTINUOUS
 10
153.4727302138
 20
270.4029607722
  0
VERTEX
  8
0
 62
7
  6
CONTINUOUS
 10
152.6198429788
 20
269.5826410934
  0
VERTEX
  8
0
 62
7
  6
CONTINUOUS
 10
151.8038173265
 20
268.6485063971
  0
VERTEX
  8
0
 62
7
  6
CONTINUOUS
 10
151.0324817359
 20
267.6111431419
  0
SEQEND
  0
POLYLINE
  8
0
 62
9
  6
CONTINUOUS
 66
1
 70
0
  0
VERTEX
  8
0
 62
9
  6
CONTINUOUS
 10
173.469790848
 20
268.6098390308
  0
VERTEX
  8
0
 62
9
  6
CONTINUOUS
 10
173.1880988529
 20
268.6762620087
  0
VERTEX
  8
0
 62
9
  6
CONTINUOUS
 10
172.3847198298
 20
268.7665519828
  0
VERTEX
  8
0
 62
9
  6
CONTINUOUS
 10
171.5572788729
 20
268.7185295263
  0
VERTEX
  8
0
 62
9
  6
CONTINUOUS
 10
170.7119805325
 20
268.5330821493
  0
VERTEX
  8
0
 62
9
  6
CONTINUOUS
 10
169.8549153839
 20
268.2110313496
  0
VERTEX
  8
0
 62
9
  6
CONTINUOUS
 10
169.0005928621
 20
267.7581973428
  0
VERTEX
  8
0
 62
9
  6
CONTINUOUS
 10
168.1733091199
 20
267.1929119557
  0
VERTEX
  8
0
 62
9
  6
CONTINUOUS
 10
167.396451847
 20
266.544008379
  0
VERTEX
  8
0
 62
9
  6
CONTINUOUS
 10
166.6902377418
 20
265.8483205862
  0
VERTEX
  8
0
 62
9
  6
CONTINUOUS
 10
166.0707803131
 20
265.1478636943
  0
VERTEX
  8
0
 62
9
  6
CONTINUOUS
 10
165.5500166064
 20
264.48706781
  0
VERTEX
  8
0
 62
9
  6
CONTINUOUS
 10
165.1369974721
 20
263.9112224584
  0
SEQEND
  0
POLYLINE
  8
0
 62
9
  6
CONTINUOUS
 66
1
 70
0
  0
VERTEX
  8
0
 62
9
  6
CONTINUOUS
 10
160.4358511067
 20
272.1257671375
  0
VERTEX
  8
0
 62
9
  6
CONTINUOUS
 10
160.1541440544
 20
272.1921931629
  0
VERTEX
  8
0
 62
9
  6
CONTINUOUS
 10
159.3507709034
 20
272.2824803255
  0
VERTEX
  8
0
 62
9
  6
CONTINUOUS
 10
158.5233389373
 20
272.2344576058
  0
VERTEX
  8
0
 62
9
  6
CONTINUOUS
 10
157.6780500195
 20
272.0490130051
  0
VERTEX
  8
0
 62
9
  6
CONTINUOUS
 10
156.8209917935
 20
271.7269667746
  0
VERTEX
  8
0
 62
9
  6
CONTINUOUS
 10
155.9666721443
 20
271.2741370015
  0
VERTEX
  8
0
 62
9
  6
CONTINUOUS
 10
155.1393878797
 20
270.7088541297
  0
VERTEX
  8
0
 62
9
  6
CONTINUOUS
 10
154.3625276889
 20
270.0599506954
  0
VERTEX
  8
0
 62
9
  6
CONTINUOUS
 10
153.6563093332
 20
269.3642607104
  0
VERTEX
  8
0
 62
9
  6
CONTINUOUS
 10
153.0368473296
 20
268.6637999336
  0
VERTEX
  8
0
 62
9
  6
CONTINUOUS
 10
152.5160795975
 20
268.0029995689
  0
VERTEX
  8
0
 62
9
  6
CONTINUOUS
 10
152.1030577308
 20
267.427150565
  0
SEQEND
  0
LINE
  8
0
 62
7
  6
CONTINUOUS
 10
159.6212298729
 20
272.3455126441
 11
160.4358511067
 21
272.1257671375
  0
LINE
  8
0
 62
7
  6
CONTINUOUS
 10
172.6551696142
 20
268.8295845375
 11
173.469790848
 21
268.6098390308
  0
ARC
  8
0
 62
7
  6
CONTINUOUS
 10
68.1076758173
 20
192.2638550474
 40
32.1615
 50
107.7527901619
 51
178.8631043748
  0
ARC
  8
0
 62
7
  6
CONTINUOUS
 10
68.1076758173
 20
192.2638550474
 40
32.1615
 50
1.1368956252
 51
72.2472098381
  0
ARC
  8
0
 62
9
  6
CONTINUOUS
 10
50.5912414669
 20
210.1313550474
 40
14.294
 50
90.0
 51
178.8631043748
  0
ARC
  8
0
 62
9
  6
CONTINUOUS
 10
85.6241101676
 20
210.1313550474
 40
14.294
 50
1.1368956252
 51
90.0
  0
ARC
  8
0
 62
9
  6
CONTINUOUS
 10
50.5912414669
 20
210.1313550474
 40
13.7834999326
 50
90.0
 51
178.8631043748
  0
ARC
  8
0
 62
9
  6
CONTINUOUS
 10
85.6241101676
 20
210.1313550474
 40
13.7834999326
 50
1.1368956252
 51
90.0
  0
ARC
  8
0
 62
7
  6
CONTINUOUS
 10
87.0560588644
 20
211.2034050474
 40
0.5105
 50
1.0
 51
90.0
  0
ARC
  8
0
 62
7
  6
CONTINUOUS
 10
49.1592927701
 20
211.2034050474
 40
0.5105
 50
90.0
 51
179.0
  0
CIRCLE
  8
0
 62
7
  6
CONTINUOUS
 10
94.3984258173
 20
256.4204046157
 40
4.5945
  0
CIRCLE
  8
0
 62
7
  6
CONTINUOUS
 10
68.1076758173
 20
256.4204046157
 40
2.7567
  0
CIRCLE
  8
0
 62
7
  6
CONTINUOUS
 10
94.3984258173
 20
256.4204046157
 40
2.60355
  0
CIRCLE
  8
0
 62
7
  6
CONTINUOUS
 10
41.8169258173
 20
256.4204046157
 40
2.60355
  0
CIRCLE
  8
0
 62
7
  6
CONTINUOUS
 10
68.1076758173
 20
256.4204046157
 40
2.3483
  0
CIRCLE
  8
0
 62
7
  6
CONTINUOUS
 10
94.3984258173
 20
152.3372025329
 40
4.5945
  0
CIRCLE
  8
0
 62
7
  6
CONTINUOUS
 10
68.1076758173
 20
152.3372025329
 40
2.7567
  0
CIRCLE
  8
0
 62
7
  6
CONTINUOUS
 10
94.3984258173
 20
152.3372025329
 40
2.60355
  0
CIRCLE
  8
0
 62
7
  6
CONTINUOUS
 10
41.8169258173
 20
152.3372025329
 40
2.60355
  0
CIRCLE
  8
0
 62
7
  6
CONTINUOUS
 10
68.1076758173
 20
152.3372025329
 40
2.3483
  0
ENDSEC
  0
EOF
