  0
SECTION
  2
HEADER
  9
$EXTMAX
 10
210.0
 20
297.0
 30
0.0
  9
$EXTMIN
 10
0.0
 20
0.0
 30
0.0
  9
$LIMMIN
 10
0.0
 20
0.0
  9
$LIMMAX
 10
210.0
 20
297.0
  9
$VIEWCTR
 10
105.0
 20
148.5
  9
$VIEWSIZE
 40
297.0
  9
$CLAYER
  8
0
  9
$LTSCALE
 40
19.36
  9
$CELTYPE
  6
BYLAYER
  9
$DIMSCALE
 40
1.0
  9
$DIMASZ
 40
3.5
  9
$DIMEXO
 40
2.2
  9
$DIMDLI
 40
13.376
  9
$DIMEXE
 40
6.336
  9
$DIMCEN
 40
3.168
  9
$DIMLFAC
 40
1.0
  9
$DIMBLK
  1
_FILLED
  9
$DIMTXT
 40
3.5
  9
$PDMODE
 70
3
  9
$PDSIZE
 40
0.3125
  9
$TILEMODE
 70
1
  0
ENDSEC
  0
SECTION
  2
TABLES
  0
TABLE
  2
LTYPE
 70
6
  0
LTYPE
  2
BYBLOCK
 70
0
  3

 72
65
 73
0
 40
0.0
  0
LTYPE
  2
BYLAYER
 70
0
  3

 72
65
 73
0
 40
0.0
  0
LTYPE
  2
CONTINUOUS
 70
64
  3
Solid line
 72
65
 73
0
 40
0.0
  0
LTYPE
  2
CENTER
 70
64
  3
____ _ ____ _ ____ _ ____ _ ____ _ ____ _ ____
 72
65
 73
4
 40
0.6
 49
0.375
 49
-0.075
 49
0.075
 49
-0.075
  0
LTYPE
  2
HIDDEN
 70
64
  3
- - - - - - - - - - - - - - - - - - - -
 72
65
 73
2
 40
0.2
 49
0.1
 49
-0.1
  0
LTYPE
  2
PHANTOM
 70
64
  3
_____ _ _ _____ _ _ _____ _ _ _____
 72
65
 73
6
 40
0.8
 49
0.45
 49
-0.05
 49
0.1
 49
-0.05
 49
0.1
 49
-0.05
  0
LTYPE
  2
DOT
 70
64
  3
. . . . . . . . . . . . . . . . . . . .
 72
65
 73
2
 40
0.2
 49
0.1
 49
-0.1
  0
LTYPE
  2
DASHED
 70
64
  3
- - - - - - - - - - - - - - - - - - - -
 72
65
 73
2
 40
0.2
 49
0.1
 49
-0.1
  0
ENDTAB
  0
TABLE
  2
LAYER
 70
36
  0
LAYER
  2
0
 70
0
 62
7
  6
CONTINUOUS
  0
LAYER
  2
DEFAULT_1
 70
0
 62
7
  6
CENTER
  0
LAYER
  2
DEFAULT_2
 70
0
 62
8
  6
HIDDEN
  0
LAYER
  2
DEFAULT_3
 70
0
 62
7
  6
PHANTOM
  0
LAYER
  2
1_DATUM_PLANE
 70
0
 62
7
  6
CONTINUOUS
  0
LAYER
  2
CURVES
 70
0
 62
7
  6
CONTINUOUS
  0
LAYER
  2
NOTES
 70
0
 62
7
  6
CONTINUOUS
  0
ENDTAB
  0
TABLE
  2
STYLE
 70
1
  0
STYLE
  2
STANDARD
 70
0
 40
0.0
 41
0.8
 50
0.0
 71
0
 42
0.2
  3
txt
  4

  0
STYLE
  2
TEXTSTYLE_1
 70
0
 40
0.0
 41
0.8
 50
0.0
 71
0
 42
0.2
  3
gdt
  4

  0
STYLE
  2
TEXTSTYLE_2
 70
0
 40
0.0
 41
1.0
 50
0.0
 71
0
 42
0.2
  3
frutiger light.ttf
  4

  0
STYLE
  2
TEXTSTYLE_3
 70
0
 40
0.0
 41
1.0
 50
0.0
 71
0
 42
0.2
  3
ftb_____.ttf
  4

  0
STYLE
  2
TEXTSTYLE_4
 70
0
 40
0.0
 41
1.0
 50
0.0
 71
0
 42
0.2
  3
fti_____.ttf
  4

  0
STYLE
  2
TEXTSTYLE_5
 70
0
 40
0.0
 41
1.0
 50
0.0
 71
0
 42
0.2
  3
frutiger light.ttf
  4

  0
STYLE
  2
TEXTSTYLE_6
 70
0
 40
0.0
 41
1.0
 50
0.0
 71
0
 42
0.2
  3
frutiger light.ttf
  4

  0
STYLE
  2
TEXTSTYLE_7
 70
0
 40
0.0
 41
1.0
 50
0.0
 71
0
 42
0.2
  3
frutiger light.ttf
  4

  0
STYLE
  2
TEXTSTYLE_8
 70
0
 40
0.0
 41
1.0
 50
0.0
 71
0
 42
0.2
  3
frutiger light.ttf
  4

  0
STYLE
  2
TEXTSTYLE_9
 70
0
 40
0.0
 41
1.0
 50
0.0
 71
0
 42
0.2
  3
ftr_____.ttf
  4

  0
STYLE
  2
TEXTSTYLE_10
 70
0
 40
0.0
 41
1.0
 50
0.0
 71
0
 42
0.2
  3
frutiger light.ttf
  4

  0
STYLE
  2
TEXTSTYLE_11
 70
0
 40
0.0
 41
1.0
 50
0.0
 71
0
 42
0.2
  3
frutiger light.ttf
  4

  0
ENDTAB
  0
ENDSEC
  0
SECTION
  2
BLOCKS
  0
BLOCK
  8
NOTES
 62
2
  6
CONTINUOUS
  2
BALLOON_BL2
 70
64
 10
32.3878676471
 20
193.2683823529
  0
CIRCLE
  8
NOTES
 62
2
  6
CONTINUOUS
 10
32.3878676471
 20
193.2683823529
 40
3.9910934831
  0
TEXT
  8
NOTES
 62
5
  6
CONTINUOUS
 10
30.9878676471
 20
191.5183823529
  7
STANDARD
 40
3.5
  1
A
 41
0.8
 72
0
  0
ENDBLK
  8
0
  6
BYBLOCK
 62
0
  0
BLOCK
  8
0
 62
2
  6
CONTINUOUS
  2
UNI_LOGO2_BL1
 70
64
 10
47.9221081579
 20
86.7496072713
  0
LINE
  8
0
 62
7
  6
CONTINUOUS
 10
14.2914039026
 20
87.624495893
 11
14.2914039026
 21
84.6408893356
  0
LINE
  8
0
 62
7
  6
CONTINUOUS
 10
14.6960913929
 20
80.4535855216
 11
14.6960913929
 21
80.5890930046
  0
LINE
  8
0
 62
7
  6
CONTINUOUS
 10
14.2914039026
 20
80.5439238436
 11
14.372341405
 21
80.2729088777
  0
LINE
  8
0
 62
7
  6
CONTINUOUS
 10
16.2422235747
 20
84.5261352373
 11
16.2422235747
 21
87.624495893
  0
LINE
  8
0
 62
7
  6
CONTINUOUS
 10
17.5289038254
 20
81.9441680241
 11
17.5289038254
 21
79.8212172045
  0
LINE
  8
0
 62
7
  6
CONTINUOUS
 10
17.9335914026
 20
79.8212172045
 11
17.9335914026
 21
80.8601080338
  0
LINE
  8
0
 62
7
  6
CONTINUOUS
 10
17.9335914026
 20
81.0407846778
 11
17.9335914026
 21
81.9441680241
  0
LINE
  8
0
 62
7
  6
CONTINUOUS
 10
14.372341405
 20
80.8149388728
 11
14.2914039026
 21
80.5439238436
  0
LINE
  8
0
 62
7
  6
CONTINUOUS
 10
14.8579663833
 20
80.2277397167
 11
14.6960913929
 21
80.4535855216
  0
LINE
  8
0
 62
7
  6
CONTINUOUS
 10
16.3957789798
 20
80.9504463558
 11
16.4767164026
 21
80.8149388728
  0
LINE
  8
0
 62
7
  6
CONTINUOUS
 10
16.8814039798
 20
80.8149388728
 11
16.8004663254
 21
80.9956155168
  0
LINE
  8
0
 62
7
  6
CONTINUOUS
 10
18.881567837
 20
87.624495893
 11
18.881567837
 21
85.0999057291
  0
LINE
  8
0
 62
7
  6
CONTINUOUS
 10
18.881567837
 20
83.2638401553
 11
18.881567837
 21
82.3458073684
  0
LINE
  8
0
 62
7
  6
CONTINUOUS
 10
19.3904664026
 20
80.7246005508
 11
19.3904664026
 21
79.8212172045
  0
LINE
  8
0
 62
7
  6
CONTINUOUS
 10
19.7951537482
 20
79.8212172045
 11
19.7951537482
 21
80.7246005508
  0
LINE
  8
0
 62
7
  6
CONTINUOUS
 10
14.6960913929
 20
80.5890930046
 11
14.7770289026
 21
80.7697697118
  0
LINE
  8
0
 62
7
  6
CONTINUOUS
 10
14.372341405
 20
80.2729088777
 11
14.5342164026
 21
80.0922322021
  0
LINE
  8
0
 62
7
  6
CONTINUOUS
 10
19.3095287482
 20
80.9052771948
 11
19.3904664026
 21
80.7246005508
  0
LINE
  8
0
 62
7
  6
CONTINUOUS
 10
20.442654057
 20
80.2277397167
 11
20.5235912482
 21
80.0470630411
  0
LINE
  8
0
 62
7
  6
CONTINUOUS
 10
19.7951537482
 20
80.7246005508
 11
19.714216557
 21
80.9504463558
  0
LINE
  8
0
 62
7
  6
CONTINUOUS
 10
20.442654057
 20
80.9956155168
 11
20.442654057
 21
80.9052771948
  0
LINE
  8
0
 62
7
  6
CONTINUOUS
 10
20.442654057
 20
80.3632471996
 11
20.442654057
 21
80.2277397167
  0
LINE
  8
0
 62
7
  6
CONTINUOUS
 10
20.8323875091
 20
82.3458073684
 11
20.8323875091
 21
87.624495893
  0
LINE
  8
0
 62
7
  6
CONTINUOUS
 10
20.8473414026
 20
80.182570524
 11
20.8473414026
 21
80.2729088777
  0
LINE
  8
0
 62
7
  6
CONTINUOUS
 10
21.2914039026
 20
87.624495893
 11
21.2914039026
 21
82.3458073684
  0
LINE
  8
0
 62
7
  6
CONTINUOUS
 10
16.8004663254
 20
80.0922322021
 11
16.8814039798
 21
80.2729088777
  0
LINE
  8
0
 62
7
  6
CONTINUOUS
 10
22.9517167113
 20
79.9567247033
 11
22.8707785938
 21
80.182570524
  0
LINE
  8
0
 62
7
  6
CONTINUOUS
 10
22.4660917113
 20
80.9052771948
 11
22.4660917113
 21
80.7697697118
  0
LINE
  8
0
 62
7
  6
CONTINUOUS
 10
22.4660917113
 20
80.5890930046
 11
22.4660917113
 21
80.3180780386
  0
LINE
  8
0
 62
7
  6
CONTINUOUS
 10
22.8707785938
 20
80.182570524
 11
22.8707785938
 21
80.9052771948
  0
LINE
  8
0
 62
7
  6
CONTINUOUS
 10
23.2422235747
 20
82.3458073684
 11
23.2422235747
 21
84.8703975323
  0
LINE
  8
0
 62
7
  6
CONTINUOUS
 10
23.2422235747
 20
86.7064631061
 11
23.2422235747
 21
87.624495893
  0
LINE
  8
0
 62
7
  6
CONTINUOUS
 10
23.6801542113
 20
81.9441680241
 11
23.6801542113
 21
81.7183222192
  0
LINE
  8
0
 62
7
  6
CONTINUOUS
 10
23.6801542113
 20
81.2666304827
 11
23.6801542113
 21
79.8212172045
  0
LINE
  8
0
 62
7
  6
CONTINUOUS
 10
24.0848410938
 20
79.8212172045
 11
24.0848410938
 21
81.2666304827
  0
LINE
  8
0
 62
7
  6
CONTINUOUS
 10
24.0848410938
 20
81.7183222192
 11
24.0848410938
 21
81.9441680241
  0
LINE
  8
0
 62
7
  6
CONTINUOUS
 10
16.4767164026
 20
80.2729088777
 11
16.3957789798
 21
80.137401363
  0
LINE
  8
0
 62
7
  6
CONTINUOUS
 10
19.714216557
 20
80.9504463558
 11
19.6332789026
 21
81.0407846778
  0
LINE
  8
0
 62
7
  6
CONTINUOUS
 10
20.928279057
 20
80.0922322021
 11
20.8473414026
 21
80.182570524
  0
LINE
  8
0
 62
7
  6
CONTINUOUS
 10
22.5470289026
 20
79.9115555344
 11
22.6279660938
 21
79.8212172045
  0
LINE
  8
0
 62
7
  6
CONTINUOUS
 10
22.4660917113
 20
80.0470630411
 11
22.5470289026
 21
79.9115555344
  0
LINE
  8
0
 62
7
  6
CONTINUOUS
 10
23.0326539026
 20
79.8212172045
 11
22.9517167113
 21
79.9567247033
  0
LINE
  8
0
 62
7
  6
CONTINUOUS
 10
22.8707785938
 20
80.9052771948
 11
22.7898414026
 21
81.0407846778
  0
LINE
  8
0
 62
7
  6
CONTINUOUS
 10
24.7323414026
 20
81.2666304827
 11
24.7323414026
 21
79.8212172045
  0
LINE
  8
0
 62
7
  6
CONTINUOUS
 10
25.1370292113
 20
79.8212172045
 11
25.1370292113
 21
80.8601080338
  0
LINE
  8
0
 62
7
  6
CONTINUOUS
 10
25.1370292113
 20
81.0407846778
 11
25.1370292113
 21
81.2666304827
  0
LINE
  8
0
 62
7
  6
CONTINUOUS
 10
25.881567837
 20
85.4441680241
 11
25.881567837
 21
82.3458073684
  0
LINE
  8
0
 62
7
  6
CONTINUOUS
 10
14.5342164026
 20
80.9956155168
 11
14.372341405
 21
80.8149388728
  0
LINE
  8
0
 62
7
  6
CONTINUOUS
 10
14.7770289026
 20
80.7697697118
 11
14.8579663833
 21
80.8601080338
  0
LINE
  8
0
 62
7
  6
CONTINUOUS
 10
14.5342164026
 20
80.0922322021
 11
14.6960913929
 21
80.0018938643
  0
LINE
  8
0
 62
7
  6
CONTINUOUS
 10
15.1007788833
 20
80.0922322021
 11
14.8579663833
 21
80.2277397167
  0
LINE
  8
0
 62
7
  6
CONTINUOUS
 10
22.3851535938
 20
80.9956155168
 11
22.4660917113
 21
80.9052771948
  0
LINE
  8
0
 62
7
  6
CONTINUOUS
 10
26.5129660938
 20
80.9052771948
 11
26.5939042113
 21
80.6794313898
  0
LINE
  8
0
 62
7
  6
CONTINUOUS
 10
26.9985910938
 20
80.6794313898
 11
26.9176539026
 21
80.9052771948
  0
LINE
  8
0
 62
7
  6
CONTINUOUS
 10
26.5939042113
 20
80.6794313898
 11
26.5939042113
 21
79.8212172045
  0
LINE
  8
0
 62
7
  6
CONTINUOUS
 10
26.9985910938
 20
79.8212172045
 11
26.9985910938
 21
80.6794313898
  0
LINE
  8
0
 62
7
  6
CONTINUOUS
 10
27.6460914026
 20
80.9956155168
 11
27.6460914026
 21
80.9052771948
  0
LINE
  8
0
 62
7
  6
CONTINUOUS
 10
27.8323875091
 20
82.3458073684
 11
27.8323875091
 21
85.3294139258
  0
LINE
  8
0
 62
7
  6
CONTINUOUS
 10
28.2914039026
 20
87.624495893
 11
28.2914039026
 21
82.3458073684
  0
LINE
  8
0
 62
7
  6
CONTINUOUS
 10
20.8473414026
 20
80.2729088777
 11
20.928279057
 21
80.4084163606
  0
LINE
  8
0
 62
7
  6
CONTINUOUS
 10
14.6960913929
 20
80.0018938643
 11
14.9389039219
 21
79.9115555344
  0
LINE
  8
0
 62
7
  6
CONTINUOUS
 10
16.8004663254
 20
80.9956155168
 11
16.5576538254
 21
81.1311229998
  0
LINE
  8
0
 62
7
  6
CONTINUOUS
 10
20.5235912482
 20
80.0470630411
 11
20.7664037482
 21
79.9115555344
  0
LINE
  8
0
 62
7
  6
CONTINUOUS
 10
19.1476539026
 20
80.9956155168
 11
19.3095287482
 21
80.9052771948
  0
LINE
  8
0
 62
7
  6
CONTINUOUS
 10
19.6332789026
 20
81.0407846778
 11
19.471404057
 21
81.1311229998
  0
LINE
  8
0
 62
7
  6
CONTINUOUS
 10
27.6460914026
 20
80.182570524
 11
27.8079667113
 21
80.0018938643
  0
LINE
  8
0
 62
7
  6
CONTINUOUS
 10
28.1317164026
 20
80.0922322021
 11
28.0507792113
 21
80.182570524
  0
LINE
  8
0
 62
7
  6
CONTINUOUS
 10
27.6460914026
 20
80.9052771948
 11
27.8079667113
 21
80.7246005508
  0
LINE
  8
0
 62
7
  6
CONTINUOUS
 10
26.9176539026
 20
80.9052771948
 11
26.8367167113
 21
81.0407846778
  0
LINE
  8
0
 62
7
  6
CONTINUOUS
 10
30.2360907851
 20
80.0922322021
 11
30.2360907851
 21
80.182570524
  0
LINE
  8
0
 62
7
  6
CONTINUOUS
 10
30.2422235747
 20
82.3458073684
 11
30.2422235747
 21
87.624495893
  0
LINE
  8
0
 62
7
  6
CONTINUOUS
 10
20.5235912482
 20
81.0859538388
 11
20.442654057
 21
80.9956155168
  0
LINE
  8
0
 62
7
  6
CONTINUOUS
 10
16.152966364
 20
81.0407846778
 11
16.3957789798
 21
80.9504463558
  0
LINE
  8
0
 62
7
  6
CONTINUOUS
 10
22.7898414026
 20
81.0407846778
 11
22.6279660938
 21
81.1311229998
  0
LINE
  8
0
 62
7
  6
CONTINUOUS
 10
28.1317164026
 20
80.8149388728
 11
28.0507792113
 21
80.9052771948
  0
LINE
  8
0
 62
7
  6
CONTINUOUS
 10
29.7504667113
 20
80.2729088777
 11
29.8314039026
 21
80.182570524
  0
LINE
  8
0
 62
7
  6
CONTINUOUS
 10
30.2360907851
 20
80.182570524
 11
30.0742164026
 21
80.3632471996
  0
LINE
  8
0
 62
7
  6
CONTINUOUS
 10
29.7504667113
 20
80.9956155168
 11
29.8314039026
 21
80.9052771948
  0
LINE
  8
0
 62
7
  6
CONTINUOUS
 10
30.2360907851
 20
80.9052771948
 11
30.0742164026
 21
81.0859538388
  0
LINE
  8
0
 62
7
  6
CONTINUOUS
 10
20.8473414026
 20
80.9052771948
 11
20.928279057
 21
80.9956155168
  0
LINE
  8
0
 62
7
  6
CONTINUOUS
 10
20.6045289026
 20
80.5439238436
 11
20.442654057
 21
80.3632471996
  0
LINE
  8
0
 62
7
  6
CONTINUOUS
 10
22.4660917113
 20
80.3180780386
 11
22.3851535938
 21
80.2277397167
  0
LINE
  8
0
 62
7
  6
CONTINUOUS
 10
22.3851535938
 20
79.9567247033
 11
22.4660917113
 21
80.0470630411
  0
LINE
  8
0
 62
7
  6
CONTINUOUS
 10
20.7664037482
 20
79.9115555344
 11
20.928279057
 21
79.8663863694
  0
LINE
  8
0
 62
7
  6
CONTINUOUS
 10
16.5576538254
 20
81.1311229998
 11
16.2339039026
 21
81.2214613217
  0
LINE
  8
0
 62
7
  6
CONTINUOUS
 10
21.2520287482
 20
80.0018938643
 11
20.928279057
 21
80.0922322021
  0
LINE
  8
0
 62
7
  6
CONTINUOUS
 10
19.471404057
 20
81.1311229998
 11
19.228591557
 21
81.2214613217
  0
LINE
  8
0
 62
7
  6
CONTINUOUS
 10
22.6279660938
 20
81.1311229998
 11
22.3851535938
 21
81.2214613217
  0
LINE
  8
0
 62
7
  6
CONTINUOUS
 10
26.3510917113
 20
80.9956155168
 11
26.5129660938
 21
80.9052771948
  0
LINE
  8
0
 62
7
  6
CONTINUOUS
 10
26.8367167113
 20
81.0407846778
 11
26.6748414026
 21
81.1311229998
  0
LINE
  8
0
 62
7
  6
CONTINUOUS
 10
14.9389039219
 20
79.9115555344
 11
15.1817164219
 21
79.8663863694
  0
LINE
  8
0
 62
7
  6
CONTINUOUS
 10
15.5864039412
 20
80.0018938643
 11
15.1007788833
 21
80.0922322021
  0
LINE
  8
0
 62
7
  6
CONTINUOUS
 10
18.985779057
 20
81.0407846778
 11
19.1476539026
 21
80.9956155168
  0
LINE
  8
0
 62
7
  6
CONTINUOUS
 10
22.2232792113
 20
81.0407846778
 11
22.3851535938
 21
80.9956155168
  0
LINE
  8
0
 62
7
  6
CONTINUOUS
 10
28.2935917113
 20
80.0470630411
 11
28.1317164026
 21
80.0922322021
  0
LINE
  8
0
 62
7
  6
CONTINUOUS
 10
26.1892164026
 20
81.0407846778
 11
26.3510917113
 21
80.9956155168
  0
LINE
  8
0
 62
7
  6
CONTINUOUS
 10
27.8079667113
 20
80.0018938643
 11
28.0507792113
 21
79.9115555344
  0
LINE
  8
0
 62
7
  6
CONTINUOUS
 10
26.6748414026
 20
81.1311229998
 11
26.4320289026
 21
81.2214613217
  0
LINE
  8
0
 62
7
  6
CONTINUOUS
 10
28.3745289026
 20
80.7246005508
 11
28.1317164026
 21
80.8149388728
  0
LINE
  8
0
 62
7
  6
CONTINUOUS
 10
29.5076542113
 20
80.3632471996
 11
29.7504667113
 21
80.2729088777
  0
LINE
  8
0
 62
7
  6
CONTINUOUS
 10
30.0742164026
 20
81.0859538388
 11
29.8314039026
 21
81.1762921607
  0
LINE
  8
0
 62
7
  6
CONTINUOUS
 10
27.8079667113
 20
80.7246005508
 11
28.1317164026
 21
80.5890930046
  0
LINE
  8
0
 62
7
  6
CONTINUOUS
 10
30.0742164026
 20
80.3632471996
 11
29.7504667113
 21
80.4987546826
  0
LINE
  8
0
 62
7
  6
CONTINUOUS
 10
28.0507792113
 20
80.9052771948
 11
28.1317164026
 21
80.9956155168
  0
LINE
  8
0
 62
7
  6
CONTINUOUS
 10
14.6960913929
 20
81.0859538388
 11
14.5342164026
 21
80.9956155168
  0
LINE
  8
0
 62
7
  6
CONTINUOUS
 10
14.8579663833
 20
80.8601080338
 11
15.1007788833
 21
80.9956155168
  0
LINE
  8
0
 62
7
  6
CONTINUOUS
 10
18.0954664798
 20
81.1311229998
 11
17.9335914026
 21
81.0407846778
  0
LINE
  8
0
 62
7
  6
CONTINUOUS
 10
17.9335914026
 20
80.8601080338
 11
18.0954664798
 21
80.9504463558
  0
LINE
  8
0
 62
7
  6
CONTINUOUS
 10
16.5576538254
 20
79.9567247033
 11
16.8004663254
 21
80.0922322021
  0
LINE
  8
0
 62
7
  6
CONTINUOUS
 10
15.1817164219
 20
79.8663863694
 11
15.667341364
 21
79.8212172045
  0
LINE
  8
0
 62
7
  6
CONTINUOUS
 10
20.928279057
 20
79.8663863694
 11
21.2520287482
 21
79.8212172045
  0
LINE
  8
0
 62
7
  6
CONTINUOUS
 10
18.6620289026
 20
81.0859538388
 11
18.985779057
 21
81.0407846778
  0
LINE
  8
0
 62
7
  6
CONTINUOUS
 10
21.899529057
 20
81.0859538388
 11
22.2232792113
 21
81.0407846778
  0
LINE
  8
0
 62
7
  6
CONTINUOUS
 10
28.1317164026
 20
80.5890930046
 11
29.5076542113
 21
80.3632471996
  0
LINE
  8
0
 62
7
  6
CONTINUOUS
 10
29.7504667113
 20
80.4987546826
 11
28.3745289026
 21
80.7246005508
  0
LINE
  8
0
 62
7
  6
CONTINUOUS
 10
19.228591557
 20
81.2214613217
 11
18.985779057
 21
81.2666304827
  0
LINE
  8
0
 62
7
  6
CONTINUOUS
 10
28.0507792113
 20
79.9115555344
 11
28.2935917113
 21
79.8663863694
  0
LINE
  8
0
 62
7
  6
CONTINUOUS
 10
26.4320289026
 20
81.2214613217
 11
26.1892164026
 21
81.2666304827
  0
LINE
  8
0
 62
7
  6
CONTINUOUS
 10
29.5885914026
 20
81.0407846778
 11
29.7504667113
 21
80.9956155168
  0
LINE
  8
0
 62
7
  6
CONTINUOUS
 10
29.8314039026
 20
80.182570524
 11
29.7504667113
 21
80.0922322021
  0
LINE
  8
0
 62
7
  6
CONTINUOUS
 10
27.8079667113
 20
81.1311229998
 11
27.6460914026
 21
80.9956155168
  0
LINE
  8
0
 62
7
  6
CONTINUOUS
 10
20.685466557
 20
81.1762921607
 11
20.5235912482
 21
81.0859538388
  0
LINE
  8
0
 62
7
  6
CONTINUOUS
 10
20.7664037482
 20
80.6342622289
 11
20.6045289026
 21
80.5439238436
  0
LINE
  8
0
 62
7
  6
CONTINUOUS
 10
20.928279057
 20
80.4084163606
 11
21.0901539026
 21
80.4987546826
  0
LINE
  8
0
 62
7
  6
CONTINUOUS
 10
17.5289038254
 20
79.8212172045
 11
17.9335914026
 21
79.8212172045
  0
LINE
  8
0
 62
7
  6
CONTINUOUS
 10
19.3904664026
 20
79.8212172045
 11
19.7951537482
 21
79.8212172045
  0
LINE
  8
0
 62
7
  6
CONTINUOUS
 10
21.2520287482
 20
79.8212172045
 11
21.7376537482
 21
79.8212172045
  0
LINE
  8
0
 62
7
  6
CONTINUOUS
 10
22.6279660938
 20
79.8212172045
 11
23.0326539026
 21
79.8212172045
  0
LINE
  8
0
 62
7
  6
CONTINUOUS
 10
23.6801542113
 20
79.8212172045
 11
24.0848410938
 21
79.8212172045
  0
LINE
  8
0
 62
7
  6
CONTINUOUS
 10
24.7323414026
 20
79.8212172045
 11
25.1370292113
 21
79.8212172045
  0
LINE
  8
0
 62
7
  6
CONTINUOUS
 10
26.5939042113
 20
79.8212172045
 11
26.9985910938
 21
79.8212172045
  0
LINE
  8
0
 62
7
  6
CONTINUOUS
 10
28.7792167113
 20
79.8212172045
 11
29.2648417113
 21
79.8212172045
  0
LINE
  8
0
 62
7
  6
CONTINUOUS
 10
29.2648417113
 20
80.0018938643
 11
28.7792167113
 21
80.0018938643
  0
LINE
  8
0
 62
7
  6
CONTINUOUS
 10
21.7376537482
 20
80.0018938643
 11
21.2520287482
 21
80.0018938643
  0
LINE
  8
0
 62
7
  6
CONTINUOUS
 10
28.0507792113
 20
80.182570524
 11
27.6460914026
 21
80.182570524
  0
LINE
  8
0
 62
7
  6
CONTINUOUS
 10
16.8814039798
 20
80.2729088777
 11
16.4767164026
 21
80.2729088777
  0
LINE
  8
0
 62
7
  6
CONTINUOUS
 10
15.5864039412
 20
81.0859538388
 11
16.152966364
 21
81.0407846778
  0
LINE
  8
0
 62
7
  6
CONTINUOUS
 10
16.2339039026
 20
81.2214613217
 11
15.667341364
 21
81.2666304827
  0
LINE
  8
0
 62
7
  6
CONTINUOUS
 10
28.2935917113
 20
79.8663863694
 11
28.7792167113
 21
79.8212172045
  0
LINE
  8
0
 62
7
  6
CONTINUOUS
 10
28.7792167113
 20
80.0018938643
 11
28.2935917113
 21
80.0470630411
  0
LINE
  8
0
 62
7
  6
CONTINUOUS
 10
22.3851535938
 20
81.2214613217
 11
21.899529057
 21
81.2666304827
  0
LINE
  8
0
 62
7
  6
CONTINUOUS
 10
29.1029664026
 20
81.0859538388
 11
29.5885914026
 21
81.0407846778
  0
LINE
  8
0
 62
7
  6
CONTINUOUS
 10
29.5885914026
 20
81.2214613217
 11
29.1029664026
 21
81.2666304827
  0
LINE
  8
0
 62
7
  6
CONTINUOUS
 10
25.8654667113
 20
81.0859538388
 11
26.1892164026
 21
81.0407846778
  0
LINE
  8
0
 62
7
  6
CONTINUOUS
 10
29.8314039026
 20
81.1762921607
 11
29.5885914026
 21
81.2214613217
  0
LINE
  8
0
 62
7
  6
CONTINUOUS
 10
30.0742164026
 20
79.9567247033
 11
30.2360907851
 21
80.0922322021
  0
LINE
  8
0
 62
7
  6
CONTINUOUS
 10
22.3851535938
 20
80.2277397167
 11
22.1423410938
 21
80.0922322021
  0
LINE
  8
0
 62
7
  6
CONTINUOUS
 10
25.2989035938
 20
81.1311229998
 11
25.1370292113
 21
81.0407846778
  0
LINE
  8
0
 62
7
  6
CONTINUOUS
 10
25.1370292113
 20
80.8601080338
 11
25.2989035938
 21
80.9504463558
  0
LINE
  8
0
 62
7
  6
CONTINUOUS
 10
14.9389039219
 20
81.1762921607
 11
14.6960913929
 21
81.0859538388
  0
LINE
  8
0
 62
7
  6
CONTINUOUS
 10
18.3382787482
 20
81.2214613217
 11
18.0954664798
 21
81.1311229998
  0
LINE
  8
0
 62
7
  6
CONTINUOUS
 10
18.0954664798
 20
80.9504463558
 11
18.3382787482
 21
81.0407846778
  0
LINE
  8
0
 62
7
  6
CONTINUOUS
 10
16.3957789798
 20
80.137401363
 11
16.152966364
 21
80.0470630411
  0
LINE
  8
0
 62
7
  6
CONTINUOUS
 10
29.5885914026
 20
80.0470630411
 11
29.2648417113
 21
80.0018938643
  0
LINE
  8
0
 62
7
  6
CONTINUOUS
 10
21.7376537482
 20
79.8212172045
 11
22.1423410938
 21
79.8663863694
  0
LINE
  8
0
 62
7
  6
CONTINUOUS
 10
29.2648417113
 20
79.8212172045
 11
29.7504667113
 21
79.8663863694
  0
LINE
  8
0
 62
7
  6
CONTINUOUS
 10
15.667341364
 20
79.8212172045
 11
16.2339039026
 21
79.8663863694
  0
LINE
  8
0
 62
7
  6
CONTINUOUS
 10
16.152966364
 20
80.0470630411
 11
15.5864039412
 21
80.0018938643
  0
LINE
  8
0
 62
7
  6
CONTINUOUS
 10
21.5757789026
 20
80.5890930046
 11
22.4660917113
 21
80.5890930046
  0
LINE
  8
0
 62
7
  6
CONTINUOUS
 10
22.4660917113
 20
80.7697697118
 11
21.5757789026
 21
80.7697697118
  0
LINE
  8
0
 62
7
  6
CONTINUOUS
 10
16.4767164026
 20
80.8149388728
 11
16.8814039798
 21
80.8149388728
  0
LINE
  8
0
 62
7
  6
CONTINUOUS
 10
20.442654057
 20
80.9052771948
 11
20.8473414026
 21
80.9052771948
  0
LINE
  8
0
 62
7
  6
CONTINUOUS
 10
29.8314039026
 20
80.9052771948
 11
30.2360907851
 21
80.9052771948
  0
LINE
  8
0
 62
7
  6
CONTINUOUS
 10
21.413904057
 20
81.0859538388
 11
21.899529057
 21
81.0859538388
  0
LINE
  8
0
 62
7
  6
CONTINUOUS
 10
28.6173414026
 20
81.0859538388
 11
29.1029664026
 21
81.0859538388
  0
LINE
  8
0
 62
7
  6
CONTINUOUS
 10
29.1029664026
 20
81.2666304827
 11
28.6173414026
 21
81.2666304827
  0
LINE
  8
0
 62
7
  6
CONTINUOUS
 10
26.1892164026
 20
81.2666304827
 11
25.8654667113
 21
81.2666304827
  0
LINE
  8
0
 62
7
  6
CONTINUOUS
 10
25.1370292113
 20
81.2666304827
 11
24.7323414026
 21
81.2666304827
  0
LINE
  8
0
 62
7
  6
CONTINUOUS
 10
24.0848410938
 20
81.2666304827
 11
23.6801542113
 21
81.2666304827
  0
LINE
  8
0
 62
7
  6
CONTINUOUS
 10
21.899529057
 20
81.2666304827
 11
21.413904057
 21
81.2666304827
  0
LINE
  8
0
 62
7
  6
CONTINUOUS
 10
18.985779057
 20
81.2666304827
 11
18.6620289026
 21
81.2666304827
  0
LINE
  8
0
 62
7
  6
CONTINUOUS
 10
23.6801542113
 20
81.7183222192
 11
24.0848410938
 21
81.7183222192
  0
LINE
  8
0
 62
7
  6
CONTINUOUS
 10
24.0848410938
 20
81.9441680241
 11
23.6801542113
 21
81.9441680241
  0
LINE
  8
0
 62
7
  6
CONTINUOUS
 10
17.9335914026
 20
81.9441680241
 11
17.5289038254
 21
81.9441680241
  0
LINE
  8
0
 62
7
  6
CONTINUOUS
 10
16.5864858698
 20
82.3458073684
 11
17.1640857578
 21
82.3458073684
  0
LINE
  8
0
 62
7
  6
CONTINUOUS
 10
18.881567837
 20
82.3458073684
 11
20.8323875091
 21
82.3458073684
  0
LINE
  8
0
 62
7
  6
CONTINUOUS
 10
21.2914039026
 20
82.3458073684
 11
23.2422235747
 21
82.3458073684
  0
LINE
  8
0
 62
7
  6
CONTINUOUS
 10
25.881567837
 20
82.3458073684
 11
27.8323875091
 21
82.3458073684
  0
LINE
  8
0
 62
7
  6
CONTINUOUS
 10
28.2914039026
 20
82.3458073684
 11
30.2422235747
 21
82.3458073684
  0
LINE
  8
0
 62
7
  6
CONTINUOUS
 10
25.5417160938
 20
81.2214613217
 11
25.2989035938
 21
81.1311229998
  0
LINE
  8
0
 62
7
  6
CONTINUOUS
 10
22.1423410938
 20
79.8663863694
 11
22.3851535938
 21
79.9567247033
  0
LINE
  8
0
 62
7
  6
CONTINUOUS
 10
29.7504667113
 20
79.8663863694
 11
30.0742164026
 21
79.9567247033
  0
LINE
  8
0
 62
7
  6
CONTINUOUS
 10
29.7504667113
 20
80.0922322021
 11
29.5885914026
 21
80.0470630411
  0
LINE
  8
0
 62
7
  6
CONTINUOUS
 10
28.2935917113
 20
81.0407846778
 11
28.6173414026
 21
81.0859538388
  0
LINE
  8
0
 62
7
  6
CONTINUOUS
 10
25.5417160938
 20
81.0407846778
 11
25.8654667113
 21
81.0859538388
  0
LINE
  8
0
 62
7
  6
CONTINUOUS
 10
21.2520287482
 20
80.5439238436
 11
21.5757789026
 21
80.5890930046
  0
LINE
  8
0
 62
7
  6
CONTINUOUS
 10
25.8654667113
 20
81.2666304827
 11
25.5417160938
 21
81.2214613217
  0
LINE
  8
0
 62
7
  6
CONTINUOUS
 10
21.0901539026
 20
81.0407846778
 11
21.413904057
 21
81.0859538388
  0
LINE
  8
0
 62
7
  6
CONTINUOUS
 10
28.6173414026
 20
81.2666304827
 11
28.1317164026
 21
81.2214613217
  0
LINE
  8
0
 62
7
  6
CONTINUOUS
 10
21.5757789026
 20
80.7697697118
 11
21.0901539026
 21
80.7246005508
  0
LINE
  8
0
 62
7
  6
CONTINUOUS
 10
15.667341364
 20
81.2666304827
 11
15.1817164219
 21
81.2214613217
  0
LINE
  8
0
 62
7
  6
CONTINUOUS
 10
21.413904057
 20
81.2666304827
 11
20.8473414026
 21
81.2214613217
  0
LINE
  8
0
 62
7
  6
CONTINUOUS
 10
17.7340268534
 20
83.9523647455
 11
16.8159940665
 21
83.9523647455
  0
LINE
  8
0
 62
7
  6
CONTINUOUS
 10
25.2989035938
 20
80.9504463558
 11
25.5417160938
 21
81.0407846778
  0
LINE
  8
0
 62
7
  6
CONTINUOUS
 10
28.1317164026
 20
80.9956155168
 11
28.2935917113
 21
81.0407846778
  0
LINE
  8
0
 62
7
  6
CONTINUOUS
 10
28.1317164026
 20
81.2214613217
 11
27.8079667113
 21
81.1311229998
  0
LINE
  8
0
 62
7
  6
CONTINUOUS
 10
22.1423410938
 20
80.0922322021
 11
21.7376537482
 21
80.0018938643
  0
LINE
  8
0
 62
7
  6
CONTINUOUS
 10
18.3382787482
 20
81.0407846778
 11
18.6620289026
 21
81.0859538388
  0
LINE
  8
0
 62
7
  6
CONTINUOUS
 10
18.6620289026
 20
81.2666304827
 11
18.3382787482
 21
81.2214613217
  0
LINE
  8
0
 62
7
  6
CONTINUOUS
 10
15.2626539026
 20
81.0407846778
 11
15.5864039412
 21
81.0859538388
  0
LINE
  8
0
 62
7
  6
CONTINUOUS
 10
24.3897645583
 20
86.0179385159
 11
25.3077973452
 21
86.0179385159
  0
LINE
  8
0
 62
7
  6
CONTINUOUS
 10
21.0901539026
 20
80.4987546826
 11
21.2520287482
 21
80.5439238436
  0
LINE
  8
0
 62
7
  6
CONTINUOUS
 10
21.0901539026
 20
80.7246005508
 11
20.7664037482
 21
80.6342622289
  0
LINE
  8
0
 62
7
  6
CONTINUOUS
 10
20.928279057
 20
80.9956155168
 11
21.0901539026
 21
81.0407846778
  0
LINE
  8
0
 62
7
  6
CONTINUOUS
 10
16.2339039026
 20
79.8663863694
 11
16.5576538254
 21
79.9567247033
  0
LINE
  8
0
 62
7
  6
CONTINUOUS
 10
20.8473414026
 20
81.2214613217
 11
20.685466557
 21
81.1762921607
  0
LINE
  8
0
 62
7
  6
CONTINUOUS
 10
15.1817164219
 20
81.2214613217
 11
14.9389039219
 21
81.1762921607
  0
LINE
  8
0
 62
7
  6
CONTINUOUS
 10
30.2422235747
 20
87.624495893
 11
28.2914039026
 21
87.624495893
  0
LINE
  8
0
 62
7
  6
CONTINUOUS
 10
25.5373055419
 20
87.624495893
 11
24.9597056539
 21
87.624495893
  0
LINE
  8
0
 62
7
  6
CONTINUOUS
 10
23.2422235747
 20
87.624495893
 11
21.2914039026
 21
87.624495893
  0
LINE
  8
0
 62
7
  6
CONTINUOUS
 10
20.8323875091
 20
87.624495893
 11
18.881567837
 21
87.624495893
  0
LINE
  8
0
 62
7
  6
CONTINUOUS
 10
16.2422235747
 20
87.624495893
 11
14.2914039026
 21
87.624495893
  0
LINE
  8
0
 62
7
  6
CONTINUOUS
 10
15.1007788833
 20
80.9956155168
 11
15.2626539026
 21
81.0407846778
  0
CIRCLE
  8
0
 62
7
  6
CONTINUOUS
 10
29.2668137386
 20
90.8949876963
 40
2.9262295082
  0
ARC
  8
0
 62
7
  6
CONTINUOUS
 10
16.5864858698
 20
84.6408893356
 40
2.2950819672
 50
180.0
 51
270.0
  0
ARC
  8
0
 62
7
  6
CONTINUOUS
 10
25.5373055419
 20
85.3294139258
 40
2.2950819672
 50
0.0
 51
90.0
  0
ARC
  8
0
 62
7
  6
CONTINUOUS
 10
17.1640857578
 20
84.4113811389
 40
2.0655737705
 50
270.0
 51
326.2510114041
  0
ARC
  8
0
 62
7
  6
CONTINUOUS
 10
24.9597056539
 20
85.5589221225
 40
2.0655737705
 50
90.0
 51
146.2510114041
  0
ARC
  8
0
 62
7
  6
CONTINUOUS
 10
17.7340268534
 20
85.0999057291
 40
1.1475409836
 50
270.0
 51
360.0
  0
ARC
  8
0
 62
7
  6
CONTINUOUS
 10
24.3897645583
 20
84.8703975323
 40
1.1475409836
 50
90.0
 51
180.0
  0
ARC
  8
0
 62
7
  6
CONTINUOUS
 10
16.8159940665
 20
84.5261352373
 40
0.5737704918
 50
180.0
 51
270.0
  0
ARC
  8
0
 62
7
  6
CONTINUOUS
 10
25.3077973452
 20
85.4441680241
 40
0.5737704918
 50
0.0
 51
90.0
  0
SOLID
  8
0
 62
7
  6
CONTINUOUS
 10
23.6801542113
 20
81.7183227236
 11
23.6801542113
 21
81.9441686006
 12
24.0848410938
 22
81.7183227236
 13
24.0848410938
 23
81.9441686006
  0
SOLID
  8
0
 62
7
  6
CONTINUOUS
 10
15.667341364
 20
81.2666309695
 11
16.2339039026
 21
81.2214609164
 12
15.1817164219
 22
81.2214609164
 13
15.1817164219
 23
81.2214609164
  0
SOLID
  8
0
 62
7
  6
CONTINUOUS
 10
14.9389039219
 20
81.1762930432
 11
15.1817164219
 21
81.2214609164
 12
16.2339039026
 22
81.2214609164
 13
16.2339039026
 23
81.2214609164
  0
SOLID
  8
0
 62
7
  6
CONTINUOUS
 10
16.2339039026
 20
81.2214609164
 11
16.5576538254
 21
81.1311230186
 12
14.9389039219
 22
81.1762930432
 13
14.9389039219
 23
81.1762930432
  0
SOLID
  8
0
 62
7
  6
CONTINUOUS
 10
14.6960913929
 20
81.0859529385
 11
14.9389039219
 21
81.1762930432
 12
16.5576538254
 22
81.1311230186
 13
16.5576538254
 23
81.1311230186
  0
SOLID
  8
0
 62
7
  6
CONTINUOUS
 10
14.6960913929
 20
81.0859529385
 11
16.5576538254
 21
81.1311230186
 12
15.5864039412
 22
81.0859529385
 13
15.5864039412
 23
81.0859529385
  0
SOLID
  8
0
 62
7
  6
CONTINUOUS
 10
15.5864039412
 20
81.0859529385
 11
16.5576538254
 21
81.1311230186
 12
16.152966364
 22
81.0407850924
 13
16.152966364
 23
81.0407850924
  0
SOLID
  8
0
 62
7
  6
CONTINUOUS
 10
16.5576538254
 20
81.1311230186
 11
16.8004663254
 21
80.9956150678
 12
16.152966364
 22
81.0407850924
 13
16.152966364
 23
81.0407850924
  0
SOLID
  8
0
 62
7
  6
CONTINUOUS
 10
16.3957789798
 20
80.9504471662
 11
16.152966364
 21
81.0407850924
 12
16.8004663254
 22
80.9956150678
 13
16.8004663254
 23
80.9956150678
  0
SOLID
  8
0
 62
7
  6
CONTINUOUS
 10
16.3957789798
 20
80.9504471662
 11
16.8004663254
 21
80.9956150678
 12
16.4767164026
 22
80.8149392411
 13
16.4767164026
 23
80.8149392411
  0
SOLID
  8
0
 62
7
  6
CONTINUOUS
 10
16.8004663254
 20
80.9956150678
 11
16.8814039798
 21
80.8149392411
 12
16.4767164026
 22
80.8149392411
 13
16.4767164026
 23
80.8149392411
  0
SOLID
  8
0
 62
7
  6
CONTINUOUS
 10
18.3382787482
 20
81.2214616557
 11
18.6620289026
 21
81.2666316803
 12
18.985779057
 22
81.2666316803
 13
18.985779057
 23
81.2666316803
  0
SOLID
  8
0
 62
7
  6
CONTINUOUS
 10
18.985779057
 20
81.2666316803
 11
19.228591557
 21
81.2214616557
 12
18.3382787482
 22
81.2214616557
 13
18.3382787482
 23
81.2214616557
  0
SOLID
  8
0
 62
7
  6
CONTINUOUS
 10
18.0954664798
 20
81.1311237295
 11
18.3382787482
 21
81.2214616557
 12
19.228591557
 22
81.2214616557
 13
19.228591557
 23
81.2214616557
  0
SOLID
  8
0
 62
7
  6
CONTINUOUS
 10
19.228591557
 20
81.2214616557
 11
19.471404057
 21
81.1311237295
 12
18.0954664798
 22
81.1311237295
 13
18.0954664798
 23
81.1311237295
  0
SOLID
  8
0
 62
7
  6
CONTINUOUS
 10
19.471404057
 20
81.1311237295
 11
18.6620289026
 21
81.085952994
 12
18.0954664798
 22
81.1311237295
 13
18.0954664798
 23
81.1311237295
  0
SOLID
  8
0
 62
7
  6
CONTINUOUS
 10
17.9335914026
 20
81.0407858033
 11
18.0954664798
 21
81.1311237295
 12
18.6620289026
 22
81.085952994
 13
18.6620289026
 23
81.085952994
  0
SOLID
  8
0
 62
7
  6
CONTINUOUS
 10
18.6620289026
 20
81.085952994
 11
18.3382787482
 21
81.0407858033
 12
17.9335914026
 22
81.0407858033
 13
17.9335914026
 23
81.0407858033
  0
SOLID
  8
0
 62
7
  6
CONTINUOUS
 10
18.6620289026
 20
81.085952994
 11
19.471404057
 21
81.1311237295
 12
18.985779057
 22
81.0407858033
 13
18.985779057
 23
81.0407858033
  0
SOLID
  8
0
 62
7
  6
CONTINUOUS
 10
19.471404057
 20
81.1311237295
 11
19.6332789026
 21
81.0407858033
 12
18.985779057
 22
81.0407858033
 13
18.985779057
 23
81.0407858033
  0
SOLID
  8
0
 62
7
  6
CONTINUOUS
 10
19.1476539026
 20
80.9956150678
 11
18.985779057
 21
81.0407858033
 12
19.6332789026
 22
81.0407858033
 13
19.6332789026
 23
81.0407858033
  0
SOLID
  8
0
 62
7
  6
CONTINUOUS
 10
19.6332789026
 20
81.0407858033
 11
19.714216557
 21
80.950447877
 12
19.1476539026
 22
80.9956150678
 13
19.1476539026
 23
80.9956150678
  0
SOLID
  8
0
 62
7
  6
CONTINUOUS
 10
19.3095287482
 20
80.9052771416
 11
19.1476539026
 21
80.9956150678
 12
19.714216557
 22
80.950447877
 13
19.714216557
 23
80.950447877
  0
SOLID
  8
0
 62
7
  6
CONTINUOUS
 10
19.3095287482
 20
80.9052771416
 11
19.714216557
 21
80.950447877
 12
19.3904664026
 22
80.724602
 13
19.3904664026
 23
80.724602
  0
SOLID
  8
0
 62
7
  6
CONTINUOUS
 10
19.714216557
 20
80.950447877
 11
19.7951537482
 21
80.724602
 12
19.3904664026
 22
80.724602
 13
19.3904664026
 23
80.724602
  0
SOLID
  8
0
 62
7
  6
CONTINUOUS
 10
18.3382787482
 20
81.0407858033
 11
18.0954664798
 21
80.950447877
 12
17.9335914026
 22
81.0407858033
 13
17.9335914026
 23
81.0407858033
  0
SOLID
  8
0
 62
7
  6
CONTINUOUS
 10
18.0954664798
 20
80.950447877
 11
17.9335914026
 21
80.860107117
 12
17.9335914026
 22
81.0407858033
 13
17.9335914026
 23
81.0407858033
  0
SOLID
  8
0
 62
7
  6
CONTINUOUS
 10
17.9335914026
 20
80.860107117
 11
17.5289038254
 21
79.8212184918
 12
17.9335914026
 22
81.0407858033
 13
17.9335914026
 23
81.0407858033
  0
SOLID
  8
0
 62
7
  6
CONTINUOUS
 10
17.9335914026
 20
81.0407858033
 11
17.5289038254
 21
79.8212184918
 12
17.9335914026
 22
81.9441693115
 13
17.9335914026
 23
81.9441693115
  0
SOLID
  8
0
 62
7
  6
CONTINUOUS
 10
17.5289038254
 20
79.8212184918
 11
17.5289038254
 21
81.9441693115
 12
17.9335914026
 22
81.9441693115
 13
17.9335914026
 23
81.9441693115
  0
SOLID
  8
0
 62
7
  6
CONTINUOUS
 10
17.9335914026
 20
80.860107117
 11
17.9335914026
 21
79.8212184918
 12
17.5289038254
 22
79.8212184918
 13
17.5289038254
 23
79.8212184918
  0
SOLID
  8
0
 62
7
  6
CONTINUOUS
 10
19.3904664026
 20
79.8212184918
 11
19.3904664026
 21
80.724602
 12
19.7951537482
 22
80.724602
 13
19.7951537482
 23
80.724602
  0
SOLID
  8
0
 62
7
  6
CONTINUOUS
 10
19.7951537482
 20
80.724602
 11
19.7951537482
 21
79.8212184918
 12
19.3904664026
 22
79.8212184918
 13
19.3904664026
 23
79.8212184918
  0
SOLID
  8
0
 62
7
  6
CONTINUOUS
 10
20.8473414026
 20
81.2214605025
 11
21.413904057
 21
81.2666311764
 12
21.899529057
 22
81.2666311764
 13
21.899529057
 23
81.2666311764
  0
SOLID
  8
0
 62
7
  6
CONTINUOUS
 10
21.899529057
 20
81.2666311764
 11
22.3851535938
 21
81.2214605025
 12
20.8473414026
 22
81.2214605025
 13
20.8473414026
 23
81.2214605025
  0
SOLID
  8
0
 62
7
  6
CONTINUOUS
 10
20.685466557
 20
81.1762930432
 11
20.8473414026
 21
81.2214605025
 12
22.3851535938
 22
81.2214605025
 13
22.3851535938
 23
81.2214605025
  0
SOLID
  8
0
 62
7
  6
CONTINUOUS
 10
22.3851535938
 20
81.2214605025
 11
22.6279660938
 21
81.1311230186
 12
20.685466557
 22
81.1762930432
 13
20.685466557
 23
81.1762930432
  0
SOLID
  8
0
 62
7
  6
CONTINUOUS
 10
20.5235912482
 20
81.0859528171
 11
20.685466557
 21
81.1762930432
 12
22.6279660938
 22
81.1311230186
 13
22.6279660938
 23
81.1311230186
  0
SOLID
  8
0
 62
7
  6
CONTINUOUS
 10
20.5235912482
 20
81.0859528171
 11
22.6279660938
 21
81.1311230186
 12
21.413904057
 22
81.0859528171
 13
21.413904057
 23
81.0859528171
  0
SOLID
  8
0
 62
7
  6
CONTINUOUS
 10
21.413904057
 20
81.0859528171
 11
22.6279660938
 21
81.1311230186
 12
21.899529057
 22
81.0859528171
 13
21.899529057
 23
81.0859528171
  0
SOLID
  8
0
 62
7
  6
CONTINUOUS
 10
21.899529057
 20
81.0859528171
 11
22.6279660938
 21
81.1311230186
 12
22.2232792113
 22
81.0407853953
 13
22.2232792113
 23
81.0407853953
  0
SOLID
  8
0
 62
7
  6
CONTINUOUS
 10
22.6279660938
 20
81.1311230186
 11
22.7898414026
 21
81.0407853953
 12
22.2232792113
 22
81.0407853953
 13
22.2232792113
 23
81.0407853953
  0
SOLID
  8
0
 62
7
  6
CONTINUOUS
 10
20.442654057
 20
80.9956147215
 11
20.5235912482
 21
81.0859528171
 12
21.413904057
 22
81.0859528171
 13
21.413904057
 23
81.0859528171
  0
SOLID
  8
0
 62
7
  6
CONTINUOUS
 10
22.3851535938
 20
80.9956147215
 11
22.2232792113
 21
81.0407853953
 12
22.7898414026
 22
81.0407853953
 13
22.7898414026
 23
81.0407853953
  0
SOLID
  8
0
 62
7
  6
CONTINUOUS
 10
22.3851535938
 20
80.9956147215
 11
22.7898414026
 21
81.0407853953
 12
22.4660917113
 22
80.9052766258
 13
22.4660917113
 23
80.9052766258
  0
SOLID
  8
0
 62
7
  6
CONTINUOUS
 10
22.7898414026
 20
81.0407853953
 11
22.8707785938
 21
80.9052766258
 12
22.4660917113
 22
80.9052766258
 13
22.4660917113
 23
80.9052766258
  0
SOLID
  8
0
 62
7
  6
CONTINUOUS
 10
22.4660917113
 20
80.7697691908
 11
22.4660917113
 21
80.9052766258
 12
22.8707785938
 22
80.9052766258
 13
22.8707785938
 23
80.9052766258
  0
SOLID
  8
0
 62
7
  6
CONTINUOUS
 10
22.4660917113
 20
80.7697691908
 11
22.8707785938
 21
80.9052766258
 12
22.4660917113
 22
80.5890933383
 13
22.4660917113
 23
80.5890933383
  0
SOLID
  8
0
 62
7
  6
CONTINUOUS
 10
22.4660917113
 20
80.5890933383
 11
22.8707785938
 21
80.9052766258
 12
22.4660917113
 22
80.3180780386
 13
22.4660917113
 23
80.3180780386
  0
SOLID
  8
0
 62
7
  6
CONTINUOUS
 10
22.8707785938
 20
80.9052766258
 11
22.8707785938
 21
80.1825694858
 12
22.4660917113
 22
80.3180780386
 13
22.4660917113
 23
80.3180780386
  0
SOLID
  8
0
 62
7
  6
CONTINUOUS
 10
25.5417160938
 20
81.2214615393
 11
25.8654667113
 21
81.2666307014
 12
26.1892164026
 22
81.2666307014
 13
26.1892164026
 23
81.2666307014
  0
SOLID
  8
0
 62
7
  6
CONTINUOUS
 10
26.1892164026
 20
81.2666307014
 11
26.4320289026
 21
81.2214615393
 12
25.5417160938
 22
81.2214615393
 13
25.5417160938
 23
81.2214615393
  0
SOLID
  8
0
 62
7
  6
CONTINUOUS
 10
25.2989035938
 20
81.131123215
 11
25.5417160938
 21
81.2214615393
 12
26.4320289026
 22
81.2214615393
 13
26.4320289026
 23
81.2214615393
  0
SOLID
  8
0
 62
7
  6
CONTINUOUS
 10
26.4320289026
 20
81.2214615393
 11
26.6748414026
 21
81.131123215
 12
25.2989035938
 22
81.131123215
 13
25.2989035938
 23
81.131123215
  0
SOLID
  8
0
 62
7
  6
CONTINUOUS
 10
26.6748414026
 20
81.131123215
 11
25.8654667113
 21
81.085952994
 12
25.2989035938
 22
81.131123215
 13
25.2989035938
 23
81.131123215
  0
SOLID
  8
0
 62
7
  6
CONTINUOUS
 10
25.1370292113
 20
81.0407848907
 11
25.2989035938
 21
81.131123215
 12
25.8654667113
 22
81.085952994
 13
25.8654667113
 23
81.085952994
  0
SOLID
  8
0
 62
7
  6
CONTINUOUS
 10
25.8654667113
 20
81.085952994
 11
25.5417160938
 21
81.0407848907
 12
25.1370292113
 22
81.0407848907
 13
25.1370292113
 23
81.0407848907
  0
SOLID
  8
0
 62
7
  6
CONTINUOUS
 10
25.8654667113
 20
81.085952994
 11
26.6748414026
 21
81.131123215
 12
26.1892164026
 22
81.0407848907
 13
26.1892164026
 23
81.0407848907
  0
SOLID
  8
0
 62
7
  6
CONTINUOUS
 10
26.6748414026
 20
81.131123215
 11
26.8367167113
 21
81.0407848907
 12
26.1892164026
 22
81.0407848907
 13
26.1892164026
 23
81.0407848907
  0
SOLID
  8
0
 62
7
  6
CONTINUOUS
 10
26.3510917113
 20
80.9956150678
 11
26.1892164026
 21
81.0407848907
 12
26.8367167113
 22
81.0407848907
 13
26.8367167113
 23
81.0407848907
  0
SOLID
  8
0
 62
7
  6
CONTINUOUS
 10
26.3510917113
 20
80.9956150678
 11
26.8367167113
 21
81.0407848907
 12
26.5129660938
 22
80.9052774043
 13
26.5129660938
 23
80.9052774043
  0
SOLID
  8
0
 62
7
  6
CONTINUOUS
 10
26.8367167113
 20
81.0407848907
 11
26.9176539026
 21
80.9052774043
 12
26.5129660938
 22
80.9052774043
 13
26.5129660938
 23
80.9052774043
  0
SOLID
  8
0
 62
7
  6
CONTINUOUS
 10
26.5939042113
 20
80.6794315936
 11
26.5129660938
 21
80.9052774043
 12
26.9176539026
 22
80.9052774043
 13
26.9176539026
 23
80.9052774043
  0
SOLID
  8
0
 62
7
  6
CONTINUOUS
 10
26.9176539026
 20
80.9052774043
 11
26.9985910938
 21
80.6794315936
 12
26.5939042113
 22
80.6794315936
 13
26.5939042113
 23
80.6794315936
  0
SOLID
  8
0
 62
7
  6
CONTINUOUS
 10
25.5417160938
 20
81.0407848907
 11
25.2989035938
 21
80.9504471662
 12
25.1370292113
 22
81.0407848907
 13
25.1370292113
 23
81.0407848907
  0
SOLID
  8
0
 62
7
  6
CONTINUOUS
 10
25.2989035938
 20
80.9504471662
 11
25.1370292113
 21
80.860107117
 12
25.1370292113
 22
81.0407848907
 13
25.1370292113
 23
81.0407848907
  0
SOLID
  8
0
 62
7
  6
CONTINUOUS
 10
25.1370292113
 20
80.860107117
 11
24.7323414026
 21
79.8212175129
 12
25.1370292113
 22
81.0407848907
 13
25.1370292113
 23
81.0407848907
  0
SOLID
  8
0
 62
7
  6
CONTINUOUS
 10
25.1370292113
 20
81.0407848907
 11
24.7323414026
 21
79.8212175129
 12
25.1370292113
 22
81.2666307014
 13
25.1370292113
 23
81.2666307014
  0
SOLID
  8
0
 62
7
  6
CONTINUOUS
 10
24.7323414026
 20
79.8212175129
 11
24.7323414026
 21
81.2666307014
 12
25.1370292113
 22
81.2666307014
 13
25.1370292113
 23
81.2666307014
  0
SOLID
  8
0
 62
7
  6
CONTINUOUS
 10
25.1370292113
 20
80.860107117
 11
25.1370292113
 21
79.8212175129
 12
24.7323414026
 22
79.8212175129
 13
24.7323414026
 23
79.8212175129
  0
SOLID
  8
0
 62
7
  6
CONTINUOUS
 10
26.5939042113
 20
79.8212175129
 11
26.5939042113
 21
80.6794315936
 12
26.9985910938
 22
80.6794315936
 13
26.9985910938
 23
80.6794315936
  0
SOLID
  8
0
 62
7
  6
CONTINUOUS
 10
26.9985910938
 20
80.6794315936
 11
26.9985910938
 21
79.8212175129
 12
26.5939042113
 22
79.8212175129
 13
26.5939042113
 23
79.8212175129
  0
SOLID
  8
0
 62
7
  6
CONTINUOUS
 10
28.1317164026
 20
81.2214608812
 11
28.6173414026
 21
81.266630966
 12
29.1029664026
 22
81.266630966
 13
29.1029664026
 23
81.266630966
  0
SOLID
  8
0
 62
7
  6
CONTINUOUS
 10
29.1029664026
 20
81.266630966
 11
29.5885914026
 21
81.2214608812
 12
28.1317164026
 22
81.2214608812
 13
28.1317164026
 23
81.2214608812
  0
SOLID
  8
0
 62
7
  6
CONTINUOUS
 10
27.8079667113
 20
81.1311230186
 11
28.1317164026
 21
81.2214608812
 12
29.5885914026
 22
81.2214608812
 13
29.5885914026
 23
81.2214608812
  0
SOLID
  8
0
 62
7
  6
CONTINUOUS
 10
27.8079667113
 20
81.1311230186
 11
29.5885914026
 21
81.2214609449
 12
29.8314039026
 22
81.1762930432
 13
29.8314039026
 23
81.1762930432
  0
SOLID
  8
0
 62
7
  6
CONTINUOUS
 10
27.8079667113
 20
81.1311230186
 11
29.8314039026
 21
81.1762930432
 12
28.6173414026
 22
81.0859529092
 13
28.6173414026
 23
81.0859529092
  0
SOLID
  8
0
 62
7
  6
CONTINUOUS
 10
28.6173414026
 20
81.0859529092
 11
29.8314039026
 21
81.1762930432
 12
29.1029664026
 22
81.0859529092
 13
29.1029664026
 23
81.0859529092
  0
SOLID
  8
0
 62
7
  6
CONTINUOUS
 10
29.8314039026
 20
81.1762930432
 11
30.0742164026
 21
81.0859529092
 12
29.1029664026
 22
81.0859529092
 13
29.1029664026
 23
81.0859529092
  0
SOLID
  8
0
 62
7
  6
CONTINUOUS
 10
29.5885914026
 20
81.0407850924
 11
29.1029664026
 21
81.0859529092
 12
30.0742164026
 22
81.0859529092
 13
30.0742164026
 23
81.0859529092
  0
SOLID
  8
0
 62
7
  6
CONTINUOUS
 10
27.6460914026
 20
80.9956150863
 11
27.8079667113
 21
81.1311230186
 12
28.6173414026
 22
81.0859529092
 13
28.6173414026
 23
81.0859529092
  0
SOLID
  8
0
 62
7
  6
CONTINUOUS
 10
29.5885914026
 20
81.0407850924
 11
30.0742164026
 21
81.0859529092
 12
29.7504667113
 22
80.9956150863
 13
29.7504667113
 23
80.9956150863
  0
SOLID
  8
0
 62
7
  6
CONTINUOUS
 10
29.7504667113
 20
80.9956150863
 11
30.0742164026
 21
81.0859529092
 12
29.8314039026
 22
80.9052772633
 13
29.8314039026
 23
80.9052772633
  0
SOLID
  8
0
 62
7
  6
CONTINUOUS
 10
30.0742164026
 20
81.0859529092
 11
30.2360907851
 21
80.9052772633
 12
29.8314039026
 22
80.9052772633
 13
29.8314039026
 23
80.9052772633
  0
SOLID
  8
0
 62
7
  6
CONTINUOUS
 10
15.2626539026
 20
81.0407850924
 11
14.5342164026
 21
80.9956150441
 12
15.5864039412
 22
81.08595288
 13
15.5864039412
 23
81.08595288
  0
SOLID
  8
0
 62
7
  6
CONTINUOUS
 10
14.5342164026
 20
80.9956150441
 11
14.6960913929
 21
81.08595288
 12
15.5864039412
 22
81.08595288
 13
15.5864039412
 23
81.08595288
  0
SOLID
  8
0
 62
7
  6
CONTINUOUS
 10
15.2626539026
 20
81.0407850924
 11
15.1007788833
 21
80.9956150441
 12
14.5342164026
 22
80.9956150441
 13
14.5342164026
 23
80.9956150441
  0
SOLID
  8
0
 62
7
  6
CONTINUOUS
 10
14.372341405
 20
80.8149392154
 11
14.5342164026
 21
80.9956150441
 12
15.1007788833
 22
80.9956150441
 13
15.1007788833
 23
80.9956150441
  0
SOLID
  8
0
 62
7
  6
CONTINUOUS
 10
20.442654057
 20
80.9956151344
 11
21.413904057
 21
81.085952994
 12
21.0901539026
 22
81.0407850924
 13
21.0901539026
 23
81.0407850924
  0
SOLID
  8
0
 62
7
  6
CONTINUOUS
 10
21.0901539026
 20
81.0407850924
 11
20.928279057
 21
80.9956151344
 12
20.442654057
 22
80.9956151344
 13
20.442654057
 23
80.9956151344
  0
SOLID
  8
0
 62
7
  6
CONTINUOUS
 10
20.442654057
 20
80.9052772082
 11
20.442654057
 21
80.9956151344
 12
20.928279057
 22
80.9956151344
 13
20.928279057
 23
80.9956151344
  0
SOLID
  8
0
 62
7
  6
CONTINUOUS
 10
20.928279057
 20
80.9956151344
 11
20.8473414026
 21
80.9052772082
 12
20.442654057
 22
80.9052772082
 13
20.442654057
 23
80.9052772082
  0
SOLID
  8
0
 62
7
  6
CONTINUOUS
 10
27.6460914026
 20
80.9956151344
 11
28.6173414026
 21
81.085952994
 12
28.2935917113
 22
81.0407850924
 13
28.2935917113
 23
81.0407850924
  0
SOLID
  8
0
 62
7
  6
CONTINUOUS
 10
28.2935917113
 20
81.0407850924
 11
28.1317164026
 21
80.9956151344
 12
27.6460914026
 22
80.9956151344
 13
27.6460914026
 23
80.9956151344
  0
SOLID
  8
0
 62
7
  6
CONTINUOUS
 10
27.6460914026
 20
80.9052772082
 11
27.6460914026
 21
80.9956151344
 12
28.1317164026
 22
80.9956151344
 13
28.1317164026
 23
80.9956151344
  0
SOLID
  8
0
 62
7
  6
CONTINUOUS
 10
28.1317164026
 20
80.9956151344
 11
28.0507792113
 21
80.9052772082
 12
27.6460914026
 22
80.9052772082
 13
27.6460914026
 23
80.9052772082
  0
SOLID
  8
0
 62
7
  6
CONTINUOUS
 10
27.8079667113
 20
80.7246012891
 11
27.6460914026
 21
80.9052772082
 12
28.0507792113
 22
80.9052772082
 13
28.0507792113
 23
80.9052772082
  0
SOLID
  8
0
 62
7
  6
CONTINUOUS
 10
14.372341405
 20
80.8149392154
 11
15.1007788833
 21
80.9956150678
 12
14.8579663833
 22
80.860107117
 13
14.8579663833
 23
80.860107117
  0
SOLID
  8
0
 62
7
  6
CONTINUOUS
 10
14.8579663833
 20
80.860107117
 11
14.7770289026
 21
80.7697691908
 12
14.372341405
 22
80.8149392154
 13
14.372341405
 23
80.8149392154
  0
SOLID
  8
0
 62
7
  6
CONTINUOUS
 10
14.2914039026
 20
80.5439233137
 11
14.372341405
 21
80.8149392154
 12
14.7770289026
 22
80.7697691908
 13
14.7770289026
 23
80.7697691908
  0
SOLID
  8
0
 62
7
  6
CONTINUOUS
 10
21.0901539026
 20
80.7246012891
 11
21.5757789026
 21
80.7697692348
 12
22.4660917113
 22
80.7697692348
 13
22.4660917113
 23
80.7697692348
  0
SOLID
  8
0
 62
7
  6
CONTINUOUS
 10
21.0901539026
 20
80.7246012891
 11
22.4660917113
 21
80.7697692348
 12
20.7664037482
 22
80.6342622289
 13
20.7664037482
 23
80.6342622289
  0
SOLID
  8
0
 62
7
  6
CONTINUOUS
 10
20.7664037482
 20
80.6342622289
 11
22.4660917113
 21
80.7697692348
 12
21.5757789026
 22
80.5890933823
 13
21.5757789026
 23
80.5890933823
  0
SOLID
  8
0
 62
7
  6
CONTINUOUS
 10
22.4660917113
 20
80.7697692348
 11
22.4660917113
 21
80.5890933823
 12
21.5757789026
 22
80.5890933823
 13
21.5757789026
 23
80.5890933823
  0
SOLID
  8
0
 62
7
  6
CONTINUOUS
 10
27.8079667113
 20
80.7246017059
 11
28.0507792113
 21
80.9052771416
 12
28.1317164026
 22
80.8149392154
 13
28.1317164026
 23
80.8149392154
  0
SOLID
  8
0
 62
7
  6
CONTINUOUS
 10
28.1317164026
 20
80.8149392154
 11
28.3745289026
 21
80.7246017059
 12
27.8079667113
 22
80.7246017059
 13
27.8079667113
 23
80.7246017059
  0
SOLID
  8
0
 62
7
  6
CONTINUOUS
 10
28.1317164026
 20
80.5890933383
 11
27.8079667113
 21
80.7246017059
 12
28.3745289026
 22
80.7246017059
 13
28.3745289026
 23
80.7246017059
  0
SOLID
  8
0
 62
7
  6
CONTINUOUS
 10
28.3745289026
 20
80.7246017059
 11
29.7504667113
 21
80.4987554121
 12
28.1317164026
 22
80.5890933383
 13
28.1317164026
 23
80.5890933383
  0
SOLID
  8
0
 62
7
  6
CONTINUOUS
 10
29.5076542113
 20
80.363247863
 11
28.1317164026
 21
80.5890933383
 12
29.7504667113
 22
80.4987554121
 13
29.7504667113
 23
80.4987554121
  0
SOLID
  8
0
 62
7
  6
CONTINUOUS
 10
29.7504667113
 20
80.4987554121
 11
30.0742164026
 21
80.363247863
 12
29.5076542113
 22
80.363247863
 13
29.5076542113
 23
80.363247863
  0
SOLID
  8
0
 62
7
  6
CONTINUOUS
 10
29.7504667113
 20
80.272909535
 11
29.5076542113
 21
80.363247863
 12
30.0742164026
 22
80.363247863
 13
30.0742164026
 23
80.363247863
  0
SOLID
  8
0
 62
7
  6
CONTINUOUS
 10
29.7504667113
 20
80.272909535
 11
30.0742164026
 21
80.363247863
 12
29.8314039026
 22
80.1825698574
 13
29.8314039026
 23
80.1825698574
  0
SOLID
  8
0
 62
7
  6
CONTINUOUS
 10
30.0742164026
 20
80.363247863
 11
30.2360907851
 21
80.1825698574
 12
29.8314039026
 22
80.1825698574
 13
29.8314039026
 23
80.1825698574
  0
SOLID
  8
0
 62
7
  6
CONTINUOUS
 10
29.7504667113
 20
80.0922319387
 11
29.8314039026
 21
80.1825698574
 12
30.2360907851
 22
80.1825698574
 13
30.2360907851
 23
80.1825698574
  0
SOLID
  8
0
 62
7
  6
CONTINUOUS
 10
30.2360907851
 20
80.1825698574
 11
30.2360907851
 21
80.0922319387
 12
29.7504667113
 22
80.0922319387
 13
29.7504667113
 23
80.0922319387
  0
SOLID
  8
0
 62
7
  6
CONTINUOUS
 10
29.5885914026
 20
80.047063658
 11
29.7504667113
 21
80.0922319387
 12
30.2360907851
 22
80.0922319387
 13
30.2360907851
 23
80.0922319387
  0
SOLID
  8
0
 62
7
  6
CONTINUOUS
 10
29.5885914026
 20
80.047063658
 11
30.2360907851
 21
80.0922319387
 12
29.2648417113
 22
80.00189402
 13
29.2648417113
 23
80.00189402
  0
SOLID
  8
0
 62
7
  6
CONTINUOUS
 10
30.2360907851
 20
80.0922319387
 11
30.0742164026
 21
79.9567257317
 12
29.2648417113
 22
80.00189402
 13
29.2648417113
 23
80.00189402
  0
SOLID
  8
0
 62
7
  6
CONTINUOUS
 10
30.0742164026
 20
79.9567257317
 11
28.0507792113
 21
79.9115557072
 12
29.2648417113
 22
80.00189402
 13
29.2648417113
 23
80.00189402
  0
SOLID
  8
0
 62
7
  6
CONTINUOUS
 10
29.2648417113
 20
80.00189402
 11
28.0507792113
 21
79.9115557072
 12
28.7792167113
 22
80.00189402
 13
28.7792167113
 23
80.00189402
  0
SOLID
  8
0
 62
7
  6
CONTINUOUS
 10
28.0507792113
 20
79.9115557072
 11
27.8079667113
 21
80.00189402
 12
28.7792167113
 22
80.00189402
 13
28.7792167113
 23
80.00189402
  0
SOLID
  8
0
 62
7
  6
CONTINUOUS
 10
28.0507792113
 20
79.9115557072
 11
30.0742164026
 21
79.9567257317
 12
28.2935917113
 22
79.8663855159
 13
28.2935917113
 23
79.8663855159
  0
SOLID
  8
0
 62
7
  6
CONTINUOUS
 10
30.0742164026
 20
79.9567257317
 11
29.7504667113
 21
79.8663855159
 12
28.2935917113
 22
79.8663855159
 13
28.2935917113
 23
79.8663855159
  0
SOLID
  8
0
 62
7
  6
CONTINUOUS
 10
28.7792167113
 20
79.8212181826
 11
28.2935917113
 21
79.8663855159
 12
29.7504667113
 22
79.8663855159
 13
29.7504667113
 23
79.8663855159
  0
SOLID
  8
0
 62
7
  6
CONTINUOUS
 10
29.7504667113
 20
79.8663855159
 11
29.2648417113
 21
79.8212181826
 12
28.7792167113
 22
79.8212181826
 13
28.7792167113
 23
79.8212181826
  0
SOLID
  8
0
 62
7
  6
CONTINUOUS
 10
14.2914039026
 20
80.5439233137
 11
14.7770289026
 21
80.7697691908
 12
14.6960913929
 22
80.5890933383
 13
14.6960913929
 23
80.5890933383
  0
SOLID
  8
0
 62
7
  6
CONTINUOUS
 10
14.6960913929
 20
80.5890933383
 11
14.6960913929
 21
80.4535855216
 12
14.2914039026
 22
80.5439233137
 13
14.2914039026
 23
80.5439233137
  0
SOLID
  8
0
 62
7
  6
CONTINUOUS
 10
14.372341405
 20
80.272909535
 11
14.2914039026
 21
80.5439233137
 12
14.6960913929
 22
80.4535855216
 13
14.6960913929
 23
80.4535855216
  0
SOLID
  8
0
 62
7
  6
CONTINUOUS
 10
14.6960913929
 20
80.4535855216
 11
14.8579663833
 21
80.2277395104
 12
14.372341405
 22
80.272909535
 13
14.372341405
 23
80.272909535
  0
SOLID
  8
0
 62
7
  6
CONTINUOUS
 10
14.5342164026
 20
80.0922318249
 11
14.372341405
 21
80.272909535
 12
14.8579663833
 22
80.2277395104
 13
14.8579663833
 23
80.2277395104
  0
SOLID
  8
0
 62
7
  6
CONTINUOUS
 10
14.8579663833
 20
80.2277395104
 11
15.1007788833
 21
80.0922318249
 12
14.5342164026
 22
80.0922318249
 13
14.5342164026
 23
80.0922318249
  0
SOLID
  8
0
 62
7
  6
CONTINUOUS
 10
14.6960913929
 20
80.001893699
 11
14.5342164026
 21
80.0922318249
 12
15.1007788833
 22
80.0922318249
 13
15.1007788833
 23
80.0922318249
  0
SOLID
  8
0
 62
7
  6
CONTINUOUS
 10
15.1007788833
 20
80.0922318249
 11
15.5864039412
 21
80.001893699
 12
14.6960913929
 22
80.001893699
 13
14.6960913929
 23
80.001893699
  0
SOLID
  8
0
 62
7
  6
CONTINUOUS
 10
14.9389039219
 20
79.9115557072
 11
14.6960913929
 21
80.001893699
 12
15.5864039412
 22
80.001893699
 13
15.5864039412
 23
80.001893699
  0
SOLID
  8
0
 62
7
  6
CONTINUOUS
 10
20.6045289026
 20
80.5439232728
 11
20.7664037482
 21
80.6342622289
 12
21.5757789026
 22
80.5890933383
 13
21.5757789026
 23
80.5890933383
  0
SOLID
  8
0
 62
7
  6
CONTINUOUS
 10
21.5757789026
 20
80.5890933383
 11
21.2520287482
 21
80.5439232728
 12
20.6045289026
 22
80.5439232728
 13
20.6045289026
 23
80.5439232728
  0
SOLID
  8
0
 62
7
  6
CONTINUOUS
 10
20.442654057
 20
80.3632474613
 11
20.6045289026
 21
80.5439232728
 12
21.2520287482
 22
80.5439232728
 13
21.2520287482
 23
80.5439232728
  0
SOLID
  8
0
 62
7
  6
CONTINUOUS
 10
20.928279057
 20
80.4084163606
 11
20.442654057
 21
80.3632474613
 12
21.0901539026
 22
80.4987554121
 13
21.0901539026
 23
80.4987554121
  0
SOLID
  8
0
 62
7
  6
CONTINUOUS
 10
20.442654057
 20
80.3632474613
 11
21.2520287482
 21
80.5439233137
 12
21.0901539026
 22
80.4987554121
 13
21.0901539026
 23
80.4987554121
  0
SOLID
  8
0
 62
7
  6
CONTINUOUS
 10
20.928279057
 20
80.4084163606
 11
20.8473414026
 21
80.272909535
 12
20.442654057
 22
80.3632474613
 13
20.442654057
 23
80.3632474613
  0
SOLID
  8
0
 62
7
  6
CONTINUOUS
 10
20.442654057
 20
80.2277395104
 11
20.442654057
 21
80.3632474613
 12
20.8473414026
 22
80.272909535
 13
20.8473414026
 23
80.272909535
  0
SOLID
  8
0
 62
7
  6
CONTINUOUS
 10
20.8473414026
 20
80.272909535
 11
20.8473414026
 21
80.1825694858
 12
20.442654057
 22
80.2277395104
 13
20.442654057
 23
80.2277395104
  0
SOLID
  8
0
 62
7
  6
CONTINUOUS
 10
20.5235912482
 20
80.047063658
 11
20.442654057
 21
80.2277395104
 12
20.8473414026
 22
80.1825694858
 13
20.8473414026
 23
80.1825694858
  0
SOLID
  8
0
 62
7
  6
CONTINUOUS
 10
22.4660917113
 20
80.3180780386
 11
22.8707785938
 21
80.1825694858
 12
22.3851535938
 22
80.2277395104
 13
22.3851535938
 23
80.2277395104
  0
SOLID
  8
0
 62
7
  6
CONTINUOUS
 10
22.1423410938
 20
80.0922315596
 11
22.3851535938
 21
80.2277395104
 12
22.8707785938
 22
80.1825694858
 13
22.8707785938
 23
80.1825694858
  0
SOLID
  8
0
 62
7
  6
CONTINUOUS
 10
22.1423410938
 20
80.0922315596
 11
22.8707785938
 21
80.1825694858
 12
22.4660917113
 22
80.047063658
 13
22.4660917113
 23
80.047063658
  0
SOLID
  8
0
 62
7
  6
CONTINUOUS
 10
22.8707785938
 20
80.1825694858
 11
22.9517167113
 21
79.9567257317
 12
22.4660917113
 22
80.047063658
 13
22.4660917113
 23
80.047063658
  0
SOLID
  8
0
 62
7
  6
CONTINUOUS
 10
22.5470289026
 20
79.9115557072
 11
22.4660917113
 21
80.047063658
 12
22.9517167113
 22
79.9567257317
 13
22.9517167113
 23
79.9567257317
  0
SOLID
  8
0
 62
7
  6
CONTINUOUS
 10
22.5470289026
 20
79.9115557072
 11
22.9517167113
 21
79.9567257317
 12
22.6279660938
 22
79.8212179992
 13
22.6279660938
 23
79.8212179992
  0
SOLID
  8
0
 62
7
  6
CONTINUOUS
 10
22.9517167113
 20
79.9567257317
 11
23.0326539026
 21
79.8212179992
 12
22.6279660938
 22
79.8212179992
 13
22.6279660938
 23
79.8212179992
  0
SOLID
  8
0
 62
7
  6
CONTINUOUS
 10
16.3957789798
 20
80.137401363
 11
16.4767164026
 21
80.2729095879
 12
16.8814039798
 22
80.2729095879
 13
16.8814039798
 23
80.2729095879
  0
SOLID
  8
0
 62
7
  6
CONTINUOUS
 10
16.8814039798
 20
80.2729095879
 11
16.8004663254
 21
80.0922315596
 12
16.3957789798
 22
80.137401363
 13
16.3957789798
 23
80.137401363
  0
SOLID
  8
0
 62
7
  6
CONTINUOUS
 10
16.152966364
 20
80.047063658
 11
16.3957789798
 21
80.137401363
 12
16.8004663254
 22
80.0922315596
 13
16.8004663254
 23
80.0922315596
  0
SOLID
  8
0
 62
7
  6
CONTINUOUS
 10
16.152966364
 20
80.047063658
 11
16.8004663254
 21
80.0922315596
 12
15.5864039412
 22
80.0018936334
 13
15.5864039412
 23
80.0018936334
  0
SOLID
  8
0
 62
7
  6
CONTINUOUS
 10
16.8004663254
 20
80.0922315596
 11
16.5576538254
 21
79.9567257317
 12
15.5864039412
 22
80.0018936334
 13
15.5864039412
 23
80.0018936334
  0
SOLID
  8
0
 62
7
  6
CONTINUOUS
 10
14.9389039219
 20
79.9115557072
 11
15.5864039412
 21
80.0018936334
 12
16.5576538254
 22
79.9567257317
 13
16.5576538254
 23
79.9567257317
  0
SOLID
  8
0
 62
7
  6
CONTINUOUS
 10
14.9389039219
 20
79.9115557072
 11
16.5576538254
 21
79.9567257317
 12
15.1817164219
 22
79.8663856541
 13
15.1817164219
 23
79.8663856541
  0
SOLID
  8
0
 62
7
  6
CONTINUOUS
 10
16.5576538254
 20
79.9567257317
 11
16.2339039026
 21
79.8663856541
 12
15.1817164219
 22
79.8663856541
 13
15.1817164219
 23
79.8663856541
  0
SOLID
  8
0
 62
7
  6
CONTINUOUS
 10
15.667341364
 20
79.8212177809
 11
15.1817164219
 21
79.8663856541
 12
16.2339039026
 22
79.8663856541
 13
16.2339039026
 23
79.8663856541
  0
SOLID
  8
0
 62
7
  6
CONTINUOUS
 10
20.5235912482
 20
80.047063658
 11
20.8473414026
 21
80.1825694858
 12
20.928279057
 22
80.0922315596
 13
20.928279057
 23
80.0922315596
  0
SOLID
  8
0
 62
7
  6
CONTINUOUS
 10
20.928279057
 20
80.0922315596
 11
21.2520287482
 21
80.0018936334
 12
20.5235912482
 22
80.047063658
 13
20.5235912482
 23
80.047063658
  0
SOLID
  8
0
 62
7
  6
CONTINUOUS
 10
20.7664037482
 20
79.9115557072
 11
20.5235912482
 21
80.047063658
 12
21.2520287482
 22
80.0018936334
 13
21.2520287482
 23
80.0018936334
  0
SOLID
  8
0
 62
7
  6
CONTINUOUS
 10
21.7376537482
 20
80.0018937
 11
22.1423410938
 21
80.0922315596
 12
22.4660917113
 22
80.047063658
 13
22.4660917113
 23
80.047063658
  0
SOLID
  8
0
 62
7
  6
CONTINUOUS
 10
22.4660917113
 20
80.047063658
 11
22.3851535938
 21
79.9567257317
 12
21.7376537482
 22
80.0018937
 13
21.7376537482
 23
80.0018937
  0
SOLID
  8
0
 62
7
  6
CONTINUOUS
 10
22.3851535938
 20
79.9567257317
 11
20.7664037482
 21
79.9115557072
 12
21.7376537482
 22
80.0018937
 13
21.7376537482
 23
80.0018937
  0
SOLID
  8
0
 62
7
  6
CONTINUOUS
 10
20.7664037482
 20
79.9115557072
 11
21.2520287482
 21
80.0018937
 12
21.7376537482
 22
80.0018937
 13
21.7376537482
 23
80.0018937
  0
SOLID
  8
0
 62
7
  6
CONTINUOUS
 10
20.7664037482
 20
79.9115557072
 11
22.3851535938
 21
79.9567257317
 12
20.928279057
 22
79.8663857266
 13
20.928279057
 23
79.8663857266
  0
SOLID
  8
0
 62
7
  6
CONTINUOUS
 10
22.3851535938
 20
79.9567257317
 11
22.1423410938
 21
79.8663857266
 12
20.928279057
 22
79.8663857266
 13
20.928279057
 23
79.8663857266
  0
SOLID
  8
0
 62
7
  6
CONTINUOUS
 10
21.2520287482
 20
79.8212177572
 11
20.928279057
 21
79.8663857266
 12
22.1423410938
 22
79.8663857266
 13
22.1423410938
 23
79.8663857266
  0
SOLID
  8
0
 62
7
  6
CONTINUOUS
 10
22.1423410938
 20
79.8663857266
 11
21.7376537482
 21
79.8212177572
 12
21.2520287482
 22
79.8212177572
 13
21.2520287482
 23
79.8212177572
  0
SOLID
  8
0
 62
7
  6
CONTINUOUS
 10
28.2935917113
 20
80.047063658
 11
27.8079667113
 21
80.0018936097
 12
28.1317164026
 22
80.0922315596
 13
28.1317164026
 23
80.0922315596
  0
SOLID
  8
0
 62
7
  6
CONTINUOUS
 10
28.1317164026
 20
80.0922315596
 11
27.8079667113
 21
80.0018936097
 12
28.0507792113
 22
80.1825694621
 13
28.0507792113
 23
80.1825694621
  0
SOLID
  8
0
 62
7
  6
CONTINUOUS
 10
27.8079667113
 20
80.0018936097
 11
27.6460914026
 21
80.1825694621
 12
28.0507792113
 22
80.1825694621
 13
28.0507792113
 23
80.1825694621
  0
SOLID
  8
0
 62
7
  6
CONTINUOUS
 10
28.2935917113
 20
80.047063658
 11
28.7792167113
 21
80.0018936097
 12
27.8079667113
 22
80.0018936097
 13
27.8079667113
 23
80.0018936097
  0
SOLID
  8
0
 62
7
  6
CONTINUOUS
 10
23.6801542113
 20
79.8212177809
 11
23.6801542113
 21
81.2666309695
 12
24.0848410938
 22
79.8212177809
 13
24.0848410938
 23
81.2666309695
  0
TEXT
  8
0
 62
5
  6
CONTINUOUS
 10
35.4037071698
 20
79.9510761323
  7
TEXTSTYLE_4
 40
1.4918032787
  1
The brand for plastic modular belts and chains
 41
1.0
 72
0
  0
ENDBLK
  8
0
  6
BYBLOCK
 62
0
  0
BLOCK
  8
0
 62
2
  6
CONTINUOUS
  2
AMMEAAL_LOGO_BL0
 70
64
 10
49.5289569145
 20
36.290492329
  0
LINE
  8
0
 62
7
  6
CONTINUOUS
 10
13.9755886502
 20
36.5746189152
 11
15.3762622382
 21
43.164270051
  0
LINE
  8
0
 62
7
  6
CONTINUOUS
 10
33.5475651599
 20
49.7583790919
 11
16.2543341757
 21
44.1394677336
  0
LINE
  8
0
 62
7
  6
CONTINUOUS
 10
14.3810986484
 20
35.3265874697
 11
27.8938341184
 21
23.159665803
  0
LINE
  8
0
 62
7
  6
CONTINUOUS
 10
14.8536605876
 20
37.5498165979
 11
34.3085454449
 21
43.871091876
  0
LINE
  8
0
 62
7
  6
CONTINUOUS
 10
34.3009761981
 20
25.2414724613
 11
19.0991487943
 21
38.9292593363
  0
LINE
  8
0
 62
7
  6
CONTINUOUS
 10
35.2366570937
 20
48.2375138836
 11
33.4788499267
 21
39.9676813592
  0
LINE
  8
0
 62
7
  6
CONTINUOUS
 10
32.2192064208
 20
34.0415245943
 11
30.9835996402
 21
28.2284517304
  0
LINE
  8
0
 62
7
  6
CONTINUOUS
 10
36.4626300711
 20
25.943836381
 11
38.1838468352
 21
34.0415245943
  0
LINE
  8
0
 62
7
  6
CONTINUOUS
 10
39.443490341
 20
39.9676813592
 11
40.2431255853
 21
43.7296694061
  0
LINE
  8
0
 62
7
  6
CONTINUOUS
 10
29.177416054
 20
22.8868320402
 11
35.5845581337
 21
24.9686386984
  0
LINE
  8
0
 62
7
  6
CONTINUOUS
 10
34.8311470955
 20
49.4855453291
 11
39.8376155872
 21
44.9777008516
  0
ARC
  8
0
 62
7
  6
CONTINUOUS
 10
16.6598441738
 20
42.8914362882
 40
1.3122579196
 50
108.0
 51
168.0
  0
ARC
  8
0
 62
7
  6
CONTINUOUS
 10
33.9530751581
 20
48.5103476465
 40
1.3122579196
 50
348.0
 51
108.0
  0
ARC
  8
0
 62
7
  6
CONTINUOUS
 10
38.9595436497
 20
44.0025031689
 40
1.3122579196
 50
348.0
 51
48.0
  0
ARC
  8
0
 62
7
  6
CONTINUOUS
 10
28.7719060558
 20
24.1348634856
 40
1.3122579196
 50
228.0
 51
288.0
  0
ARC
  8
0
 62
7
  6
CONTINUOUS
 10
15.2591705858
 20
36.3017851524
 40
1.3122579196
 50
108.0
 51
228.0
  0
ARC
  8
0
 62
7
  6
CONTINUOUS
 10
35.1790481355
 20
26.2166701439
 40
1.3122579196
 50
228.0
 51
348.0
  0
TEXT
  8
0
 62
5
  6
CONTINUOUS
 10
24.8197618226
 20
35.1947509598
  7
TEXTSTYLE_3
 40
4.9209671985
  1
Ammeraal Beltech
 41
1.0
 51
15.0
 72
0
  0
TEXT
  8
0
 62
5
  6
CONTINUOUS
 10
44.2612033089
 20
31.1023849487
  7
TEXTSTYLE_4
 40
1.9683868794
  1
Innovation 
 41
1.0
 72
0
  0
TEXT
  8
0
 62
5
  6
CONTINUOUS
 10
59.2870573501
 20
31.1023849487
  7
TEXTSTYLE_4
 40
1.9683868794
  1
& Service in Belting
 41
1.0
 72
0
  0
ENDBLK
  8
0
  6
BYBLOCK
 62
0
  0
BLOCK
  8
0
  2
_FILLED
 70
64
 10
0.0
 20
0.0
  0
SOLID
  8
0
  6
BYBLOCK
 62
0
 10
0.0
 20
0.0
 11
-1.0
 21
0.2142857143
 12
-1.0
 22
-0.2142857143
 13
-1.0
 23
-0.2142857143
  0
ENDBLK
  8
0
  6
BYBLOCK
 62
0
  0
BLOCK
  8
0
 62
2
  6
CONTINUOUS
  2
*D0
 70
65
 10
0.0
 20
0.0
  0
TEXT
  8
0
 62
5
  6
CONTINUOUS
 10
63.8349632131
 20
193.3445705893
  7
STANDARD
 40
2.1
  1
+0.9
 41
0.8
 72
1
 11
67.1949632131
 21
193.3445705893
  0
TEXT
  8
0
 62
5
  6
CONTINUOUS
 10
52.6349632131
 20
191.2445705893
  7
STANDARD
 40
3.5
  1
25.9
 41
0.8
 72
1
 11
58.2349632131
 21
191.2445705893
  0
TEXT
  8
0
 62
5
  6
CONTINUOUS
 10
63.8349632131
 20
190.5445705893
  7
STANDARD
 40
2.1
  1
+0.1
 41
0.8
 72
1
 11
67.1949632131
 21
190.5445705893
  0
LINE
  8
0
 62
2
  6
CONTINUOUS
 10
74.543119214
 20
208.6961134825
 11
74.543119214
 21
187.4945705893
  0
LINE
  8
0
 62
2
  6
CONTINUOUS
 10
48.609719214
 20
208.6961134825
 11
48.609719214
 21
187.4945705893
  0
LINE
  8
0
 62
2
  6
CONTINUOUS
 10
74.543119214
 20
189.4945705893
 11
61.576419214
 21
189.4945705893
  0
LINE
  8
0
 62
2
  6
CONTINUOUS
 10
48.609719214
 20
189.4945705893
 11
61.576419214
 21
189.4945705893
  0
INSERT
  8
0
 62
2
  6
CONTINUOUS
  2
_FILLED
 10
74.543119214
 20
189.4945705893
 41
3.5
 42
3.5
 43
3.5
  0
INSERT
  8
0
 62
2
  6
CONTINUOUS
  2
_FILLED
 10
48.609719214
 20
189.4945705893
 41
3.5
 42
3.5
 43
3.5
 50
180.0
  0
ENDBLK
  8
0
  6
BYBLOCK
 62
0
  0
BLOCK
  8
0
 62
2
  6
CONTINUOUS
  2
*D1
 70
65
 10
0.0
 20
0.0
  0
TEXT
  8
0
 62
5
  6
CONTINUOUS
 10
30.4689583162
 20
149.0486965781
  7
STANDARD
 40
3.5
  1
14
 50
90.0
 41
0.8
 72
1
 11
30.4689583162
 21
151.8486965781
  0
LINE
  8
0
 62
2
  6
CONTINUOUS
 10
82.0079212025
 20
159.4842025329
 11
29.3439583162
 21
159.4842025329
  0
LINE
  8
0
 62
2
  6
CONTINUOUS
 10
82.0079212025
 20
145.1902025329
 11
29.3439583162
 21
145.1902025329
  0
LINE
  8
0
 62
2
  6
CONTINUOUS
 10
31.3439583162
 20
159.4842025329
 11
31.3439583162
 21
152.3372025329
  0
LINE
  8
0
 62
2
  6
CONTINUOUS
 10
31.3439583162
 20
145.1902025329
 11
31.3439583162
 21
152.3372025329
  0
INSERT
  8
0
 62
2
  6
CONTINUOUS
  2
_FILLED
 10
31.3439583162
 20
159.4842025329
 41
3.5
 42
3.5
 43
3.5
 50
90.0
  0
INSERT
  8
0
 62
2
  6
CONTINUOUS
  2
_FILLED
 10
31.3439583162
 20
145.1902025329
 41
3.5
 42
3.5
 43
3.5
 50
270.0
  0
ENDBLK
  8
0
  6
BYBLOCK
 62
0
  0
BLOCK
  8
0
 62
2
  6
CONTINUOUS
  2
*D2
 70
65
 10
0.0
 20
0.0
  0
TEXT
  8
0
 62
5
  6
CONTINUOUS
 10
77.2733053499
 20
166.7003932007
  7
TEXTSTYLE_1
 40
3.5
  1
n
 50
40.1026322612
 41
1.0
 72
0
  0
TEXT
  8
0
 62
5
  6
CONTINUOUS
 10
80.842800454
 20
169.7064674644
  7
STANDARD
 40
3.5
  1
4.70
 50
40.1026322612
 41
0.8
 72
0
  0
TEXT
  8
0
 62
5
  6
CONTINUOUS
 10
89.4095887039
 20
176.9210456976
  7
STANDARD
 40
3.5
  1
 for M5 pinol
 50
40.1026322612
 41
0.8
 72
0
  0
LINE
  8
0
 62
2
  6
CONTINUOUS
 10
63.3726146473
 20
153.8498805748
 11
61.576419214
 21
152.3372025329
  0
LINE
  8
0
 62
2
  6
CONTINUOUS
 10
61.576419214
 20
152.3372025329
 11
117.8152894405
 21
199.6991446231
  0
LINE
  8
0
 62
2
  6
CONTINUOUS
 10
59.7802237806
 20
150.8245244909
 11
61.576419214
 21
152.3372025329
  0
LINE
  8
0
 62
2
  6
CONTINUOUS
 10
61.576419214
 20
152.3372025329
 11
55.9557647411
 21
147.6037306373
  0
INSERT
  8
0
 62
2
  6
CONTINUOUS
  2
_FILLED
 10
63.3726146468
 20
153.8498805744
 41
3.5
 42
3.5
 43
3.5
 50
220.1017456749
  0
INSERT
  8
0
 62
2
  6
CONTINUOUS
  2
_FILLED
 10
59.7802237812
 20
150.8245244914
 41
3.5
 42
3.5
 43
3.5
 50
40.1017456749
  0
ENDBLK
  8
0
  6
BYBLOCK
 62
0
  0
BLOCK
  8
0
 62
2
  6
CONTINUOUS
  2
*D3
 70
65
 10
0.0
 20
0.0
  0
TEXT
  8
0
 62
5
  6
CONTINUOUS
 10
24.658330382
 20
205.7773617631
  7
STANDARD
 40
2.1
  1
 0
 50
90.0
 41
0.8
 72
1
 11
24.658330382
 21
207.4573617631
  0
TEXT
  8
0
 62
5
  6
CONTINUOUS
 10
26.758330382
 20
194.5773617631
  7
STANDARD
 40
3.5
  1
12.3
 50
90.0
 41
0.8
 72
1
 11
26.758330382
 21
200.1773617631
  0
TEXT
  8
0
 62
5
  6
CONTINUOUS
 10
27.458330382
 20
205.7773617631
  7
STANDARD
 40
2.1
  1
-0.3
 50
90.0
 41
0.8
 72
1
 11
27.458330382
 21
209.1373617631
  0
LINE
  8
0
 62
2
  6
CONTINUOUS
 10
38.1234853192
 20
197.3675384825
 11
26.508330382
 21
197.3675384825
  0
LINE
  8
0
 62
2
  6
CONTINUOUS
 10
48.1113861668
 20
209.6961134825
 11
26.508330382
 21
209.6961134825
  0
LINE
  8
0
 62
2
  6
CONTINUOUS
 10
28.508330382
 20
197.3675384825
 11
28.508330382
 21
203.5318259825
  0
LINE
  8
0
 62
2
  6
CONTINUOUS
 10
28.508330382
 20
209.6961134825
 11
28.508330382
 21
203.5318259825
  0
INSERT
  8
0
 62
2
  6
CONTINUOUS
  2
_FILLED
 10
28.508330382
 20
197.3675384825
 41
3.5
 42
3.5
 43
3.5
 50
270.0
  0
INSERT
  8
0
 62
2
  6
CONTINUOUS
  2
_FILLED
 10
28.508330382
 20
209.6961134825
 41
3.5
 42
3.5
 43
3.5
 50
90.0
  0
ENDBLK
  8
0
  6
BYBLOCK
 62
0
  0
ENDSEC
  0
SECTION
  2
ENTITIES
  0
TEXT
  8
0
 62
7
  6
CONTINUOUS
 10
4.1388942932
 20
3.9504901274
  7
TEXTSTYLE_2
 40
1.8
  1
This drawing belongs to Ammeraal Beltech. It is not allowed to use, copy or to bring it to the knowledge a third party without the express permission from Ammeraal modular Beltech.
 41
1.0
 72
0
  0
INSERT
  8
0
 62
2
  6
CONTINUOUS
  2
AMMEAAL_LOGO_BL0
 10
49.5289569145
 20
36.290492329
  0
INSERT
  8
0
 62
2
  6
CONTINUOUS
  2
UNI_LOGO2_BL1
 10
47.9221081579
 20
86.7496072713
  0
DIMENSION
  8
0
 62
2
  6
CONTINUOUS
  2
*D0
 10
48.609719214
 20
189.4945705893
 11
57.1149632131
 21
192.9945705893
 70
128
 13
74.543119214
 23
208.6961134825
 14
48.609719214
 24
208.6961134825
 50
180.0
  0
DIMENSION
  8
0
 62
2
  6
CONTINUOUS
  2
*D1
 10
31.3439583162
 20
145.1902025329
 11
29.9735644413
 21
149.3455059201
 70
128
 13
82.0079212025
 23
159.4842025329
 14
82.0079212025
 24
145.1902025329
 50
270.0
  0
DIMENSION
  8
0
 62
2
  6
CONTINUOUS
  2
*D2
 10
63.3726146468
 20
153.8498805744
 11
96.135200084
 21
184.872969742
 70
131
 15
59.7802237812
 25
150.8245244914
  0
DIMENSION
  8
0
 62
2
  6
CONTINUOUS
  2
*D3
 10
28.508330382
 20
209.6961134825
 11
26.2893183447
 21
199.5322567102
 70
128
 13
38.1234853192
 23
197.3675384825
 14
48.1113861668
 24
209.6961134825
 50
90.0
  0
LINE
  8
0
 62
2
  6
CONTINUOUS
 10
10.0
 20
79.3144574633
 11
200.0
 21
79.3144574633
  0
LINE
  8
0
 62
2
  6
CONTINUOUS
 10
10.0
 20
79.3144574633
 11
10.0
 21
8.3144574633
  0
LINE
  8
0
 62
2
  6
CONTINUOUS
 10
89.0
 20
74.3144574633
 11
200.0
 21
74.3144574633
  0
LINE
  8
0
 62
2
  6
CONTINUOUS
 10
10.0
 20
69.3144574633
 11
170.0
 21
69.3144574633
  0
LINE
  8
0
 62
2
  6
CONTINUOUS
 10
10.0
 20
64.3144574633
 11
200.0
 21
64.3144574633
  0
LINE
  8
0
 62
2
  6
CONTINUOUS
 10
10.0
 20
59.3144574633
 11
200.0
 21
59.3144574633
  0
LINE
  8
0
 62
2
  6
CONTINUOUS
 10
10.0
 20
54.3144574633
 11
200.0
 21
54.3144574633
  0
LINE
  8
0
 62
2
  6
CONTINUOUS
 10
89.0
 20
44.3144574633
 11
200.0
 21
44.3144574633
  0
LINE
  8
0
 62
2
  6
CONTINUOUS
 10
89.0
 20
27.3144574633
 11
200.0
 21
27.3144574633
  0
LINE
  8
0
 62
2
  6
CONTINUOUS
 10
10.0
 20
8.3144574633
 11
200.0
 21
8.3144574633
  0
LINE
  8
0
 62
2
  6
CONTINUOUS
 10
35.0
 20
79.3144574633
 11
35.0
 21
69.3144574633
  0
LINE
  8
0
 62
2
  6
CONTINUOUS
 10
47.0
 20
69.3144574633
 11
47.0
 21
54.3144574633
  0
LINE
  8
0
 62
2
  6
CONTINUOUS
 10
89.0
 20
79.3144574633
 11
89.0
 21
8.3144574633
  0
LINE
  8
0
 62
2
  6
CONTINUOUS
 10
114.0
 20
79.3144574633
 11
114.0
 21
44.3144574633
  0
LINE
  8
0
 62
2
  6
CONTINUOUS
 10
170.0
 20
79.3144574633
 11
170.0
 21
64.3144574633
  0
LINE
  8
0
 62
2
  6
CONTINUOUS
 10
200.0
 20
79.3144574633
 11
200.0
 21
8.3144574633
  0
TEXT
  8
0
 62
4
  6
CONTINUOUS
 10
11.0
 20
73.0644574633
  7
TEXTSTYLE_5
 40
2.5
  1
Drawing No.
 41
1.0
 72
0
  0
TEXT
  8
0
 62
7
  6
CONTINUOUS
 10
36.0
 20
72.3144574633
  7
TEXTSTYLE_6
 40
4.0
  1
P604
 41
1.0
 72
0
  0
TEXT
  8
0
 62
4
  6
CONTINUOUS
 10
90.0
 20
75.5644574633
  7
TEXTSTYLE_6
 40
2.5
  1
Material
 41
1.0
 72
0
  0
TEXT
  8
0
 62
4
  6
CONTINUOUS
 10
115.0
 20
75.5644574633
  7
TEXTSTYLE_5
 40
2.5
  1
PA6 12.5-15% glas,blå
 41
1.0
 72
0
  0
TEXT
  8
0
 62
4
  6
CONTINUOUS
 10
181.1211832061
 20
75.5644574633
  7
TEXTSTYLE_5
 40
2.5
  1
Scale
 41
1.0
 72
1
 11
185.0
 21
75.5644574633
  0
TEXT
  8
0
 62
4
  6
CONTINUOUS
 10
90.0
 20
70.5644574633
  7
TEXTSTYLE_6
 40
2.5
  1
Shrinkage
 41
1.0
 72
0
  0
TEXT
  8
0
 62
4
  6
CONTINUOUS
 10
115.0
 20
70.5644574633
  7
TEXTSTYLE_5
 40
2.5
  1
2.1%
 41
1.0
 72
0
  0
TEXT
  8
0
 62
4
  6
CONTINUOUS
 10
182.0114503817
 20
65.5644574633
  7
TEXTSTYLE_5
 40
3.0
  1
1:1
 41
1.0
 72
1
 11
185.0
 21
65.5644574633
  0
TEXT
  8
0
 62
4
  6
CONTINUOUS
 10
11.0
 20
65.5644574633
  7
TEXTSTYLE_5
 40
2.5
  1
Designer
 41
1.0
 72
0
  0
TEXT
  8
0
 62
4
  6
CONTINUOUS
 10
48.0
 20
65.5644574633
  7
TEXTSTYLE_5
 40
2.5
  1
MD
 41
1.0
 72
0
  0
TEXT
  8
0
 62
4
  6
CONTINUOUS
 10
90.0
 20
65.5644574633
  7
TEXTSTYLE_7
 40
2.5
  1
Proj. surf. Area
 41
1.0
 72
0
  0
TEXT
  8
0
 62
4
  6
CONTINUOUS
 10
115.0
 20
65.5644574633
  7
TEXTSTYLE_5
 40
2.5
  1
597.3mm²
 41
1.0
 72
0
  0
TEXT
  8
0
 62
4
  6
CONTINUOUS
 10
11.0
 20
60.5644574633
  7
TEXTSTYLE_5
 40
2.5
  1
Date
 41
1.0
 72
0
  0
TEXT
  8
0
 62
4
  6
CONTINUOUS
 10
48.0
 20
60.5644574633
  7
TEXTSTYLE_5
 40
2.5
  1
26-maj-05
 41
1.0
 72
0
  0
TEXT
  8
0
 62
4
  6
CONTINUOUS
 10
90.0
 20
60.5644574633
  7
TEXTSTYLE_6
 40
2.5
  1
Tool No.
 41
1.0
 72
0
  0
TEXT
  8
0
 62
4
  6
CONTINUOUS
 10
115.0
 20
60.5644574633
  7
TEXTSTYLE_5
 40
2.5
  1
180250
 41
1.0
 72
0
  0
TEXT
  8
0
 62
4
  6
CONTINUOUS
 10
11.0
 20
55.5644574633
  7
TEXTSTYLE_5
 40
2.5
  1
Part Name
 41
1.0
 72
0
  0
TEXT
  8
0
 62
4
  6
CONTINUOUS
 10
48.0
 20
55.5644574633
  7
TEXTSTYLE_5
 40
2.5
  1
P604
 41
1.0
 72
0
  0
TEXT
  8
0
 62
4
  6
CONTINUOUS
 10
55.7767175573
 20
55.5644574633
  7
TEXTSTYLE_5
 40
2.5
  1
.
 41
1.0
 72
0
  0
TEXT
  8
0
 62
4
  6
CONTINUOUS
 10
56.7690839695
 20
55.5644574633
  7
TEXTSTYLE_5
 40
2.5
  1
PART
 41
1.0
 72
0
  0
TEXT
  8
0
 62
4
  6
CONTINUOUS
 10
90.0
 20
55.5644574633
  7
TEXTSTYLE_8
 40
2.5
  1
Finish Top Surf.
 41
1.0
 72
0
  0
TEXT
  8
0
 62
4
  6
CONTINUOUS
 10
115.0
 20
55.5644574633
  7
TEXTSTYLE_5
 40
2.5
  1
AGIE 1040
 41
1.0
 72
0
  0
TEXT
  8
0
 62
4
  6
CONTINUOUS
 10
90.0
 20
50.5644574633
  7
TEXTSTYLE_5
 40
2.5
  1
Project No.
 41
1.0
 72
0
  0
TEXT
  8
0
 62
7
  6
CONTINUOUS
 10
115.0
 20
47.3144574633
  7
TEXTSTYLE_5
 40
4.0
  1
200014
 41
1.0
 72
0
  0
TEXT
  8
0
 62
4
  6
CONTINUOUS
 10
90.0
 20
40.5644574633
  7
TEXTSTYLE_5
 40
2.5
  1
Project
 41
1.0
 72
0
  0
TEXT
  8
0
 62
7
  6
CONTINUOUS
 10
90.0
 20
31.5644574633
  7
TEXTSTYLE_5
 40
4.5
  1
uni RETAINER RINGS
 41
1.0
 72
0
  0
TEXT
  8
0
 62
4
  6
CONTINUOUS
 10
90.0
 20
23.5644574633
  7
TEXTSTYLE_5
 40
2.5
  1
Name
 41
1.0
 72
0
  0
TEXT
  8
0
 62
7
  6
CONTINUOUS
 10
90.0
 20
13.5644574633
  7
TEXTSTYLE_5
 40
4.5
  1
RR SQ1.0"
 41
1.0
 72
0
  0
TEXT
  8
0
 62
5
  6
CONTINUOUS
 10
11.0
 20
17.4075574633
  7
TEXTSTYLE_9
 40
1.607
  1
Ammeraal Beltech             Hjulmagervej 21             	tel: +45 7572 3100
 41
1.0
 72
0
  0
TEXT
  8
0
 62
5
  6
CONTINUOUS
 10
11.0
 20
14.8324574633
  7
TEXTSTYLE_9
 40
1.61
  1
Modular A/S                       DK-Vejle                          fax: +45 7572 3348
 41
1.0
 72
0
  0
TEXT
  8
0
 62
5
  6
CONTINUOUS
 10
11.0
 20
12.2044574633
  7
TEXTSTYLE_9
 40
1.6
  1
                                                                                
 41
1.0
 72
0
  0
TEXT
  8
0
 62
5
  6
CONTINUOUS
 10
61.8091603053
 20
12.2044574633
  7
TEXTSTYLE_9
 40
1.65
  1
     admin@unichains.dk
 41
1.0
 72
0
  0
TEXT
  8
0
 62
5
  6
CONTINUOUS
 10
11.0
 20
9.5644574633
  7
TEXTSTYLE_9
 40
1.6
  1
                                                                                
 41
1.0
 72
0
  0
TEXT
  8
0
 62
5
  6
CONTINUOUS
 10
61.8091603053
 20
9.5644574633
  7
TEXTSTYLE_9
 40
1.65
  1
     www.unichains.com
 41
1.0
 72
0
  0
LINE
  8
0
 62
2
  6
CONTINUOUS
 10
114.0
 20
104.3144573777
 11
200.0
 21
104.3144573777
  0
LINE
  8
0
 62
2
  6
CONTINUOUS
 10
114.0
 20
104.3144573777
 11
114.0
 21
79.3144573777
  0
LINE
  8
0
 62
2
  6
CONTINUOUS
 10
114.0
 20
99.3144573777
 11
200.0
 21
99.3144573777
  0
LINE
  8
0
 62
2
  6
CONTINUOUS
 10
114.0
 20
94.3144573777
 11
200.0
 21
94.3144573777
  0
LINE
  8
0
 62
2
  6
CONTINUOUS
 10
114.0
 20
89.3144573777
 11
200.0
 21
89.3144573777
  0
LINE
  8
0
 62
2
  6
CONTINUOUS
 10
114.0
 20
84.3144573777
 11
200.0
 21
84.3144573777
  0
LINE
  8
0
 62
2
  6
CONTINUOUS
 10
114.0
 20
79.3144573777
 11
200.0
 21
79.3144573777
  0
LINE
  8
0
 62
2
  6
CONTINUOUS
 10
122.0
 20
104.3144573777
 11
122.0
 21
79.3144573777
  0
LINE
  8
0
 62
2
  6
CONTINUOUS
 10
176.0
 20
104.3144573777
 11
176.0
 21
79.3144573777
  0
LINE
  8
0
 62
2
  6
CONTINUOUS
 10
188.0
 20
104.3144573777
 11
188.0
 21
79.3144573777
  0
LINE
  8
0
 62
2
  6
CONTINUOUS
 10
200.0
 20
104.3144573777
 11
200.0
 21
79.3144573777
  0
TEXT
  8
0
 62
4
  6
CONTINUOUS
 10
116.5687022901
 20
100.3144573777
  7
TEXTSTYLE_5
 40
3.0
  1
D
 41
1.0
 72
1
 11
118.0
 21
100.3144573777
  0
TEXT
  8
0
 62
4
  6
CONTINUOUS
 10
116.5687022901
 20
95.3144573777
  7
TEXTSTYLE_5
 40
3.0
  1
C
 41
1.0
 72
1
 11
118.0
 21
95.3144573777
  0
TEXT
  8
0
 62
4
  6
CONTINUOUS
 10
116.8034351145
 20
90.3144573777
  7
TEXTSTYLE_5
 40
3.0
  1
B
 41
1.0
 72
1
 11
118.0
 21
90.3144573777
  0
TEXT
  8
0
 62
4
  6
CONTINUOUS
 10
116.5687022901
 20
85.3144573777
  7
TEXTSTYLE_5
 40
3.0
  1
A
 41
1.0
 72
1
 11
118.0
 21
85.3144573777
  0
TEXT
  8
0
 62
4
  6
CONTINUOUS
 10
123.36
 20
85.3144573777
  7
TEXTSTYLE_8
 40
3.0
  1
Forspænd 0.2 til 0.6mm
 41
1.0
 72
0
  0
TEXT
  8
0
 62
4
  6
CONTINUOUS
 10
178.0377862595
 20
86.1144573777
  7
TEXTSTYLE_10
 40
1.4
  1
11/10-02
 41
1.0
 72
1
 11
182.0
 21
86.1144573777
  0
TEXT
  8
0
 62
4
  6
CONTINUOUS
 10
192.4423664122
 20
86.1144573777
  7
TEXTSTYLE_11
 40
1.4
  1
MD
 41
1.0
 72
1
 11
194.0
 21
86.1144573777
  0
TEXT
  8
0
 62
4
  6
CONTINUOUS
 10
114.7767175573
 20
80.3144573777
  7
TEXTSTYLE_8
 40
3.0
  1
Rev
 41
1.0
 72
1
 11
118.0
 21
80.3144573777
  0
TEXT
  8
0
 62
4
  6
CONTINUOUS
 10
123.36
 20
80.3144573777
  7
TEXTSTYLE_8
 40
3.0
  1
Modification
 41
1.0
 72
0
  0
TEXT
  8
0
 62
4
  6
CONTINUOUS
 10
177.7003816794
 20
80.3144573777
  7
TEXTSTYLE_8
 40
3.0
  1
Date
 41
1.0
 72
1
 11
182.0
 21
80.3144573777
  0
TEXT
  8
0
 62
4
  6
CONTINUOUS
 10
190.5419847328
 20
80.3144573777
  7
TEXTSTYLE_8
 40
3.0
  1
Init.
 41
1.0
 72
1
 11
194.0
 21
80.3144573777
  0
TEXT
  8
NOTES
 62
5
  6
CONTINUOUS
 10
12.6026107595
 20
111.7165418521
  7
STANDARD
 40
3.5
  1
M4x12 DIN 912 18/8
 41
0.8
 72
0
  0
TEXT
  8
NOTES
 62
5
  6
CONTINUOUS
 10
12.6026107595
 20
106.4665418521
  7
STANDARD
 40
3.5
  1
møtrik M4 DIN 934 18/8
 41
0.8
 72
0
  0
TEXT
  8
NOTES
 62
5
  6
CONTINUOUS
 10
12.6026107595
 20
101.2165418521
  7
STANDARD
 40
3.5
  1
pinol M5x8 DIN 914-18/8
 41
0.8
 72
0
  0
INSERT
  8
NOTES
 62
2
  6
CONTINUOUS
  2
BALLOON_BL2
 10
32.3878676471
 20
193.2683823529
  0
LINE
  8
0
 62
7
  6
CONTINUOUS
 10
0.0
 20
0.0
 11
210.0
 21
0.0
  0
LINE
  8
0
 62
7
  6
CONTINUOUS
 10
0.0
 20
0.0
 11
0.0
 21
297.0
  0
LINE
  8
0
 62
7
  6
CONTINUOUS
 10
10.0
 20
10.0
 11
10.0
 21
287.0
  0
LINE
  8
0
 62
7
  6
CONTINUOUS
 10
200.0
 20
10.0
 11
200.0
 21
287.0
  0
LINE
  8
0
 62
7
  6
CONTINUOUS
 10
210.0
 20
0.0
 11
210.0
 21
297.0
  0
LINE
  8
0
 62
7
  6
CONTINUOUS
 10
10.0
 20
287.0
 11
200.0
 21
287.0
  0
LINE
  8
0
 62
7
  6
CONTINUOUS
 10
0.0
 20
297.0
 11
210.0
 21
297.0
  0
LINE
  8
0
 62
9
  6
CONTINUOUS
 10
39.3490296074
 20
205.303493028
 11
39.1234853192
 21
197.3675384825
  0
LINE
  8
0
 62
9
  6
CONTINUOUS
 10
39.8593235596
 20
205.2889901871
 11
39.6341914502
 21
197.3675384825
  0
LINE
  8
0
 62
7
  6
CONTINUOUS
 10
40.288569214
 20
200.4305384825
 11
40.288569214
 21
203.8966225891
  0
LINE
  8
0
 62
7
  6
CONTINUOUS
 10
43.862069214
 20
200.4305384825
 11
43.862069214
 21
210.5403963613
  0
LINE
  8
0
 62
7
  6
CONTINUOUS
 10
47.435569214
 20
200.4305384825
 11
47.435569214
 21
214.1815710935
  0
LINE
  8
0
 62
7
  6
CONTINUOUS
 10
48.3945231369
 20
197.3675384825
 11
48.6009639184
 21
209.194522936
  0
LINE
  8
0
 62
7
  6
CONTINUOUS
 10
84.0293531088
 20
197.3675384825
 11
74.7583152911
 21
197.3675384825
  0
LINE
  8
0
 62
7
  6
CONTINUOUS
 10
48.3945231369
 20
197.3675384825
 11
39.1234853192
 21
197.3675384825
  0
LINE
  8
0
 62
9
  6
CONTINUOUS
 10
53.6372602677
 20
218.6809134825
 11
53.6372602677
 21
219.1914134825
  0
LINE
  8
0
 62
7
  6
CONTINUOUS
 10
83.119519214
 20
200.4305384825
 11
75.462019214
 21
200.4305384825
  0
LINE
  8
0
 62
7
  6
CONTINUOUS
 10
47.435569214
 20
200.4305384825
 11
40.288569214
 21
200.4305384825
  0
LINE
  8
0
 62
9
  6
CONTINUOUS
 10
83.2935148684
 20
205.2889901871
 11
83.8038088205
 21
205.303493028
  0
LINE
  8
0
 62
9
  6
CONTINUOUS
 10
39.8593235596
 20
205.2889901871
 11
39.3490296074
 21
205.303493028
  0
LINE
  8
0
 62
7
  6
CONTINUOUS
 10
74.0414522612
 20
209.6961134825
 11
49.1113861668
 21
209.6961134825
  0
LINE
  8
0
 62
9
  6
CONTINUOUS
 10
69.5155781602
 20
218.6809134825
 11
69.5155781602
 21
219.1914134825
  0
LINE
  8
0
 62
7
  6
CONTINUOUS
 10
59.228119214
 20
217.2515134825
 11
63.924719214
 21
217.2515134825
  0
LINE
  8
0
 62
7
  6
CONTINUOUS
 10
53.4243879487
 20
217.6599134825
 11
69.7284504792
 21
217.6599134825
  0
LINE
  8
0
 62
9
  6
CONTINUOUS
 10
69.5155781602
 20
218.6809134825
 11
53.6372602677
 21
218.6809134825
  0
LINE
  8
0
 62
9
  6
CONTINUOUS
 10
69.5155781602
 20
219.1914134825
 11
53.6372602678
 21
219.1914134825
  0
LINE
  8
0
 62
7
  6
CONTINUOUS
 10
74.7583152911
 20
197.3675384825
 11
74.5518745095
 21
209.194522936
  0
LINE
  8
0
 62
9
  6
CONTINUOUS
 10
83.2935148684
 20
205.2889901871
 11
83.5186469777
 21
197.3675384825
  0
LINE
  8
0
 62
9
  6
CONTINUOUS
 10
83.8038088205
 20
205.303493028
 11
84.0293531088
 21
197.3675384825
  0
LINE
  8
0
 62
7
  6
CONTINUOUS
 10
39.1234853192
 20
249.7839046157
 11
39.1234853192
 21
263.0569046157
  0
LINE
  8
0
 62
9
  6
CONTINUOUS
 10
39.3490296074
 20
263.0569046157
 11
39.3490296074
 21
262.0359046157
  0
LINE
  8
0
 62
9
  6
CONTINUOUS
 10
39.3490296074
 20
249.7839046157
 11
39.3490296074
 21
250.8049046157
  0
POLYLINE
  8
0
 62
7
  6
CONTINUOUS
 66
1
 70
0
  0
VERTEX
  8
0
 62
7
  6
CONTINUOUS
 10
39.1234853192
 20
249.7839046157
  0
VERTEX
  8
0
 62
7
  6
CONTINUOUS
 10
39.1362590203
 20
249.6704425114
  0
VERTEX
  8
0
 62
7
  6
CONTINUOUS
 10
39.1741579771
 20
249.5622060458
  0
VERTEX
  8
0
 62
7
  6
CONTINUOUS
 10
39.2347032159
 20
249.4658665635
  0
VERTEX
  8
0
 62
7
  6
CONTINUOUS
 10
39.3159509057
 20
249.3846366053
  0
VERTEX
  8
0
 62
7
  6
CONTINUOUS
 10
39.4123312539
 20
249.3240915785
  0
VERTEX
  8
0
 62
7
  6
CONTINUOUS
 10
39.5206309321
 20
249.2861851497
  0
VERTEX
  8
0
 62
7
  6
CONTINUOUS
 10
39.6341914502
 20
249.2734046157
  0
SEQEND
  0
LINE
  8
0
 62
7
  6
CONTINUOUS
 10
40.288569214
 20
258.4835658026
 11
40.288569214
 21
254.3572434287
  0
POLYLINE
  8
0
 62
7
  6
CONTINUOUS
 66
1
 70
0
  0
VERTEX
  8
0
 62
7
  6
CONTINUOUS
 10
39.1234853192
 20
262.0359046157
  0
VERTEX
  8
0
 62
7
  6
CONTINUOUS
 10
39.225070473
 20
261.8026372792
  0
VERTEX
  8
0
 62
7
  6
CONTINUOUS
 10
39.4399335124
 20
261.6118918644
  0
VERTEX
  8
0
 62
7
  6
CONTINUOUS
 10
39.7690527658
 20
261.5254046157
  0
SEQEND
  0
LINE
  8
0
 62
7
  6
CONTINUOUS
 10
47.435569214
 20
254.3572434287
 11
47.435569214
 21
258.4835658026
  0
LINE
  8
0
 62
7
  6
CONTINUOUS
 10
48.3945231369
 20
249.2734046157
 11
48.3945231369
 21
263.5674046157
  0
LINE
  8
0
 62
9
  6
CONTINUOUS
 10
48.6009639184
 20
263.5674046157
 11
48.6009639184
 21
249.2734046157
  0
LINE
  8
0
 62
9
  6
CONTINUOUS
 10
49.1113861668
 20
263.5674046157
 11
49.1113861668
 21
249.2734046157
  0
LINE
  8
0
 62
7
  6
CONTINUOUS
 10
43.862069214
 20
260.5467269896
 11
40.288569214
 21
258.4835658026
  0
LINE
  8
0
 62
7
  6
CONTINUOUS
 10
40.288569214
 20
254.3572434287
 11
43.862069214
 21
252.2940822418
  0
POLYLINE
  8
0
 62
7
  6
CONTINUOUS
 66
1
 70
0
  0
VERTEX
  8
0
 62
7
  6
CONTINUOUS
 10
83.5186469777
 20
249.2734046157
  0
VERTEX
  8
0
 62
7
  6
CONTINUOUS
 10
83.6322074959
 20
249.2861851497
  0
VERTEX
  8
0
 62
7
  6
CONTINUOUS
 10
83.740507174
 20
249.3240915785
  0
VERTEX
  8
0
 62
7
  6
CONTINUOUS
 10
83.8368875223
 20
249.3846366053
  0
VERTEX
  8
0
 62
7
  6
CONTINUOUS
 10
83.9181352121
 20
249.4658665635
  0
VERTEX
  8
0
 62
7
  6
CONTINUOUS
 10
83.9786804508
 20
249.5622060458
  0
VERTEX
  8
0
 62
7
  6
CONTINUOUS
 10
84.0165794077
 20
249.6704425114
  0
VERTEX
  8
0
 62
7
  6
CONTINUOUS
 10
84.0293531088
 20
249.7839046157
  0
SEQEND
  0
POLYLINE
  8
0
 62
9
  6
CONTINUOUS
 66
1
 70
0
  0
VERTEX
  8
0
 62
9
  6
CONTINUOUS
 10
83.2935148684
 20
249.2734046157
  0
VERTEX
  8
0
 62
9
  6
CONTINUOUS
 10
83.3926314831
 20
249.2831270089
  0
VERTEX
  8
0
 62
9
  6
CONTINUOUS
 10
83.4879727768
 20
249.3119238655
  0
VERTEX
  8
0
 62
9
  6
CONTINUOUS
 10
83.5759072291
 20
249.3586983223
  0
VERTEX
  8
0
 62
9
  6
CONTINUOUS
 10
83.6543471823
 20
249.4229266039
  0
VERTEX
  8
0
 62
9
  6
CONTINUOUS
 10
83.7175612174
 20
249.499915704
  0
VERTEX
  8
0
 62
9
  6
CONTINUOUS
 10
83.7646234587
 20
249.5877218534
  0
VERTEX
  8
0
 62
9
  6
CONTINUOUS
 10
83.7937413203
 20
249.6830005434
  0
VERTEX
  8
0
 62
9
  6
CONTINUOUS
 10
83.8038088205
 20
249.783904638
  0
SEQEND
  0
POLYLINE
  8
0
 62
9
  6
CONTINUOUS
 66
1
 70
0
  0
VERTEX
  8
0
 62
9
  6
CONTINUOUS
 10
39.8593235596
 20
249.2734046157
  0
VERTEX
  8
0
 62
9
  6
CONTINUOUS
 10
39.7602069448
 20
249.2831270089
  0
VERTEX
  8
0
 62
9
  6
CONTINUOUS
 10
39.6648656512
 20
249.3119238655
  0
VERTEX
  8
0
 62
9
  6
CONTINUOUS
 10
39.5769311988
 20
249.3586983223
  0
VERTEX
  8
0
 62
9
  6
CONTINUOUS
 10
39.4984912456
 20
249.4229266039
  0
VERTEX
  8
0
 62
9
  6
CONTINUOUS
 10
39.4352772106
 20
249.499915704
  0
VERTEX
  8
0
 62
9
  6
CONTINUOUS
 10
39.3882149692
 20
249.5877218534
  0
VERTEX
  8
0
 62
9
  6
CONTINUOUS
 10
39.3590971077
 20
249.6830005434
  0
VERTEX
  8
0
 62
9
  6
CONTINUOUS
 10
39.3490296074
 20
249.783904638
  0
SEQEND
  0
LINE
  8
0
 62
7
  6
CONTINUOUS
 10
53.4243879487
 20
251.3154046157
 11
53.4243879487
 21
261.5254046157
  0
LINE
  8
0
 62
9
  6
CONTINUOUS
 10
53.6372602677
 20
249.2734046157
 11
53.6372602678
 21
251.3154046157
  0
LINE
  8
0
 62
9
  6
CONTINUOUS
 10
53.6372602677
 20
261.5254046157
 11
53.6372602678
 21
263.5674046157
  0
LINE
  8
0
 62
7
  6
CONTINUOUS
 10
39.6341914502
 20
249.2734046157
 11
83.5186469777
 21
249.2734046157
  0
LINE
  8
0
 62
9
  6
CONTINUOUS
 10
39.1234853192
 20
249.7839046157
 11
84.0293531088
 21
249.7839046157
  0
LINE
  8
0
 62
7
  6
CONTINUOUS
 10
47.435569214
 20
254.3572434287
 11
43.862069214
 21
252.2940822418
  0
LINE
  8
0
 62
9
  6
CONTINUOUS
 10
84.0293531088
 20
250.8049046157
 11
39.1234853192
 21
250.8049046157
  0
LINE
  8
0
 62
7
  6
CONTINUOUS
 10
39.7690454604
 20
251.3154046157
 11
83.3837928541
 21
251.3154046157
  0
LINE
  8
0
 62
7
  6
CONTINUOUS
 10
47.435569214
 20
258.4835658026
 11
43.862069214
 21
260.5467269896
  0
POLYLINE
  8
0
 62
9
  6
CONTINUOUS
 66
1
 70
0
  0
VERTEX
  8
0
 62
9
  6
CONTINUOUS
 10
39.8593235596
 20
251.3154046157
  0
VERTEX
  8
0
 62
9
  6
CONTINUOUS
 10
39.7602069448
 20
251.3056822225
  0
VERTEX
  8
0
 62
9
  6
CONTINUOUS
 10
39.6648656512
 20
251.2768853658
  0
VERTEX
  8
0
 62
9
  6
CONTINUOUS
 10
39.5769311988
 20
251.230110909
  0
VERTEX
  8
0
 62
9
  6
CONTINUOUS
 10
39.4984912456
 20
251.1658826275
  0
VERTEX
  8
0
 62
9
  6
CONTINUOUS
 10
39.4352772106
 20
251.0888935274
  0
VERTEX
  8
0
 62
9
  6
CONTINUOUS
 10
39.3882149692
 20
251.0010873779
  0
VERTEX
  8
0
 62
9
  6
CONTINUOUS
 10
39.3590971077
 20
250.9058086879
  0
VERTEX
  8
0
 62
9
  6
CONTINUOUS
 10
39.3490296074
 20
250.8049045934
  0
SEQEND
  0
POLYLINE
  8
0
 62
9
  6
CONTINUOUS
 66
1
 70
0
  0
VERTEX
  8
0
 62
9
  6
CONTINUOUS
 10
83.2935148684
 20
251.3154046157
  0
VERTEX
  8
0
 62
9
  6
CONTINUOUS
 10
83.3926314831
 20
251.3056822225
  0
VERTEX
  8
0
 62
9
  6
CONTINUOUS
 10
83.4879727768
 20
251.2768853658
  0
VERTEX
  8
0
 62
9
  6
CONTINUOUS
 10
83.5759072291
 20
251.230110909
  0
VERTEX
  8
0
 62
9
  6
CONTINUOUS
 10
83.6543471823
 20
251.1658826275
  0
VERTEX
  8
0
 62
9
  6
CONTINUOUS
 10
83.7175612174
 20
251.0888935274
  0
VERTEX
  8
0
 62
9
  6
CONTINUOUS
 10
83.7646234587
 20
251.0010873779
  0
VERTEX
  8
0
 62
9
  6
CONTINUOUS
 10
83.7937413203
 20
250.9058086879
  0
VERTEX
  8
0
 62
9
  6
CONTINUOUS
 10
83.8038088205
 20
250.8049045934
  0
SEQEND
  0
POLYLINE
  8
0
 62
7
  6
CONTINUOUS
 66
1
 70
0
  0
VERTEX
  8
0
 62
7
  6
CONTINUOUS
 10
83.3837856621
 20
261.5254046157
  0
VERTEX
  8
0
 62
7
  6
CONTINUOUS
 10
83.7129049155
 20
261.6118918644
  0
VERTEX
  8
0
 62
7
  6
CONTINUOUS
 10
83.927767955
 20
261.8026372792
  0
VERTEX
  8
0
 62
7
  6
CONTINUOUS
 10
84.0293531088
 20
262.0359046157
  0
SEQEND
  0
POLYLINE
  8
0
 62
7
  6
CONTINUOUS
 66
1
 70
0
  0
VERTEX
  8
0
 62
7
  6
CONTINUOUS
 10
39.7690527658
 20
251.3154046157
  0
VERTEX
  8
0
 62
7
  6
CONTINUOUS
 10
39.4399335124
 20
251.2289173669
  0
VERTEX
  8
0
 62
7
  6
CONTINUOUS
 10
39.225070473
 20
251.0381719522
  0
VERTEX
  8
0
 62
7
  6
CONTINUOUS
 10
39.1234853192
 20
250.8049046157
  0
SEQEND
  0
POLYLINE
  8
0
 62
9
  6
CONTINUOUS
 66
1
 70
0
  0
VERTEX
  8
0
 62
9
  6
CONTINUOUS
 10
83.2935148684
 20
261.5254046157
  0
VERTEX
  8
0
 62
9
  6
CONTINUOUS
 10
83.3926314831
 20
261.5351270089
  0
VERTEX
  8
0
 62
9
  6
CONTINUOUS
 10
83.4879727768
 20
261.5639238655
  0
VERTEX
  8
0
 62
9
  6
CONTINUOUS
 10
83.5759072291
 20
261.6106983223
  0
VERTEX
  8
0
 62
9
  6
CONTINUOUS
 10
83.6543471823
 20
261.6749266039
  0
VERTEX
  8
0
 62
9
  6
CONTINUOUS
 10
83.7175612174
 20
261.751915704
  0
VERTEX
  8
0
 62
9
  6
CONTINUOUS
 10
83.7646234587
 20
261.8397218534
  0
VERTEX
  8
0
 62
9
  6
CONTINUOUS
 10
83.7937413203
 20
261.9350005434
  0
VERTEX
  8
0
 62
9
  6
CONTINUOUS
 10
83.8038088205
 20
262.035904638
  0
SEQEND
  0
POLYLINE
  8
0
 62
9
  6
CONTINUOUS
 66
1
 70
0
  0
VERTEX
  8
0
 62
9
  6
CONTINUOUS
 10
39.8593235596
 20
261.5254046157
  0
VERTEX
  8
0
 62
9
  6
CONTINUOUS
 10
39.7602069448
 20
261.5351270089
  0
VERTEX
  8
0
 62
9
  6
CONTINUOUS
 10
39.6648656512
 20
261.5639238655
  0
VERTEX
  8
0
 62
9
  6
CONTINUOUS
 10
39.5769311988
 20
261.6106983223
  0
VERTEX
  8
0
 62
9
  6
CONTINUOUS
 10
39.4984912456
 20
261.6749266039
  0
VERTEX
  8
0
 62
9
  6
CONTINUOUS
 10
39.4352772106
 20
261.751915704
  0
VERTEX
  8
0
 62
9
  6
CONTINUOUS
 10
39.3882149692
 20
261.8397218534
  0
VERTEX
  8
0
 62
9
  6
CONTINUOUS
 10
39.3590971077
 20
261.9350005434
  0
VERTEX
  8
0
 62
9
  6
CONTINUOUS
 10
39.3490296074
 20
262.035904638
  0
SEQEND
  0
LINE
  8
0
 62
7
  6
CONTINUOUS
 10
39.7690456794
 20
261.5254046157
 11
83.3837928539
 21
261.5254046157
  0
LINE
  8
0
 62
9
  6
CONTINUOUS
 10
39.1234853192
 20
262.0359046157
 11
84.0293531088
 21
262.0359046157
  0
LINE
  8
0
 62
9
  6
CONTINUOUS
 10
69.5155781602
 20
249.2734046157
 11
69.5155781602
 21
251.3154046157
  0
LINE
  8
0
 62
9
  6
CONTINUOUS
 10
69.5155781602
 20
261.5254046157
 11
69.5155781602
 21
263.5674046157
  0
LINE
  8
0
 62
9
  6
CONTINUOUS
 10
84.0293531088
 20
263.0569046157
 11
39.1234853192
 21
263.0569046157
  0
LINE
  8
0
 62
7
  6
CONTINUOUS
 10
39.6341914502
 20
263.5674046157
 11
83.5186469777
 21
263.5674046157
  0
LINE
  8
0
 62
7
  6
CONTINUOUS
 10
69.7284504792
 20
251.3154046157
 11
69.7284504792
 21
261.5254046157
  0
POLYLINE
  8
0
 62
7
  6
CONTINUOUS
 66
1
 70
0
  0
VERTEX
  8
0
 62
7
  6
CONTINUOUS
 10
39.6341914502
 20
263.5674046157
  0
VERTEX
  8
0
 62
7
  6
CONTINUOUS
 10
39.5206309321
 20
263.5546240816
  0
VERTEX
  8
0
 62
7
  6
CONTINUOUS
 10
39.4123312539
 20
263.5167176528
  0
VERTEX
  8
0
 62
7
  6
CONTINUOUS
 10
39.3159509057
 20
263.4561726261
  0
VERTEX
  8
0
 62
7
  6
CONTINUOUS
 10
39.2347032159
 20
263.3749426678
  0
VERTEX
  8
0
 62
7
  6
CONTINUOUS
 10
39.1741579771
 20
263.2786031855
  0
VERTEX
  8
0
 62
7
  6
CONTINUOUS
 10
39.1362590203
 20
263.1703667199
  0
VERTEX
  8
0
 62
7
  6
CONTINUOUS
 10
39.1234853192
 20
263.0569046157
  0
SEQEND
  0
POLYLINE
  8
0
 62
9
  6
CONTINUOUS
 66
1
 70
0
  0
VERTEX
  8
0
 62
9
  6
CONTINUOUS
 10
39.8593235596
 20
263.5674046157
  0
VERTEX
  8
0
 62
9
  6
CONTINUOUS
 10
39.7602069448
 20
263.5576822225
  0
VERTEX
  8
0
 62
9
  6
CONTINUOUS
 10
39.6648656512
 20
263.5288853658
  0
VERTEX
  8
0
 62
9
  6
CONTINUOUS
 10
39.5769311988
 20
263.482110909
  0
VERTEX
  8
0
 62
9
  6
CONTINUOUS
 10
39.4984912456
 20
263.4178826275
  0
VERTEX
  8
0
 62
9
  6
CONTINUOUS
 10
39.4352772106
 20
263.3408935274
  0
VERTEX
  8
0
 62
9
  6
CONTINUOUS
 10
39.3882149692
 20
263.2530873779
  0
VERTEX
  8
0
 62
9
  6
CONTINUOUS
 10
39.3590971077
 20
263.1578086879
  0
VERTEX
  8
0
 62
9
  6
CONTINUOUS
 10
39.3490296074
 20
263.0569045934
  0
SEQEND
  0
POLYLINE
  8
0
 62
9
  6
CONTINUOUS
 66
1
 70
0
  0
VERTEX
  8
0
 62
9
  6
CONTINUOUS
 10
83.2935148684
 20
263.5674046157
  0
VERTEX
  8
0
 62
9
  6
CONTINUOUS
 10
83.3926314831
 20
263.5576822225
  0
VERTEX
  8
0
 62
9
  6
CONTINUOUS
 10
83.4879727768
 20
263.5288853658
  0
VERTEX
  8
0
 62
9
  6
CONTINUOUS
 10
83.5759072291
 20
263.482110909
  0
VERTEX
  8
0
 62
9
  6
CONTINUOUS
 10
83.6543471823
 20
263.4178826275
  0
VERTEX
  8
0
 62
9
  6
CONTINUOUS
 10
83.7175612174
 20
263.3408935274
  0
VERTEX
  8
0
 62
9
  6
CONTINUOUS
 10
83.7646234587
 20
263.2530873779
  0
VERTEX
  8
0
 62
9
  6
CONTINUOUS
 10
83.7937413203
 20
263.1578086879
  0
VERTEX
  8
0
 62
9
  6
CONTINUOUS
 10
83.8038088205
 20
263.0569045934
  0
SEQEND
  0
LINE
  8
0
 62
9
  6
CONTINUOUS
 10
74.0414522612
 20
263.5674046157
 11
74.0414522612
 21
249.2734046157
  0
LINE
  8
0
 62
9
  6
CONTINUOUS
 10
74.5518745095
 20
263.5674046157
 11
74.5518745095
 21
249.2734046157
  0
LINE
  8
0
 62
7
  6
CONTINUOUS
 10
74.7583152911
 20
249.2734046157
 11
74.7583152911
 21
263.5674046157
  0
POLYLINE
  8
0
 62
7
  6
CONTINUOUS
 66
1
 70
0
  0
VERTEX
  8
0
 62
7
  6
CONTINUOUS
 10
84.0293531088
 20
250.8049046157
  0
VERTEX
  8
0
 62
7
  6
CONTINUOUS
 10
83.927767955
 20
251.0381719522
  0
VERTEX
  8
0
 62
7
  6
CONTINUOUS
 10
83.7129049155
 20
251.2289173669
  0
VERTEX
  8
0
 62
7
  6
CONTINUOUS
 10
83.3837856621
 20
251.3154046157
  0
SEQEND
  0
LINE
  8
0
 62
9
  6
CONTINUOUS
 10
83.8038088205
 20
263.0569046157
 11
83.8038088205
 21
262.0359046157
  0
LINE
  8
0
 62
9
  6
CONTINUOUS
 10
83.8038088205
 20
249.7839046157
 11
83.8038088205
 21
250.8049046157
  0
LINE
  8
0
 62
7
  6
CONTINUOUS
 10
84.0293531088
 20
249.7839046157
 11
84.0293531088
 21
263.0569046157
  0
POLYLINE
  8
0
 62
7
  6
CONTINUOUS
 66
1
 70
0
  0
VERTEX
  8
0
 62
7
  6
CONTINUOUS
 10
84.0293531088
 20
263.0569046157
  0
VERTEX
  8
0
 62
7
  6
CONTINUOUS
 10
84.0165794077
 20
263.1703667199
  0
VERTEX
  8
0
 62
7
  6
CONTINUOUS
 10
83.9786804508
 20
263.2786031855
  0
VERTEX
  8
0
 62
7
  6
CONTINUOUS
 10
83.9181352121
 20
263.3749426678
  0
VERTEX
  8
0
 62
7
  6
CONTINUOUS
 10
83.8368875223
 20
263.4561726261
  0
VERTEX
  8
0
 62
7
  6
CONTINUOUS
 10
83.740507174
 20
263.5167176528
  0
VERTEX
  8
0
 62
7
  6
CONTINUOUS
 10
83.6322074959
 20
263.5546240816
  0
VERTEX
  8
0
 62
7
  6
CONTINUOUS
 10
83.5186469777
 20
263.5674046157
  0
SEQEND
  0
LINE
  8
0
 62
7
  6
CONTINUOUS
 10
39.1234853192
 20
145.7007025329
 11
39.1234853192
 21
158.9737025329
  0
LINE
  8
0
 62
9
  6
CONTINUOUS
 10
39.3490296074
 20
158.9737025329
 11
39.3490296074
 21
157.9527025329
  0
LINE
  8
0
 62
9
  6
CONTINUOUS
 10
39.3490296074
 20
145.7007025329
 11
39.3490296074
 21
146.7217025329
  0
POLYLINE
  8
0
 62
7
  6
CONTINUOUS
 66
1
 70
0
  0
VERTEX
  8
0
 62
7
  6
CONTINUOUS
 10
39.1234853192
 20
158.9737025329
  0
VERTEX
  8
0
 62
7
  6
CONTINUOUS
 10
39.1362590203
 20
159.0871646371
  0
VERTEX
  8
0
 62
7
  6
CONTINUOUS
 10
39.1741579771
 20
159.1954011027
  0
VERTEX
  8
0
 62
7
  6
CONTINUOUS
 10
39.2347032159
 20
159.291740585
  0
VERTEX
  8
0
 62
7
  6
CONTINUOUS
 10
39.3159509057
 20
159.3729705433
  0
VERTEX
  8
0
 62
7
  6
CONTINUOUS
 10
39.4123312539
 20
159.4335155701
  0
VERTEX
  8
0
 62
7
  6
CONTINUOUS
 10
39.5206309321
 20
159.4714219988
  0
VERTEX
  8
0
 62
7
  6
CONTINUOUS
 10
39.6341914502
 20
159.4842025329
  0
SEQEND
  0
LINE
  8
0
 62
7
  6
CONTINUOUS
 10
40.288569214
 20
154.4003637198
 11
40.288569214
 21
150.2740413459
  0
POLYLINE
  8
0
 62
7
  6
CONTINUOUS
 66
1
 70
0
  0
VERTEX
  8
0
 62
7
  6
CONTINUOUS
 10
39.1234853192
 20
146.7217025329
  0
VERTEX
  8
0
 62
7
  6
CONTINUOUS
 10
39.225070473
 20
146.9549698694
  0
VERTEX
  8
0
 62
7
  6
CONTINUOUS
 10
39.4399335124
 20
147.1457152841
  0
VERTEX
  8
0
 62
7
  6
CONTINUOUS
 10
39.7690527658
 20
147.2322025329
  0
SEQEND
  0
LINE
  8
0
 62
7
  6
CONTINUOUS
 10
47.435569214
 20
154.4003637198
 11
47.435569214
 21
150.2740413459
  0
LINE
  8
0
 62
7
  6
CONTINUOUS
 10
48.3945231369
 20
159.4842025329
 11
48.3945231369
 21
145.1902025329
  0
LINE
  8
0
 62
9
  6
CONTINUOUS
 10
48.6009639184
 20
145.1902025329
 11
48.6009639184
 21
159.4842025329
  0
LINE
  8
0
 62
9
  6
CONTINUOUS
 10
49.1113861668
 20
145.1902025329
 11
49.1113861668
 21
159.4842025329
  0
LINE
  8
0
 62
7
  6
CONTINUOUS
 10
43.862069214
 20
156.4635249068
 11
40.288569214
 21
154.4003637198
  0
LINE
  8
0
 62
7
  6
CONTINUOUS
 10
43.862069214
 20
148.210880159
 11
40.288569214
 21
150.2740413459
  0
POLYLINE
  8
0
 62
9
  6
CONTINUOUS
 66
1
 70
0
  0
VERTEX
  8
0
 62
9
  6
CONTINUOUS
 10
83.2935148684
 20
145.1902025329
  0
VERTEX
  8
0
 62
9
  6
CONTINUOUS
 10
83.3926314831
 20
145.1999249261
  0
VERTEX
  8
0
 62
9
  6
CONTINUOUS
 10
83.4879727768
 20
145.2287217827
  0
VERTEX
  8
0
 62
9
  6
CONTINUOUS
 10
83.5759072291
 20
145.2754962395
  0
VERTEX
  8
0
 62
9
  6
CONTINUOUS
 10
83.6543471823
 20
145.3397245211
  0
VERTEX
  8
0
 62
9
  6
CONTINUOUS
 10
83.7175612174
 20
145.4167136212
  0
VERTEX
  8
0
 62
9
  6
CONTINUOUS
 10
83.7646234587
 20
145.5045197707
  0
VERTEX
  8
0
 62
9
  6
CONTINUOUS
 10
83.7937413203
 20
145.5997984606
  0
VERTEX
  8
0
 62
9
  6
CONTINUOUS
 10
83.8038088205
 20
145.7007025552
  0
SEQEND
  0
POLYLINE
  8
0
 62
9
  6
CONTINUOUS
 66
1
 70
0
  0
VERTEX
  8
0
 62
9
  6
CONTINUOUS
 10
39.8593235596
 20
145.1902025329
  0
VERTEX
  8
0
 62
9
  6
CONTINUOUS
 10
39.7602069448
 20
145.1999249261
  0
VERTEX
  8
0
 62
9
  6
CONTINUOUS
 10
39.6648656512
 20
145.2287217827
  0
VERTEX
  8
0
 62
9
  6
CONTINUOUS
 10
39.5769311988
 20
145.2754962395
  0
VERTEX
  8
0
 62
9
  6
CONTINUOUS
 10
39.4984912456
 20
145.3397245211
  0
VERTEX
  8
0
 62
9
  6
CONTINUOUS
 10
39.4352772106
 20
145.4167136212
  0
VERTEX
  8
0
 62
9
  6
CONTINUOUS
 10
39.3882149692
 20
145.5045197707
  0
VERTEX
  8
0
 62
9
  6
CONTINUOUS
 10
39.3590971077
 20
145.5997984606
  0
VERTEX
  8
0
 62
9
  6
CONTINUOUS
 10
39.3490296074
 20
145.7007025552
  0
SEQEND
  0
POLYLINE
  8
0
 62
7
  6
CONTINUOUS
 66
1
 70
0
  0
VERTEX
  8
0
 62
7
  6
CONTINUOUS
 10
39.6341914502
 20
145.1902025329
  0
VERTEX
  8
0
 62
7
  6
CONTINUOUS
 10
39.5206309321
 20
145.2029830669
  0
VERTEX
  8
0
 62
7
  6
CONTINUOUS
 10
39.4123312539
 20
145.2408894957
  0
VERTEX
  8
0
 62
7
  6
CONTINUOUS
 10
39.3159509057
 20
145.3014345225
  0
VERTEX
  8
0
 62
7
  6
CONTINUOUS
 10
39.2347032159
 20
145.3826644807
  0
VERTEX
  8
0
 62
7
  6
CONTINUOUS
 10
39.1741579771
 20
145.479003963
  0
VERTEX
  8
0
 62
7
  6
CONTINUOUS
 10
39.1362590203
 20
145.5872404286
  0
VERTEX
  8
0
 62
7
  6
CONTINUOUS
 10
39.1234853192
 20
145.7007025329
  0
SEQEND
  0
LINE
  8
0
 62
7
  6
CONTINUOUS
 10
53.4243879487
 20
157.4422025329
 11
53.4243879487
 21
147.2322025329
  0
LINE
  8
0
 62
9
  6
CONTINUOUS
 10
53.6372602678
 20
145.1902025329
 11
53.6372602677
 21
147.2322025329
  0
LINE
  8
0
 62
9
  6
CONTINUOUS
 10
53.6372602678
 20
157.4422025329
 11
53.6372602677
 21
159.4842025329
  0
LINE
  8
0
 62
7
  6
CONTINUOUS
 10
39.6341914502
 20
145.1902025329
 11
83.5186469777
 21
145.1902025329
  0
LINE
  8
0
 62
9
  6
CONTINUOUS
 10
84.0293531088
 20
145.7007025329
 11
39.1234853192
 21
145.7007025329
  0
LINE
  8
0
 62
7
  6
CONTINUOUS
 10
47.435569214
 20
150.2740413459
 11
43.862069214
 21
148.210880159
  0
LINE
  8
0
 62
9
  6
CONTINUOUS
 10
39.1234853192
 20
146.7217025329
 11
84.0293531088
 21
146.7217025329
  0
LINE
  8
0
 62
7
  6
CONTINUOUS
 10
39.7690456794
 20
147.2322025329
 11
83.3837928539
 21
147.2322025329
  0
LINE
  8
0
 62
7
  6
CONTINUOUS
 10
47.435569214
 20
154.4003637198
 11
43.862069214
 21
156.4635249068
  0
POLYLINE
  8
0
 62
9
  6
CONTINUOUS
 66
1
 70
0
  0
VERTEX
  8
0
 62
9
  6
CONTINUOUS
 10
39.8593235596
 20
147.2322025329
  0
VERTEX
  8
0
 62
9
  6
CONTINUOUS
 10
39.7602069448
 20
147.2224801397
  0
VERTEX
  8
0
 62
9
  6
CONTINUOUS
 10
39.6648656512
 20
147.193683283
  0
VERTEX
  8
0
 62
9
  6
CONTINUOUS
 10
39.5769311988
 20
147.1469088263
  0
VERTEX
  8
0
 62
9
  6
CONTINUOUS
 10
39.4984912456
 20
147.0826805447
  0
VERTEX
  8
0
 62
9
  6
CONTINUOUS
 10
39.4352772106
 20
147.0056914446
  0
VERTEX
  8
0
 62
9
  6
CONTINUOUS
 10
39.3882149692
 20
146.9178852951
  0
VERTEX
  8
0
 62
9
  6
CONTINUOUS
 10
39.3590971077
 20
146.8226066051
  0
VERTEX
  8
0
 62
9
  6
CONTINUOUS
 10
39.3490296074
 20
146.7217025106
  0
SEQEND
  0
POLYLINE
  8
0
 62
9
  6
CONTINUOUS
 66
1
 70
0
  0
VERTEX
  8
0
 62
9
  6
CONTINUOUS
 10
83.2935148684
 20
147.2322025329
  0
VERTEX
  8
0
 62
9
  6
CONTINUOUS
 10
83.3926314831
 20
147.2224801397
  0
VERTEX
  8
0
 62
9
  6
CONTINUOUS
 10
83.4879727768
 20
147.193683283
  0
VERTEX
  8
0
 62
9
  6
CONTINUOUS
 10
83.5759072291
 20
147.1469088263
  0
VERTEX
  8
0
 62
9
  6
CONTINUOUS
 10
83.6543471823
 20
147.0826805447
  0
VERTEX
  8
0
 62
9
  6
CONTINUOUS
 10
83.7175612174
 20
147.0056914446
  0
VERTEX
  8
0
 62
9
  6
CONTINUOUS
 10
83.7646234587
 20
146.9178852951
  0
VERTEX
  8
0
 62
9
  6
CONTINUOUS
 10
83.7937413203
 20
146.8226066051
  0
VERTEX
  8
0
 62
9
  6
CONTINUOUS
 10
83.8038088205
 20
146.7217025106
  0
SEQEND
  0
POLYLINE
  8
0
 62
7
  6
CONTINUOUS
 66
1
 70
0
  0
VERTEX
  8
0
 62
7
  6
CONTINUOUS
 10
39.7690527658
 20
157.4422025329
  0
VERTEX
  8
0
 62
7
  6
CONTINUOUS
 10
39.4399335124
 20
157.5286897816
  0
VERTEX
  8
0
 62
7
  6
CONTINUOUS
 10
39.225070473
 20
157.7194351964
  0
VERTEX
  8
0
 62
7
  6
CONTINUOUS
 10
39.1234853192
 20
157.9527025329
  0
SEQEND
  0
POLYLINE
  8
0
 62
7
  6
CONTINUOUS
 66
1
 70
0
  0
VERTEX
  8
0
 62
7
  6
CONTINUOUS
 10
83.3837856621
 20
147.2322025329
  0
VERTEX
  8
0
 62
7
  6
CONTINUOUS
 10
83.7129049155
 20
147.1457152841
  0
VERTEX
  8
0
 62
7
  6
CONTINUOUS
 10
83.927767955
 20
146.9549698694
  0
VERTEX
  8
0
 62
7
  6
CONTINUOUS
 10
84.0293531088
 20
146.7217025329
  0
SEQEND
  0
POLYLINE
  8
0
 62
9
  6
CONTINUOUS
 66
1
 70
0
  0
VERTEX
  8
0
 62
9
  6
CONTINUOUS
 10
83.2935148684
 20
157.4422025329
  0
VERTEX
  8
0
 62
9
  6
CONTINUOUS
 10
83.3926314831
 20
157.4519249261
  0
VERTEX
  8
0
 62
9
  6
CONTINUOUS
 10
83.4879727768
 20
157.4807217827
  0
VERTEX
  8
0
 62
9
  6
CONTINUOUS
 10
83.5759072291
 20
157.5274962395
  0
VERTEX
  8
0
 62
9
  6
CONTINUOUS
 10
83.6543471823
 20
157.5917245211
  0
VERTEX
  8
0
 62
9
  6
CONTINUOUS
 10
83.7175612174
 20
157.6687136212
  0
VERTEX
  8
0
 62
9
  6
CONTINUOUS
 10
83.7646234587
 20
157.7565197707
  0
VERTEX
  8
0
 62
9
  6
CONTINUOUS
 10
83.7937413203
 20
157.8517984606
  0
VERTEX
  8
0
 62
9
  6
CONTINUOUS
 10
83.8038088205
 20
157.9527025552
  0
SEQEND
  0
POLYLINE
  8
0
 62
9
  6
CONTINUOUS
 66
1
 70
0
  0
VERTEX
  8
0
 62
9
  6
CONTINUOUS
 10
39.8593235596
 20
157.4422025329
  0
VERTEX
  8
0
 62
9
  6
CONTINUOUS
 10
39.7602069448
 20
157.4519249261
  0
VERTEX
  8
0
 62
9
  6
CONTINUOUS
 10
39.6648656512
 20
157.4807217827
  0
VERTEX
  8
0
 62
9
  6
CONTINUOUS
 10
39.5769311988
 20
157.5274962395
  0
VERTEX
  8
0
 62
9
  6
CONTINUOUS
 10
39.4984912456
 20
157.5917245211
  0
VERTEX
  8
0
 62
9
  6
CONTINUOUS
 10
39.4352772106
 20
157.6687136212
  0
VERTEX
  8
0
 62
9
  6
CONTINUOUS
 10
39.3882149692
 20
157.7565197707
  0
VERTEX
  8
0
 62
9
  6
CONTINUOUS
 10
39.3590971077
 20
157.8517984606
  0
VERTEX
  8
0
 62
9
  6
CONTINUOUS
 10
39.3490296074
 20
157.9527025552
  0
SEQEND
  0
LINE
  8
0
 62
7
  6
CONTINUOUS
 10
39.7690454604
 20
157.4422025329
 11
83.3837928541
 21
157.4422025329
  0
LINE
  8
0
 62
9
  6
CONTINUOUS
 10
84.0293531088
 20
157.9527025329
 11
39.1234853192
 21
157.9527025329
  0
LINE
  8
0
 62
9
  6
CONTINUOUS
 10
69.5155781602
 20
145.1902025329
 11
69.5155781602
 21
147.2322025329
  0
LINE
  8
0
 62
9
  6
CONTINUOUS
 10
69.5155781602
 20
157.4422025329
 11
69.5155781602
 21
159.4842025329
  0
LINE
  8
0
 62
9
  6
CONTINUOUS
 10
39.1234853192
 20
158.9737025329
 11
84.0293531088
 21
158.9737025329
  0
LINE
  8
0
 62
7
  6
CONTINUOUS
 10
39.6341914502
 20
159.4842025329
 11
83.5186469777
 21
159.4842025329
  0
LINE
  8
0
 62
7
  6
CONTINUOUS
 10
69.7284504792
 20
157.4422025329
 11
69.7284504792
 21
147.2322025329
  0
POLYLINE
  8
0
 62
9
  6
CONTINUOUS
 66
1
 70
0
  0
VERTEX
  8
0
 62
9
  6
CONTINUOUS
 10
39.8593235596
 20
159.4842025329
  0
VERTEX
  8
0
 62
9
  6
CONTINUOUS
 10
39.7602069448
 20
159.4744801397
  0
VERTEX
  8
0
 62
9
  6
CONTINUOUS
 10
39.6648656512
 20
159.445683283
  0
VERTEX
  8
0
 62
9
  6
CONTINUOUS
 10
39.5769311988
 20
159.3989088263
  0
VERTEX
  8
0
 62
9
  6
CONTINUOUS
 10
39.4984912456
 20
159.3346805447
  0
VERTEX
  8
0
 62
9
  6
CONTINUOUS
 10
39.4352772106
 20
159.2576914446
  0
VERTEX
  8
0
 62
9
  6
CONTINUOUS
 10
39.3882149692
 20
159.1698852951
  0
VERTEX
  8
0
 62
9
  6
CONTINUOUS
 10
39.3590971077
 20
159.0746066051
  0
VERTEX
  8
0
 62
9
  6
CONTINUOUS
 10
39.3490296074
 20
158.9737025106
  0
SEQEND
  0
POLYLINE
  8
0
 62
9
  6
CONTINUOUS
 66
1
 70
0
  0
VERTEX
  8
0
 62
9
  6
CONTINUOUS
 10
83.2935148684
 20
159.4842025329
  0
VERTEX
  8
0
 62
9
  6
CONTINUOUS
 10
83.3926314831
 20
159.4744801397
  0
VERTEX
  8
0
 62
9
  6
CONTINUOUS
 10
83.4879727768
 20
159.445683283
  0
VERTEX
  8
0
 62
9
  6
CONTINUOUS
 10
83.5759072291
 20
159.3989088263
  0
VERTEX
  8
0
 62
9
  6
CONTINUOUS
 10
83.6543471823
 20
159.3346805447
  0
VERTEX
  8
0
 62
9
  6
CONTINUOUS
 10
83.7175612174
 20
159.2576914446
  0
VERTEX
  8
0
 62
9
  6
CONTINUOUS
 10
83.7646234587
 20
159.1698852951
  0
VERTEX
  8
0
 62
9
  6
CONTINUOUS
 10
83.7937413203
 20
159.0746066051
  0
VERTEX
  8
0
 62
9
  6
CONTINUOUS
 10
83.8038088205
 20
158.9737025106
  0
SEQEND
  0
POLYLINE
  8
0
 62
7
  6
CONTINUOUS
 66
1
 70
0
  0
VERTEX
  8
0
 62
7
  6
CONTINUOUS
 10
83.5186469777
 20
159.4842025329
  0
VERTEX
  8
0
 62
7
  6
CONTINUOUS
 10
83.6322074959
 20
159.4714219988
  0
VERTEX
  8
0
 62
7
  6
CONTINUOUS
 10
83.740507174
 20
159.4335155701
  0
VERTEX
  8
0
 62
7
  6
CONTINUOUS
 10
83.8368875223
 20
159.3729705433
  0
VERTEX
  8
0
 62
7
  6
CONTINUOUS
 10
83.9181352121
 20
159.291740585
  0
VERTEX
  8
0
 62
7
  6
CONTINUOUS
 10
83.9786804508
 20
159.1954011027
  0
VERTEX
  8
0
 62
7
  6
CONTINUOUS
 10
84.0165794077
 20
159.0871646371
  0
VERTEX
  8
0
 62
7
  6
CONTINUOUS
 10
84.0293531088
 20
158.9737025329
  0
SEQEND
  0
LINE
  8
0
 62
9
  6
CONTINUOUS
 10
74.0414522612
 20
145.1902025329
 11
74.0414522612
 21
159.4842025329
  0
LINE
  8
0
 62
9
  6
CONTINUOUS
 10
74.5518745095
 20
145.1902025329
 11
74.5518745095
 21
159.4842025329
  0
LINE
  8
0
 62
7
  6
CONTINUOUS
 10
74.7583152911
 20
159.4842025329
 11
74.7583152911
 21
145.1902025329
  0
POLYLINE
  8
0
 62
7
  6
CONTINUOUS
 66
1
 70
0
  0
VERTEX
  8
0
 62
7
  6
CONTINUOUS
 10
84.0293531088
 20
157.9527025329
  0
VERTEX
  8
0
 62
7
  6
CONTINUOUS
 10
83.927767955
 20
157.7194351964
  0
VERTEX
  8
0
 62
7
  6
CONTINUOUS
 10
83.7129049155
 20
157.5286897816
  0
VERTEX
  8
0
 62
7
  6
CONTINUOUS
 10
83.3837856621
 20
157.4422025329
  0
SEQEND
  0
LINE
  8
0
 62
9
  6
CONTINUOUS
 10
83.8038088205
 20
158.9737025329
 11
83.8038088205
 21
157.9527025329
  0
LINE
  8
0
 62
9
  6
CONTINUOUS
 10
83.8038088205
 20
145.7007025329
 11
83.8038088205
 21
146.7217025329
  0
LINE
  8
0
 62
7
  6
CONTINUOUS
 10
84.0293531088
 20
145.7007025329
 11
84.0293531088
 21
158.9737025329
  0
POLYLINE
  8
0
 62
7
  6
CONTINUOUS
 66
1
 70
0
  0
VERTEX
  8
0
 62
7
  6
CONTINUOUS
 10
84.0293531088
 20
145.7007025329
  0
VERTEX
  8
0
 62
7
  6
CONTINUOUS
 10
84.0165794077
 20
145.5872404286
  0
VERTEX
  8
0
 62
7
  6
CONTINUOUS
 10
83.9786804508
 20
145.479003963
  0
VERTEX
  8
0
 62
7
  6
CONTINUOUS
 10
83.9181352121
 20
145.3826644807
  0
VERTEX
  8
0
 62
7
  6
CONTINUOUS
 10
83.8368875223
 20
145.3014345225
  0
VERTEX
  8
0
 62
7
  6
CONTINUOUS
 10
83.740507174
 20
145.2408894957
  0
VERTEX
  8
0
 62
7
  6
CONTINUOUS
 10
83.6322074959
 20
145.2029830669
  0
VERTEX
  8
0
 62
7
  6
CONTINUOUS
 10
83.5186469777
 20
145.1902025329
  0
SEQEND
  0
POLYLINE
  8
0
 62
7
  6
CONTINUOUS
 66
1
 70
0
  0
VERTEX
  8
0
 62
7
  6
CONTINUOUS
 10
136.5851675728
 20
179.089961966
  0
VERTEX
  8
0
 62
7
  6
CONTINUOUS
 10
136.5011457507
 20
179.1238395906
  0
VERTEX
  8
0
 62
7
  6
CONTINUOUS
 10
136.434089763
 20
179.1751952783
  0
VERTEX
  8
0
 62
7
  6
CONTINUOUS
 10
136.3864419972
 20
179.2441608812
  0
SEQEND
  0
LINE
  8
0
 62
7
  6
CONTINUOUS
 10
136.5851675728
 20
179.089961966
 11
147.1752436126
 21
176.2332703794
  0
POLYLINE
  8
0
 62
9
  6
CONTINUOUS
 66
1
 70
0
  0
VERTEX
  8
0
 62
9
  6
CONTINUOUS
 10
133.9428273531
 20
184.4624809579
  0
VERTEX
  8
0
 62
9
  6
CONTINUOUS
 10
133.9723655825
 20
184.4147050865
  0
VERTEX
  8
0
 62
9
  6
CONTINUOUS
 10
134.0441701224
 20
184.3513838454
  0
VERTEX
  8
0
 62
9
  6
CONTINUOUS
 10
134.1405747763
 20
184.3103873644
  0
SEQEND
  0
LINE
  8
0
 62
7
  6
CONTINUOUS
 10
136.3864136688
 20
179.2442048983
 11
133.9428273531
 21
184.4624809579
  0
LINE
  8
0
 62
9
  6
CONTINUOUS
 10
136.5851675728
 20
179.089961966
 11
134.1405747763
 21
184.3103873644
  0
LINE
  8
0
 62
9
  6
CONTINUOUS
 10
134.9551960101
 20
184.0906418577
 11
137.3997888067
 21
178.8702164594
  0
POLYLINE
  8
0
 62
9
  6
CONTINUOUS
 66
1
 70
0
  0
VERTEX
  8
0
 62
9
  6
CONTINUOUS
 10
134.1405747763
 20
184.3103873644
  0
VERTEX
  8
0
 62
9
  6
CONTINUOUS
 10
133.7068285596
 20
185.3909202447
  0
VERTEX
  8
0
 62
9
  6
CONTINUOUS
 10
133.3631066858
 20
186.5912304872
  0
VERTEX
  8
0
 62
9
  6
CONTINUOUS
 10
133.1164815486
 20
187.896286518
  0
VERTEX
  8
0
 62
9
  6
CONTINUOUS
 10
132.9720503929
 20
189.2878458259
  0
VERTEX
  8
0
 62
9
  6
CONTINUOUS
 10
132.9325565737
 20
190.7454698191
  0
VERTEX
  8
0
 62
9
  6
CONTINUOUS
 10
132.9984704632
 20
192.2493208218
  0
VERTEX
  8
0
 62
9
  6
CONTINUOUS
 10
133.1687926466
 20
193.781508283
  0
VERTEX
  8
0
 62
9
  6
CONTINUOUS
 10
133.4414508591
 20
195.32407244
  0
VERTEX
  8
0
 62
9
  6
CONTINUOUS
 10
133.8133286848
 20
196.8589461211
  0
VERTEX
  8
0
 62
9
  6
CONTINUOUS
 10
134.2802194456
 20
198.3678965269
  0
VERTEX
  8
0
 62
9
  6
CONTINUOUS
 10
134.8358244683
 20
199.8303731335
  0
VERTEX
  8
0
 62
9
  6
CONTINUOUS
 10
135.4713300423
 20
201.2247597243
  0
VERTEX
  8
0
 62
9
  6
CONTINUOUS
 10
136.1761487326
 20
202.5312384467
  0
VERTEX
  8
0
 62
9
  6
CONTINUOUS
 10
136.938611878
 20
203.732908808
  0
SEQEND
  0
POLYLINE
  8
0
 62
7
  6
CONTINUOUS
 66
1
 70
0
  0
VERTEX
  8
0
 62
7
  6
CONTINUOUS
 10
140.498537838
 20
181.9781488439
  0
VERTEX
  8
0
 62
7
  6
CONTINUOUS
 10
140.2939768704
 20
182.0557588603
  0
VERTEX
  8
0
 62
7
  6
CONTINUOUS
 10
140.0668477265
 20
182.1896698519
  0
VERTEX
  8
0
 62
7
  6
CONTINUOUS
 10
139.8302969692
 20
182.3757279259
  0
VERTEX
  8
0
 62
7
  6
CONTINUOUS
 10
139.5887291693
 20
182.6093433582
  0
VERTEX
  8
0
 62
7
  6
CONTINUOUS
 10
139.3394849326
 20
182.892743471
  0
VERTEX
  8
0
 62
7
  6
CONTINUOUS
 10
139.0832460741
 20
183.2268897358
  0
VERTEX
  8
0
 62
7
  6
CONTINUOUS
 10
138.8231763134
 20
183.610379355
  0
VERTEX
  8
0
 62
7
  6
CONTINUOUS
 10
138.5625666521
 20
184.0418926503
  0
VERTEX
  8
0
 62
7
  6
CONTINUOUS
 10
138.2980732032
 20
184.5338790237
  0
SEQEND
  0
LINE
  8
0
 62
9
  6
CONTINUOUS
 10
135.6270804153
 20
184.3493559944
 11
136.6055022867
 21
182.259937096
  0
LINE
  8
0
 62
9
  6
CONTINUOUS
 10
144.7306508161
 20
181.4536957778
 11
143.9160295822
 21
181.6734412844
  0
LINE
  8
0
 62
9
  6
CONTINUOUS
 10
134.1405747763
 20
184.3103873644
 11
134.9551960101
 21
184.0906418577
  0
POLYLINE
  8
0
 62
7
  6
CONTINUOUS
 66
1
 70
0
  0
VERTEX
  8
0
 62
7
  6
CONTINUOUS
 10
138.2980732032
 20
184.5338790237
  0
VERTEX
  8
0
 62
7
  6
CONTINUOUS
 10
138.0392787287
 20
185.0781631036
  0
VERTEX
  8
0
 62
7
  6
CONTINUOUS
 10
137.7846298259
 20
185.6922255149
  0
VERTEX
  8
0
 62
7
  6
CONTINUOUS
 10
137.5403796365
 20
186.3858146658
  0
VERTEX
  8
0
 62
7
  6
CONTINUOUS
 10
137.3152992431
 20
187.1754140051
  0
VERTEX
  8
0
 62
7
  6
CONTINUOUS
 10
137.1263349225
 20
188.0751719735
  0
VERTEX
  8
0
 62
7
  6
CONTINUOUS
 10
137.0026839133
 20
189.0756794972
  0
VERTEX
  8
0
 62
7
  6
CONTINUOUS
 10
136.9779077159
 20
190.1123741209
  0
VERTEX
  8
0
 62
7
  6
CONTINUOUS
 10
137.0678871377
 20
191.1145698574
  0
VERTEX
  8
0
 62
7
  6
CONTINUOUS
 10
137.2674376497
 20
192.0246589019
  0
VERTEX
  8
0
 62
7
  6
CONTINUOUS
 10
137.5495279271
 20
192.7932975849
  0
VERTEX
  8
0
 62
7
  6
CONTINUOUS
 10
137.8862711195
 20
193.4187209539
  0
VERTEX
  8
0
 62
7
  6
CONTINUOUS
 10
138.2574987351
 20
193.9153807932
  0
VERTEX
  8
0
 62
7
  6
CONTINUOUS
 10
138.6560312867
 20
194.3042049481
  0
VERTEX
  8
0
 62
7
  6
CONTINUOUS
 10
139.0755153048
 20
194.5948452881
  0
VERTEX
  8
0
 62
7
  6
CONTINUOUS
 10
139.5005299166
 20
194.788283862
  0
VERTEX
  8
0
 62
7
  6
CONTINUOUS
 10
139.9272371369
 20
194.891691112
  0
VERTEX
  8
0
 62
7
  6
CONTINUOUS
 10
140.3493118077
 20
194.9082063824
  0
VERTEX
  8
0
 62
7
  6
CONTINUOUS
 10
140.7551167365
 20
194.8414145749
  0
SEQEND
  0
LINE
  8
0
 62
7
  6
CONTINUOUS
 10
137.125270378
 20
179.9068586938
 11
137.3997888067
 21
178.8702164594
  0
LINE
  8
0
 62
7
  6
CONTINUOUS
 10
136.6054928319
 20
182.2599572868
 11
137.125270378
 21
179.9068586938
  0
POLYLINE
  8
0
 62
7
  6
CONTINUOUS
 66
1
 70
0
  0
VERTEX
  8
0
 62
7
  6
CONTINUOUS
 10
136.6055022867
 20
182.259937096
  0
VERTEX
  8
0
 62
7
  6
CONTINUOUS
 10
136.254101669
 20
184.0264986586
  0
VERTEX
  8
0
 62
7
  6
CONTINUOUS
 10
136.0235219665
 20
185.8934736916
  0
VERTEX
  8
0
 62
7
  6
CONTINUOUS
 10
135.9158968247
 20
187.8436517159
  0
VERTEX
  8
0
 62
7
  6
CONTINUOUS
 10
135.9322117161
 20
189.8591719724
  0
VERTEX
  8
0
 62
7
  6
CONTINUOUS
 10
136.0723171128
 20
191.9215753598
  0
VERTEX
  8
0
 62
7
  6
CONTINUOUS
 10
136.334929858
 20
194.0119734525
  0
VERTEX
  8
0
 62
7
  6
CONTINUOUS
 10
136.7176449152
 20
196.1112214485
  0
VERTEX
  8
0
 62
7
  6
CONTINUOUS
 10
137.2169573876
 20
198.2000934648
  0
VERTEX
  8
0
 62
7
  6
CONTINUOUS
 10
137.828293476
 20
200.259455115
  0
VERTEX
  8
0
 62
7
  6
CONTINUOUS
 10
138.5460579905
 20
202.2704559784
  0
SEQEND
  0
POLYLINE
  8
0
 62
7
  6
CONTINUOUS
 66
1
 70
0
  0
VERTEX
  8
0
 62
7
  6
CONTINUOUS
 10
136.6826571169
 20
203.6971558782
  0
VERTEX
  8
0
 62
7
  6
CONTINUOUS
 10
135.9167549072
 20
202.4886757371
  0
VERTEX
  8
0
 62
7
  6
CONTINUOUS
 10
135.2176650397
 20
201.1891108361
  0
VERTEX
  8
0
 62
7
  6
CONTINUOUS
 10
134.5931644984
 20
199.814184759
  0
VERTEX
  8
0
 62
7
  6
CONTINUOUS
 10
134.049996135
 20
198.3799048908
  0
VERTEX
  8
0
 62
7
  6
CONTINUOUS
 10
133.5940244364
 20
196.9026038018
  0
VERTEX
  8
0
 62
7
  6
CONTINUOUS
 10
133.2303214829
 20
195.3991221782
  0
VERTEX
  8
0
 62
7
  6
CONTINUOUS
 10
132.96306078
 20
193.8865168108
  0
VERTEX
  8
0
 62
7
  6
CONTINUOUS
 10
132.7955050239
 20
192.3820902355
  0
VERTEX
  8
0
 62
7
  6
CONTINUOUS
 10
132.7299249574
 20
190.9028608664
  0
VERTEX
  8
0
 62
7
  6
CONTINUOUS
 10
132.7676449276
 20
189.4656544561
  0
VERTEX
  8
0
 62
7
  6
CONTINUOUS
 10
132.9090274879
 20
188.0869966529
  0
VERTEX
  8
0
 62
7
  6
CONTINUOUS
 10
133.1534444247
 20
186.7830155722
  0
VERTEX
  8
0
 62
7
  6
CONTINUOUS
 10
133.499106197
 20
185.5696755734
  0
VERTEX
  8
0
 62
7
  6
CONTINUOUS
 10
133.9428273531
 20
184.4624809579
  0
SEQEND
  0
LINE
  8
0
 62
7
  6
CONTINUOUS
 10
136.6826571169
 20
203.6971558782
 11
144.7695993976
 21
215.4534724456
  0
POLYLINE
  8
0
 62
9
  6
CONTINUOUS
 66
1
 70
0
  0
VERTEX
  8
0
 62
9
  6
CONTINUOUS
 10
145.0255541587
 20
215.4892253753
  0
VERTEX
  8
0
 62
9
  6
CONTINUOUS
 10
145.8425102613
 20
216.58360048
  0
VERTEX
  8
0
 62
9
  6
CONTINUOUS
 10
146.7118508453
 20
217.5654861037
  0
VERTEX
  8
0
 62
9
  6
CONTINUOUS
 10
147.621923975
 20
218.4179001174
  0
VERTEX
  8
0
 62
9
  6
CONTINUOUS
 10
148.5595522917
 20
219.1261341498
  0
VERTEX
  8
0
 62
9
  6
CONTINUOUS
 10
149.5107923974
 20
219.6787329572
  0
VERTEX
  8
0
 62
9
  6
CONTINUOUS
 10
150.4627168513
 20
220.0682895259
  0
VERTEX
  8
0
 62
9
  6
CONTINUOUS
 10
151.4040605975
 20
220.2905339356
  0
VERTEX
  8
0
 62
9
  6
CONTINUOUS
 10
152.3238104907
 20
220.3429894528
  0
SEQEND
  0
POLYLINE
  8
0
 62
9
  6
CONTINUOUS
 66
1
 70
0
  0
VERTEX
  8
0
 62
9
  6
CONTINUOUS
 10
144.7695993976
 20
215.4534724456
  0
VERTEX
  8
0
 62
9
  6
CONTINUOUS
 10
144.7857650887
 20
215.4717049567
  0
VERTEX
  8
0
 62
9
  6
CONTINUOUS
 10
144.8439568856
 20
215.5006099992
  0
VERTEX
  8
0
 62
9
  6
CONTINUOUS
 10
144.9257444727
 20
215.5065858912
  0
VERTEX
  8
0
 62
9
  6
CONTINUOUS
 10
145.0255541587
 20
215.4892253753
  0
SEQEND
  0
POLYLINE
  8
0
 62
7
  6
CONTINUOUS
 66
1
 70
0
  0
VERTEX
  8
0
 62
7
  6
CONTINUOUS
 10
146.8498350983
 20
214.3419941439
  0
VERTEX
  8
0
 62
7
  6
CONTINUOUS
 10
148.1320773473
 20
215.2384843733
  0
VERTEX
  8
0
 62
7
  6
CONTINUOUS
 10
149.426369102
 20
215.9494113446
  0
VERTEX
  8
0
 62
7
  6
CONTINUOUS
 10
150.720863134
 20
216.4682687264
  0
VERTEX
  8
0
 62
7
  6
CONTINUOUS
 10
152.0037016772
 20
216.790303671
  0
VERTEX
  8
0
 62
7
  6
CONTINUOUS
 10
153.2631359315
 20
216.9125671426
  0
VERTEX
  8
0
 62
7
  6
CONTINUOUS
 10
154.4876314475
 20
216.8339395459
  0
VERTEX
  8
0
 62
7
  6
CONTINUOUS
 10
155.2985375651
 20
216.6649189619
  0
SEQEND
  0
POLYLINE
  8
0
 62
9
  6
CONTINUOUS
 66
1
 70
0
  0
VERTEX
  8
0
 62
9
  6
CONTINUOUS
 10
143.718282159
 20
181.8255348779
  0
VERTEX
  8
0
 62
9
  6
CONTINUOUS
 10
143.7478203884
 20
181.7777590065
  0
VERTEX
  8
0
 62
9
  6
CONTINUOUS
 10
143.8196249283
 20
181.7144377654
  0
VERTEX
  8
0
 62
9
  6
CONTINUOUS
 10
143.9160295822
 20
181.6734412844
  0
SEQEND
  0
POLYLINE
  8
0
 62
7
  6
CONTINUOUS
 66
1
 70
0
  0
VERTEX
  8
0
 62
7
  6
CONTINUOUS
 10
146.3606223788
 20
176.4530158861
  0
VERTEX
  8
0
 62
7
  6
CONTINUOUS
 10
145.7138717749
 20
177.5900684027
  0
VERTEX
  8
0
 62
7
  6
CONTINUOUS
 10
145.4719120072
 20
178.0806852889
  0
SEQEND
  0
POLYLINE
  8
0
 62
9
  6
CONTINUOUS
 66
1
 70
0
  0
VERTEX
  8
0
 62
9
  6
CONTINUOUS
 10
137.7532331118
 20
203.5131633013
  0
VERTEX
  8
0
 62
9
  6
CONTINUOUS
 10
136.9907699664
 20
202.3114929401
  0
VERTEX
  8
0
 62
9
  6
CONTINUOUS
 10
136.2859512761
 20
201.0050142176
  0
VERTEX
  8
0
 62
9
  6
CONTINUOUS
 10
135.6504457021
 20
199.6106276269
  0
VERTEX
  8
0
 62
9
  6
CONTINUOUS
 10
135.0948406795
 20
198.1481510203
  0
VERTEX
  8
0
 62
9
  6
CONTINUOUS
 10
134.6279499186
 20
196.6392006144
  0
VERTEX
  8
0
 62
9
  6
CONTINUOUS
 10
134.256072093
 20
195.1043269334
  0
VERTEX
  8
0
 62
9
  6
CONTINUOUS
 10
133.9834138804
 20
193.5617627763
  0
VERTEX
  8
0
 62
9
  6
CONTINUOUS
 10
133.813091697
 20
192.0295753152
  0
VERTEX
  8
0
 62
9
  6
CONTINUOUS
 10
133.7471778075
 20
190.5257243125
  0
VERTEX
  8
0
 62
9
  6
CONTINUOUS
 10
133.7866716268
 20
189.0681003192
  0
VERTEX
  8
0
 62
9
  6
CONTINUOUS
 10
133.9311027825
 20
187.6765410114
  0
VERTEX
  8
0
 62
9
  6
CONTINUOUS
 10
134.1777279196
 20
186.3714849805
  0
VERTEX
  8
0
 62
9
  6
CONTINUOUS
 10
134.5214497935
 20
185.171174738
  0
VERTEX
  8
0
 62
9
  6
CONTINUOUS
 10
134.9551960101
 20
184.0906418577
  0
SEQEND
  0
POLYLINE
  8
0
 62
9
  6
CONTINUOUS
 66
1
 70
0
  0
VERTEX
  8
0
 62
9
  6
CONTINUOUS
 10
138.3251876205
 20
203.0782159578
  0
VERTEX
  8
0
 62
9
  6
CONTINUOUS
 10
137.5900556401
 20
201.9196342738
  0
VERTEX
  8
0
 62
9
  6
CONTINUOUS
 10
136.9103823357
 20
200.6597916359
  0
VERTEX
  8
0
 62
9
  6
CONTINUOUS
 10
136.2975484358
 20
199.3151733156
  0
VERTEX
  8
0
 62
9
  6
CONTINUOUS
 10
135.7617649718
 20
197.9048902566
  0
VERTEX
  8
0
 62
9
  6
CONTINUOUS
 10
135.3115318284
 20
196.4497887555
  0
VERTEX
  8
0
 62
9
  6
CONTINUOUS
 10
134.9529235726
 20
194.9696873583
  0
VERTEX
  8
0
 62
9
  6
CONTINUOUS
 10
134.6899972145
 20
193.4821699966
  0
VERTEX
  8
0
 62
9
  6
CONTINUOUS
 10
134.5257581003
 20
192.0046604032
  0
VERTEX
  8
0
 62
9
  6
CONTINUOUS
 10
134.4622045151
 20
190.554478409
  0
VERTEX
  8
0
 62
9
  6
CONTINUOUS
 10
134.5003001126
 20
189.1488773386
  0
VERTEX
  8
0
 62
9
  6
CONTINUOUS
 10
134.6395908117
 20
187.8069883221
  0
VERTEX
  8
0
 62
9
  6
CONTINUOUS
 10
134.8774308439
 20
186.5485219977
  0
VERTEX
  8
0
 62
9
  6
CONTINUOUS
 10
135.2089029456
 20
185.3910692011
  0
VERTEX
  8
0
 62
9
  6
CONTINUOUS
 10
135.6270804153
 20
184.3493559944
  0
SEQEND
  0
LINE
  8
0
 62
9
  6
CONTINUOUS
 10
136.938611878
 20
203.732908808
 11
145.0255541587
 21
215.4892253753
  0
LINE
  8
0
 62
9
  6
CONTINUOUS
 10
145.8401753925
 20
215.2694798687
 11
137.7532331118
 21
203.5131633013
  0
LINE
  8
0
 62
9
  6
CONTINUOUS
 10
146.4121299012
 20
214.8345325252
 11
138.3251876205
 21
203.0782159578
  0
POLYLINE
  8
0
 62
9
  6
CONTINUOUS
 66
1
 70
0
  0
VERTEX
  8
0
 62
9
  6
CONTINUOUS
 10
136.6826571169
 20
203.6971558782
  0
VERTEX
  8
0
 62
9
  6
CONTINUOUS
 10
136.6988228581
 20
203.7153884339
  0
VERTEX
  8
0
 62
9
  6
CONTINUOUS
 10
136.7570146684
 20
203.7442934477
  0
VERTEX
  8
0
 62
9
  6
CONTINUOUS
 10
136.8388022376
 20
203.750269321
  0
VERTEX
  8
0
 62
9
  6
CONTINUOUS
 10
136.938611878
 20
203.732908808
  0
SEQEND
  0
LINE
  8
0
 62
7
  6
CONTINUOUS
 10
145.4710932525
 20
178.0824085938
 11
143.718282159
 21
181.8255348779
  0
LINE
  8
0
 62
9
  6
CONTINUOUS
 10
146.3606223788
 20
176.4530158861
 11
143.9160295822
 21
181.6734412844
  0
LINE
  8
0
 62
9
  6
CONTINUOUS
 10
144.7306508161
 20
181.4536957778
 11
147.1752436126
 21
176.2332703794
  0
POLYLINE
  8
0
 62
7
  6
CONTINUOUS
 66
1
 70
0
  0
VERTEX
  8
0
 62
7
  6
CONTINUOUS
 10
141.3880116398
 20
182.2997407509
  0
VERTEX
  8
0
 62
7
  6
CONTINUOUS
 10
141.3306578376
 20
182.5461034414
  0
VERTEX
  8
0
 62
7
  6
CONTINUOUS
 10
141.3356787835
 20
182.8330071001
  0
VERTEX
  8
0
 62
7
  6
CONTINUOUS
 10
141.4077877104
 20
183.1297014687
  0
VERTEX
  8
0
 62
7
  6
CONTINUOUS
 10
141.5445290354
 20
183.4260829764
  0
VERTEX
  8
0
 62
7
  6
CONTINUOUS
 10
141.7412461967
 20
183.7120587063
  0
VERTEX
  8
0
 62
7
  6
CONTINUOUS
 10
141.9912402272
 20
183.9778900981
  0
VERTEX
  8
0
 62
7
  6
CONTINUOUS
 10
142.28599788
 20
184.2145245824
  0
VERTEX
  8
0
 62
7
  6
CONTINUOUS
 10
142.2868064002
 20
184.2150138393
  0
SEQEND
  0
POLYLINE
  8
0
 62
7
  6
CONTINUOUS
 66
1
 70
0
  0
VERTEX
  8
0
 62
7
  6
CONTINUOUS
 10
139.6971012886
 20
182.5045388292
  0
VERTEX
  8
0
 62
7
  6
CONTINUOUS
 10
139.6985781452
 20
182.5677679498
  0
VERTEX
  8
0
 62
7
  6
CONTINUOUS
 10
139.7978354499
 20
183.0282240694
  0
VERTEX
  8
0
 62
7
  6
CONTINUOUS
 10
139.983468941
 20
183.4909526788
  0
VERTEX
  8
0
 62
7
  6
CONTINUOUS
 10
140.2509077059
 20
183.9445598637
  0
VERTEX
  8
0
 62
7
  6
CONTINUOUS
 10
140.5935665146
 20
184.3778763098
  0
VERTEX
  8
0
 62
7
  6
CONTINUOUS
 10
141.00300797
 20
184.7802323282
  0
VERTEX
  8
0
 62
7
  6
CONTINUOUS
 10
141.4691502646
 20
185.1417205783
  0
VERTEX
  8
0
 62
7
  6
CONTINUOUS
 10
141.9805154281
 20
185.4534400198
  0
VERTEX
  8
0
 62
7
  6
CONTINUOUS
 10
142.5245119531
 20
185.7077150853
  0
VERTEX
  8
0
 62
7
  6
CONTINUOUS
 10
142.6535801594
 20
185.7513852548
  0
SEQEND
  0
LINE
  8
0
 62
7
  6
CONTINUOUS
 10
146.8498350983
 20
214.3419941439
 11
138.5460579905
 21
202.2704559784
  0
POLYLINE
  8
0
 62
7
  6
CONTINUOUS
 66
1
 70
0
  0
VERTEX
  8
0
 62
7
  6
CONTINUOUS
 10
153.4487812435
 20
215.9065092536
  0
VERTEX
  8
0
 62
7
  6
CONTINUOUS
 10
153.8788855248
 20
216.3049787724
  0
VERTEX
  8
0
 62
7
  6
CONTINUOUS
 10
154.3296703481
 20
216.5608048147
  0
VERTEX
  8
0
 62
7
  6
CONTINUOUS
 10
154.7969977663
 20
216.677760515
  0
SEQEND
  0
LINE
  8
0
 62
9
  6
CONTINUOUS
 10
145.4025352212
 20
181.7124099144
 11
147.8426605602
 21
176.5015247671
  0
POLYLINE
  8
0
 62
9
  6
CONTINUOUS
 66
1
 70
0
  0
VERTEX
  8
0
 62
9
  6
CONTINUOUS
 10
143.9160295822
 20
181.6734412844
  0
VERTEX
  8
0
 62
9
  6
CONTINUOUS
 10
143.4822833656
 20
182.7539741647
  0
VERTEX
  8
0
 62
9
  6
CONTINUOUS
 10
143.1385614917
 20
183.9542844072
  0
VERTEX
  8
0
 62
9
  6
CONTINUOUS
 10
142.8919363546
 20
185.2593404381
  0
VERTEX
  8
0
 62
9
  6
CONTINUOUS
 10
142.7475051989
 20
186.6508997459
  0
VERTEX
  8
0
 62
9
  6
CONTINUOUS
 10
142.7080113796
 20
188.1085237391
  0
VERTEX
  8
0
 62
9
  6
CONTINUOUS
 10
142.7739252691
 20
189.6123747419
  0
VERTEX
  8
0
 62
9
  6
CONTINUOUS
 10
142.9442474525
 20
191.144562203
  0
VERTEX
  8
0
 62
9
  6
CONTINUOUS
 10
143.2169056651
 20
192.6871263601
  0
VERTEX
  8
0
 62
9
  6
CONTINUOUS
 10
143.5887834907
 20
194.2220000411
  0
VERTEX
  8
0
 62
9
  6
CONTINUOUS
 10
144.0556742516
 20
195.730950447
  0
VERTEX
  8
0
 62
9
  6
CONTINUOUS
 10
144.6112792742
 20
197.1934270536
  0
VERTEX
  8
0
 62
9
  6
CONTINUOUS
 10
145.2467848482
 20
198.5878136443
  0
VERTEX
  8
0
 62
9
  6
CONTINUOUS
 10
145.9516035385
 20
199.8942923668
  0
VERTEX
  8
0
 62
9
  6
CONTINUOUS
 10
146.7140666839
 20
201.095962728
  0
SEQEND
  0
POLYLINE
  8
0
 62
7
  6
CONTINUOUS
 66
1
 70
0
  0
VERTEX
  8
0
 62
7
  6
CONTINUOUS
 10
142.435730274
 20
193.3122061617
  0
VERTEX
  8
0
 62
7
  6
CONTINUOUS
 10
142.6883937927
 20
192.7182070639
  0
VERTEX
  8
0
 62
7
  6
CONTINUOUS
 10
142.8796035383
 20
192.0687884628
  0
VERTEX
  8
0
 62
7
  6
CONTINUOUS
 10
142.8814960162
 20
192.0587917047
  0
SEQEND
  0
POLYLINE
  8
0
 62
7
  6
CONTINUOUS
 66
1
 70
0
  0
VERTEX
  8
0
 62
7
  6
CONTINUOUS
 10
148.1020076952
 20
205.7582097158
  0
VERTEX
  8
0
 62
7
  6
CONTINUOUS
 10
148.2212920889
 20
205.844271995
  0
VERTEX
  8
0
 62
7
  6
CONTINUOUS
 10
148.5585632144
 20
206.1312886743
  0
VERTEX
  8
0
 62
7
  6
CONTINUOUS
 10
148.8470757131
 20
206.4476615257
  0
VERTEX
  8
0
 62
7
  6
CONTINUOUS
 10
149.0789597162
 20
206.7847607225
  0
VERTEX
  8
0
 62
7
  6
CONTINUOUS
 10
149.2478900325
 20
207.1333910773
  0
VERTEX
  8
0
 62
7
  6
CONTINUOUS
 10
149.3492586834
 20
207.484042863
  0
VERTEX
  8
0
 62
7
  6
CONTINUOUS
 10
149.3803005963
 20
207.8271512127
  0
VERTEX
  8
0
 62
7
  6
CONTINUOUS
 10
149.3401690288
 20
208.1533570253
  0
VERTEX
  8
0
 62
7
  6
CONTINUOUS
 10
149.2299586654
 20
208.4537622565
  0
VERTEX
  8
0
 62
7
  6
CONTINUOUS
 10
149.0526757575
 20
208.7201726346
  0
VERTEX
  8
0
 62
7
  6
CONTINUOUS
 10
148.8131561207
 20
208.9453211791
  0
VERTEX
  8
0
 62
7
  6
CONTINUOUS
 10
148.5179332263
 20
209.1230664245
  0
VERTEX
  8
0
 62
7
  6
CONTINUOUS
 10
148.1750599854
 20
209.248559944
  0
SEQEND
  0
POLYLINE
  8
0
 62
7
  6
CONTINUOUS
 66
1
 70
0
  0
VERTEX
  8
0
 62
7
  6
CONTINUOUS
 10
147.1518916393
 20
205.2769946442
  0
VERTEX
  8
0
 62
7
  6
CONTINUOUS
 10
147.4383525256
 20
205.3886091034
  0
VERTEX
  8
0
 62
7
  6
CONTINUOUS
 10
147.8444622137
 20
205.5944405545
  0
VERTEX
  8
0
 62
7
  6
CONTINUOUS
 10
148.1020076952
 20
205.7582097158
  0
SEQEND
  0
POLYLINE
  8
0
 62
9
  6
CONTINUOUS
 66
1
 70
0
  0
VERTEX
  8
0
 62
9
  6
CONTINUOUS
 10
138.3251876205
 20
203.0782159578
  0
VERTEX
  8
0
 62
9
  6
CONTINUOUS
 10
138.2686959053
 20
203.1660952341
  0
VERTEX
  8
0
 62
9
  6
CONTINUOUS
 10
138.188296463
 20
203.2554733486
  0
VERTEX
  8
0
 62
9
  6
CONTINUOUS
 10
138.0894683679
 20
203.3402593304
  0
VERTEX
  8
0
 62
9
  6
CONTINUOUS
 10
137.9789465862
 20
203.414675148
  0
VERTEX
  8
0
 62
9
  6
CONTINUOUS
 10
137.8642629985
 20
203.4736494759
  0
VERTEX
  8
0
 62
9
  6
CONTINUOUS
 10
137.7532331118
 20
203.5131633013
  0
SEQEND
  0
POLYLINE
  8
0
 62
7
  6
CONTINUOUS
 66
1
 70
0
  0
VERTEX
  8
0
 62
7
  6
CONTINUOUS
 10
142.6629710305
 20
185.6598124487
  0
VERTEX
  8
0
 62
7
  6
CONTINUOUS
 10
142.5192460061
 20
185.0416040795
  0
VERTEX
  8
0
 62
7
  6
CONTINUOUS
 10
142.3614963848
 20
184.4565891558
  0
VERTEX
  8
0
 62
7
  6
CONTINUOUS
 10
142.2064174865
 20
183.955006057
  0
VERTEX
  8
0
 62
7
  6
CONTINUOUS
 10
142.0526144681
 20
183.521289507
  0
VERTEX
  8
0
 62
7
  6
CONTINUOUS
 10
141.8996742369
 20
183.1486154119
  0
VERTEX
  8
0
 62
7
  6
CONTINUOUS
 10
141.7464658675
 20
182.8312130322
  0
VERTEX
  8
0
 62
7
  6
CONTINUOUS
 10
141.5907563905
 20
182.5637130379
  0
VERTEX
  8
0
 62
7
  6
CONTINUOUS
 10
141.4287804499
 20
182.3416692001
  0
VERTEX
  8
0
 62
7
  6
CONTINUOUS
 10
141.2570423106
 20
182.1650460946
  0
VERTEX
  8
0
 62
7
  6
CONTINUOUS
 10
141.07580149
 20
182.0389715565
  0
VERTEX
  8
0
 62
7
  6
CONTINUOUS
 10
140.8831209202
 20
181.9658898574
  0
VERTEX
  8
0
 62
7
  6
CONTINUOUS
 10
140.6848930442
 20
181.9483114727
  0
VERTEX
  8
0
 62
7
  6
CONTINUOUS
 10
140.498537838
 20
181.9781488439
  0
SEQEND
  0
POLYLINE
  8
0
 62
7
  6
CONTINUOUS
 66
1
 70
0
  0
VERTEX
  8
0
 62
7
  6
CONTINUOUS
 10
146.4581119228
 20
201.0602097982
  0
VERTEX
  8
0
 62
7
  6
CONTINUOUS
 10
145.6922097131
 20
199.8517296572
  0
VERTEX
  8
0
 62
7
  6
CONTINUOUS
 10
144.9931198456
 20
198.5521647561
  0
VERTEX
  8
0
 62
7
  6
CONTINUOUS
 10
144.3686193044
 20
197.177238679
  0
VERTEX
  8
0
 62
7
  6
CONTINUOUS
 10
143.8254509409
 20
195.7429588108
  0
VERTEX
  8
0
 62
7
  6
CONTINUOUS
 10
143.3694792423
 20
194.2656577218
  0
VERTEX
  8
0
 62
7
  6
CONTINUOUS
 10
143.0057762889
 20
192.7621760983
  0
VERTEX
  8
0
 62
7
  6
CONTINUOUS
 10
142.738515586
 20
191.2495707308
  0
VERTEX
  8
0
 62
7
  6
CONTINUOUS
 10
142.5709598298
 20
189.7451441555
  0
VERTEX
  8
0
 62
7
  6
CONTINUOUS
 10
142.5053797634
 20
188.2659147864
  0
VERTEX
  8
0
 62
7
  6
CONTINUOUS
 10
142.5430997335
 20
186.8287083761
  0
VERTEX
  8
0
 62
7
  6
CONTINUOUS
 10
142.6844822938
 20
185.4500505729
  0
VERTEX
  8
0
 62
7
  6
CONTINUOUS
 10
142.9288992307
 20
184.1460694922
  0
VERTEX
  8
0
 62
7
  6
CONTINUOUS
 10
143.274561003
 20
182.9327294935
  0
VERTEX
  8
0
 62
7
  6
CONTINUOUS
 10
143.718282159
 20
181.8255348779
  0
SEQEND
  0
LINE
  8
0
 62
7
  6
CONTINUOUS
 10
146.4581119228
 20
201.0602097982
 11
154.5450542035
 21
212.8165263656
  0
POLYLINE
  8
0
 62
9
  6
CONTINUOUS
 66
1
 70
0
  0
VERTEX
  8
0
 62
9
  6
CONTINUOUS
 10
154.8010089646
 20
212.8522792954
  0
VERTEX
  8
0
 62
9
  6
CONTINUOUS
 10
155.6179650672
 20
213.9466544
  0
VERTEX
  8
0
 62
9
  6
CONTINUOUS
 10
156.4873056512
 20
214.9285400238
  0
VERTEX
  8
0
 62
9
  6
CONTINUOUS
 10
157.3973787809
 20
215.7809540374
  0
VERTEX
  8
0
 62
9
  6
CONTINUOUS
 10
158.3350070976
 20
216.4891880698
  0
VERTEX
  8
0
 62
9
  6
CONTINUOUS
 10
159.2862472033
 20
217.0417868773
  0
VERTEX
  8
0
 62
9
  6
CONTINUOUS
 10
160.2381716572
 20
217.431343446
  0
VERTEX
  8
0
 62
9
  6
CONTINUOUS
 10
161.1795154034
 20
217.6535878557
  0
VERTEX
  8
0
 62
9
  6
CONTINUOUS
 10
162.0992652967
 20
217.7060433728
  0
SEQEND
  0
POLYLINE
  8
0
 62
9
  6
CONTINUOUS
 66
1
 70
0
  0
VERTEX
  8
0
 62
9
  6
CONTINUOUS
 10
154.5450542035
 20
212.8165263656
  0
VERTEX
  8
0
 62
9
  6
CONTINUOUS
 10
154.5612198946
 20
212.8347588768
  0
VERTEX
  8
0
 62
9
  6
CONTINUOUS
 10
154.6194116915
 20
212.8636639192
  0
VERTEX
  8
0
 62
9
  6
CONTINUOUS
 10
154.7011992787
 20
212.8696398113
  0
VERTEX
  8
0
 62
9
  6
CONTINUOUS
 10
154.8010089646
 20
212.8522792954
  0
SEQEND
  0
POLYLINE
  8
0
 62
9
  6
CONTINUOUS
 66
1
 70
0
  0
VERTEX
  8
0
 62
9
  6
CONTINUOUS
 10
146.4581119228
 20
201.0602097982
  0
VERTEX
  8
0
 62
9
  6
CONTINUOUS
 10
146.4742776641
 20
201.0784423539
  0
VERTEX
  8
0
 62
9
  6
CONTINUOUS
 10
146.5324694744
 20
201.1073473677
  0
VERTEX
  8
0
 62
9
  6
CONTINUOUS
 10
146.6142570436
 20
201.113323241
  0
VERTEX
  8
0
 62
9
  6
CONTINUOUS
 10
146.7140666839
 20
201.095962728
  0
SEQEND
  0
POLYLINE
  8
0
 62
7
  6
CONTINUOUS
 66
1
 70
0
  0
VERTEX
  8
0
 62
7
  6
CONTINUOUS
 10
140.7551167365
 20
194.8414145749
  0
VERTEX
  8
0
 62
7
  6
CONTINUOUS
 10
141.1446938513
 20
194.6935638439
  0
VERTEX
  8
0
 62
7
  6
CONTINUOUS
 10
141.5167446018
 20
194.462628953
  0
VERTEX
  8
0
 62
7
  6
CONTINUOUS
 10
141.8610828216
 20
194.1509852303
  0
VERTEX
  8
0
 62
7
  6
CONTINUOUS
 10
142.173746267
 20
193.7581229016
  0
VERTEX
  8
0
 62
7
  6
CONTINUOUS
 10
142.435730274
 20
193.3122061617
  0
SEQEND
  0
LINE
  8
0
 62
7
  6
CONTINUOUS
 10
152.3043609235
 20
182.987679865
 11
148.5951231818
 21
190.6716788458
  0
POLYLINE
  8
0
 62
9
  6
CONTINUOUS
 66
1
 70
0
  0
VERTEX
  8
0
 62
9
  6
CONTINUOUS
 10
147.5286879177
 20
200.8762172213
  0
VERTEX
  8
0
 62
9
  6
CONTINUOUS
 10
146.7662247724
 20
199.6745468601
  0
VERTEX
  8
0
 62
9
  6
CONTINUOUS
 10
146.061406082
 20
198.3680681376
  0
VERTEX
  8
0
 62
9
  6
CONTINUOUS
 10
145.4259005081
 20
196.9736815469
  0
VERTEX
  8
0
 62
9
  6
CONTINUOUS
 10
144.8702954854
 20
195.5112049403
  0
VERTEX
  8
0
 62
9
  6
CONTINUOUS
 10
144.4034047245
 20
194.0022545345
  0
VERTEX
  8
0
 62
9
  6
CONTINUOUS
 10
144.0315268989
 20
192.4673808534
  0
VERTEX
  8
0
 62
9
  6
CONTINUOUS
 10
143.7588686864
 20
190.9248166963
  0
VERTEX
  8
0
 62
9
  6
CONTINUOUS
 10
143.5885465029
 20
189.3926292352
  0
VERTEX
  8
0
 62
9
  6
CONTINUOUS
 10
143.5226326135
 20
187.8887782325
  0
VERTEX
  8
0
 62
9
  6
CONTINUOUS
 10
143.5621264327
 20
186.4311542392
  0
VERTEX
  8
0
 62
9
  6
CONTINUOUS
 10
143.7065575884
 20
185.0395949314
  0
VERTEX
  8
0
 62
9
  6
CONTINUOUS
 10
143.9531827256
 20
183.7345389005
  0
VERTEX
  8
0
 62
9
  6
CONTINUOUS
 10
144.2969045994
 20
182.534228658
  0
VERTEX
  8
0
 62
9
  6
CONTINUOUS
 10
144.7306508161
 20
181.4536957778
  0
SEQEND
  0
POLYLINE
  8
0
 62
9
  6
CONTINUOUS
 66
1
 70
0
  0
VERTEX
  8
0
 62
9
  6
CONTINUOUS
 10
148.1006424264
 20
200.4412698778
  0
VERTEX
  8
0
 62
9
  6
CONTINUOUS
 10
147.3655104461
 20
199.2826881938
  0
VERTEX
  8
0
 62
9
  6
CONTINUOUS
 10
146.6858371416
 20
198.0228455559
  0
VERTEX
  8
0
 62
9
  6
CONTINUOUS
 10
146.0730032418
 20
196.6782272357
  0
VERTEX
  8
0
 62
9
  6
CONTINUOUS
 10
145.5372197777
 20
195.2679441767
  0
VERTEX
  8
0
 62
9
  6
CONTINUOUS
 10
145.0869866343
 20
193.8128426755
  0
VERTEX
  8
0
 62
9
  6
CONTINUOUS
 10
144.7283783785
 20
192.3327412783
  0
VERTEX
  8
0
 62
9
  6
CONTINUOUS
 10
144.4654520204
 20
190.8452239166
  0
VERTEX
  8
0
 62
9
  6
CONTINUOUS
 10
144.3012129063
 20
189.3677143232
  0
VERTEX
  8
0
 62
9
  6
CONTINUOUS
 10
144.237659321
 20
187.917532329
  0
VERTEX
  8
0
 62
9
  6
CONTINUOUS
 10
144.2757549185
 20
186.5119312587
  0
VERTEX
  8
0
 62
9
  6
CONTINUOUS
 10
144.4150456176
 20
185.1700422421
  0
VERTEX
  8
0
 62
9
  6
CONTINUOUS
 10
144.6528856499
 20
183.9115759177
  0
VERTEX
  8
0
 62
9
  6
CONTINUOUS
 10
144.9843577516
 20
182.7541231211
  0
VERTEX
  8
0
 62
9
  6
CONTINUOUS
 10
145.4025352212
 20
181.7124099144
  0
SEQEND
  0
LINE
  8
0
 62
9
  6
CONTINUOUS
 10
146.7140666839
 20
201.095962728
 11
154.8010089646
 21
212.8522792954
  0
LINE
  8
0
 62
9
  6
CONTINUOUS
 10
155.6156301985
 20
212.6325337887
 11
147.5286879177
 21
200.8762172213
  0
LINE
  8
0
 62
9
  6
CONTINUOUS
 10
156.1875847071
 20
212.1975864452
 11
148.1006424264
 21
200.4412698778
  0
POLYLINE
  8
0
 62
7
  6
CONTINUOUS
 66
1
 70
0
  0
VERTEX
  8
0
 62
7
  6
CONTINUOUS
 10
148.5951231818
 20
190.6716788458
  0
VERTEX
  8
0
 62
7
  6
CONTINUOUS
 10
148.5629005554
 20
190.7689800628
  0
VERTEX
  8
0
 62
7
  6
CONTINUOUS
 10
148.5503431813
 20
190.8846018159
  0
VERTEX
  8
0
 62
7
  6
CONTINUOUS
 10
148.5582886787
 20
191.0108562198
  0
VERTEX
  8
0
 62
7
  6
CONTINUOUS
 10
148.5862100149
 20
191.1393148039
  0
VERTEX
  8
0
 62
7
  6
CONTINUOUS
 10
148.6322397235
 20
191.2614011913
  0
VERTEX
  8
0
 62
7
  6
CONTINUOUS
 10
148.6933144693
 20
191.3689970563
  0
SEQEND
  0
POLYLINE
  8
0
 62
9
  6
CONTINUOUS
 66
1
 70
0
  0
VERTEX
  8
0
 62
9
  6
CONTINUOUS
 10
157.7484285646
 20
216.5080585933
  0
VERTEX
  8
0
 62
9
  6
CONTINUOUS
 10
157.800605318
 20
216.6119801
  0
VERTEX
  8
0
 62
9
  6
CONTINUOUS
 10
157.8214687968
 20
216.7163071977
  0
VERTEX
  8
0
 62
9
  6
CONTINUOUS
 10
157.8095971684
 20
216.813930166
  0
VERTEX
  8
0
 62
9
  6
CONTINUOUS
 10
157.7889362592
 20
216.8630211462
  0
SEQEND
  0
POLYLINE
  8
0
 62
9
  6
CONTINUOUS
 66
1
 70
0
  0
VERTEX
  8
0
 62
9
  6
CONTINUOUS
 10
135.6270804153
 20
184.3493559944
  0
VERTEX
  8
0
 62
9
  6
CONTINUOUS
 10
135.5447249074
 20
184.2577025107
  0
VERTEX
  8
0
 62
9
  6
CONTINUOUS
 10
135.4402242457
 20
184.1797827071
  0
VERTEX
  8
0
 62
9
  6
CONTINUOUS
 10
135.3206999779
 20
184.1209066894
  0
VERTEX
  8
0
 62
9
  6
CONTINUOUS
 10
135.194297485
 20
184.0850867608
  0
VERTEX
  8
0
 62
9
  6
CONTINUOUS
 10
135.0696308883
 20
184.0747639903
  0
VERTEX
  8
0
 62
9
  6
CONTINUOUS
 10
134.9551960101
 20
184.0906418577
  0
SEQEND
  0
POLYLINE
  8
0
 62
9
  6
CONTINUOUS
 66
1
 70
0
  0
VERTEX
  8
0
 62
9
  6
CONTINUOUS
 10
148.1006424264
 20
200.4412698778
  0
VERTEX
  8
0
 62
9
  6
CONTINUOUS
 10
148.0441507113
 20
200.5291491542
  0
VERTEX
  8
0
 62
9
  6
CONTINUOUS
 10
147.9637512689
 20
200.6185272687
  0
VERTEX
  8
0
 62
9
  6
CONTINUOUS
 10
147.8649231739
 20
200.7033132504
  0
VERTEX
  8
0
 62
9
  6
CONTINUOUS
 10
147.7544013922
 20
200.777729068
  0
VERTEX
  8
0
 62
9
  6
CONTINUOUS
 10
147.6397178044
 20
200.836703396
  0
VERTEX
  8
0
 62
9
  6
CONTINUOUS
 10
147.5286879177
 20
200.8762172213
  0
SEQEND
  0
POLYLINE
  8
0
 62
7
  6
CONTINUOUS
 66
1
 70
0
  0
VERTEX
  8
0
 62
7
  6
CONTINUOUS
 10
144.8078428714
 20
205.8863995338
  0
VERTEX
  8
0
 62
7
  6
CONTINUOUS
 10
144.8995643844
 20
205.7352464819
  0
VERTEX
  8
0
 62
7
  6
CONTINUOUS
 10
145.1106924612
 20
205.5087412658
  0
VERTEX
  8
0
 62
7
  6
CONTINUOUS
 10
145.3828475152
 20
205.3312291366
  0
VERTEX
  8
0
 62
7
  6
CONTINUOUS
 10
145.7067616324
 20
205.2087550568
  0
SEQEND
  0
POLYLINE
  8
0
 62
7
  6
CONTINUOUS
 66
1
 70
0
  0
VERTEX
  8
0
 62
7
  6
CONTINUOUS
 10
161.3903776547
 20
209.8272336929
  0
VERTEX
  8
0
 62
7
  6
CONTINUOUS
 10
161.462425678
 20
209.9131638062
  0
VERTEX
  8
0
 62
7
  6
CONTINUOUS
 10
161.5406424936
 20
209.971699639
  0
VERTEX
  8
0
 62
7
  6
CONTINUOUS
 10
161.6198265693
 20
209.998944544
  0
VERTEX
  8
0
 62
7
  6
CONTINUOUS
 10
161.6880315832
 20
209.9950202357
  0
SEQEND
  0
LINE
  8
0
 62
7
  6
CONTINUOUS
 10
161.3903776547
 20
209.8272336929
 11
148.6933144693
 21
191.3689970563
  0
LINE
  8
0
 62
7
  6
CONTINUOUS
 10
145.9579806748
 20
200.2710768339
 11
138.5460579905
 21
202.2704559784
  0
LINE
  8
0
 62
9
  6
CONTINUOUS
 10
147.5286879177
 20
200.8762172213
 11
146.7140666839
 21
201.095962728
  0
LINE
  8
0
 62
9
  6
CONTINUOUS
 10
136.938611878
 20
203.732908808
 11
137.7532331118
 21
203.5131633013
  0
POLYLINE
  8
0
 62
7
  6
CONTINUOUS
 66
1
 70
0
  0
VERTEX
  8
0
 62
7
  6
CONTINUOUS
 10
148.9976927825
 20
208.0084761777
  0
VERTEX
  8
0
 62
7
  6
CONTINUOUS
 10
149.0488826556
 20
207.8918442901
  0
VERTEX
  8
0
 62
7
  6
CONTINUOUS
 10
149.1187106752
 20
207.5918987222
  0
VERTEX
  8
0
 62
7
  6
CONTINUOUS
 10
149.1130774188
 20
207.2700068124
  0
VERTEX
  8
0
 62
7
  6
CONTINUOUS
 10
149.0321747203
 20
206.9371302037
  0
VERTEX
  8
0
 62
7
  6
CONTINUOUS
 10
148.8787576239
 20
206.6046046097
  0
VERTEX
  8
0
 62
7
  6
CONTINUOUS
 10
148.658050565
 20
206.2837537908
  0
VERTEX
  8
0
 62
7
  6
CONTINUOUS
 10
148.3775694576
 20
205.9855039366
  0
VERTEX
  8
0
 62
7
  6
CONTINUOUS
 10
148.0986068087
 20
205.7624632917
  0
SEQEND
  0
POLYLINE
  8
0
 62
7
  6
CONTINUOUS
 66
1
 70
0
  0
VERTEX
  8
0
 62
7
  6
CONTINUOUS
 10
145.3670454417
 20
205.1664351117
  0
VERTEX
  8
0
 62
7
  6
CONTINUOUS
 10
145.7482163411
 20
205.0966164544
  0
VERTEX
  8
0
 62
7
  6
CONTINUOUS
 10
146.1572875504
 20
205.08437713
  0
VERTEX
  8
0
 62
7
  6
CONTINUOUS
 10
146.5831006734
 20
205.1300509955
  0
VERTEX
  8
0
 62
7
  6
CONTINUOUS
 10
147.014040638
 20
205.232392187
  0
VERTEX
  8
0
 62
7
  6
CONTINUOUS
 10
147.1518916393
 20
205.2769946442
  0
SEQEND
  0
POLYLINE
  8
0
 62
9
  6
CONTINUOUS
 66
1
 70
0
  0
VERTEX
  8
0
 62
9
  6
CONTINUOUS
 10
146.4121299012
 20
214.8345325252
  0
VERTEX
  8
0
 62
9
  6
CONTINUOUS
 10
146.3556381536
 20
214.9224118435
  0
VERTEX
  8
0
 62
9
  6
CONTINUOUS
 10
146.2752386799
 20
215.011789978
  0
VERTEX
  8
0
 62
9
  6
CONTINUOUS
 10
146.1764105712
 20
215.0965759567
  0
VERTEX
  8
0
 62
9
  6
CONTINUOUS
 10
146.0658887999
 20
215.1709917551
  0
VERTEX
  8
0
 62
9
  6
CONTINUOUS
 10
145.951205242
 20
215.2299660595
  0
VERTEX
  8
0
 62
9
  6
CONTINUOUS
 10
145.8401753925
 20
215.2694798687
  0
SEQEND
  0
POLYLINE
  8
0
 62
9
  6
CONTINUOUS
 66
1
 70
0
  0
VERTEX
  8
0
 62
9
  6
CONTINUOUS
 10
167.5238833705
 20
213.8711125133
  0
VERTEX
  8
0
 62
9
  6
CONTINUOUS
 10
167.576060124
 20
213.97503402
  0
VERTEX
  8
0
 62
9
  6
CONTINUOUS
 10
167.5969236027
 20
214.0793611177
  0
VERTEX
  8
0
 62
9
  6
CONTINUOUS
 10
167.5850519744
 20
214.1769840861
  0
VERTEX
  8
0
 62
9
  6
CONTINUOUS
 10
167.5643910651
 20
214.2260750662
  0
SEQEND
  0
POLYLINE
  8
0
 62
9
  6
CONTINUOUS
 66
1
 70
0
  0
VERTEX
  8
0
 62
9
  6
CONTINUOUS
 10
145.4025352212
 20
181.7124099144
  0
VERTEX
  8
0
 62
9
  6
CONTINUOUS
 10
145.3201797133
 20
181.6207564308
  0
VERTEX
  8
0
 62
9
  6
CONTINUOUS
 10
145.2156790517
 20
181.5428366272
  0
VERTEX
  8
0
 62
9
  6
CONTINUOUS
 10
145.0961547838
 20
181.4839606094
  0
VERTEX
  8
0
 62
9
  6
CONTINUOUS
 10
144.969752291
 20
181.4481406808
  0
VERTEX
  8
0
 62
9
  6
CONTINUOUS
 10
144.8450856942
 20
181.4378179104
  0
VERTEX
  8
0
 62
9
  6
CONTINUOUS
 10
144.7306508161
 20
181.4536957778
  0
SEQEND
  0
POLYLINE
  8
0
 62
7
  6
CONTINUOUS
 66
1
 70
0
  0
VERTEX
  8
0
 62
7
  6
CONTINUOUS
 10
147.1506528923
 20
205.2814000146
  0
VERTEX
  8
0
 62
7
  6
CONTINUOUS
 10
146.8722413475
 20
205.2031134111
  0
VERTEX
  8
0
 62
7
  6
CONTINUOUS
 10
146.4643580676
 20
205.1435875942
  0
VERTEX
  8
0
 62
7
  6
CONTINUOUS
 10
146.0714043062
 20
205.1454897345
  0
VERTEX
  8
0
 62
7
  6
CONTINUOUS
 10
145.7067616324
 20
205.2087550568
  0
SEQEND
  0
LINE
  8
0
 62
7
  6
CONTINUOUS
 10
165.7316311732
 20
202.5074481793
 11
157.8227815232
 21
204.6408742444
  0
LINE
  8
0
 62
7
  6
CONTINUOUS
 10
147.8426605602
 20
176.5015247671
 11
152.3043609235
 21
182.987679865
  0
LINE
  8
0
 62
7
  6
CONTINUOUS
 10
165.7316311732
 20
202.5074481793
 11
170.1933315365
 21
208.9936032771
  0
POLYLINE
  8
0
 62
7
  6
CONTINUOUS
 66
1
 70
0
  0
VERTEX
  8
0
 62
7
  6
CONTINUOUS
 10
148.0987740215
 20
208.6861206546
  0
VERTEX
  8
0
 62
7
  6
CONTINUOUS
 10
147.7341313477
 20
208.749385977
  0
VERTEX
  8
0
 62
7
  6
CONTINUOUS
 10
147.3411775864
 20
208.7512881173
  0
VERTEX
  8
0
 62
7
  6
CONTINUOUS
 10
146.9332943065
 20
208.6917623004
  0
VERTEX
  8
0
 62
7
  6
CONTINUOUS
 10
146.5243714839
 20
208.5728356066
  0
VERTEX
  8
0
 62
7
  6
CONTINUOUS
 10
146.128334495
 20
208.3985579419
  0
VERTEX
  8
0
 62
7
  6
CONTINUOUS
 10
145.7586699044
 20
208.174864123
  0
VERTEX
  8
0
 62
7
  6
CONTINUOUS
 10
145.4279661963
 20
207.9093717748
  0
VERTEX
  8
0
 62
7
  6
CONTINUOUS
 10
145.1474850889
 20
207.6111219207
  0
VERTEX
  8
0
 62
7
  6
CONTINUOUS
 10
144.92677803
 20
207.2902711017
  0
VERTEX
  8
0
 62
7
  6
CONTINUOUS
 10
144.7733609336
 20
206.9577455077
  0
VERTEX
  8
0
 62
7
  6
CONTINUOUS
 10
144.6924582351
 20
206.624868899
  0
VERTEX
  8
0
 62
7
  6
CONTINUOUS
 10
144.6868249787
 20
206.3029769893
  0
VERTEX
  8
0
 62
7
  6
CONTINUOUS
 10
144.7566529983
 20
206.0030314214
  0
VERTEX
  8
0
 62
7
  6
CONTINUOUS
 10
144.8078428714
 20
205.8863995338
  0
SEQEND
  0
POLYLINE
  8
0
 62
7
  6
CONTINUOUS
 66
1
 70
0
  0
VERTEX
  8
0
 62
7
  6
CONTINUOUS
 10
148.0987740215
 20
208.6861206546
  0
VERTEX
  8
0
 62
7
  6
CONTINUOUS
 10
148.4226881387
 20
208.5636465749
  0
VERTEX
  8
0
 62
7
  6
CONTINUOUS
 10
148.6948431927
 20
208.3861344456
  0
VERTEX
  8
0
 62
7
  6
CONTINUOUS
 10
148.9059712695
 20
208.1596292295
  0
VERTEX
  8
0
 62
7
  6
CONTINUOUS
 10
148.9976927825
 20
208.0084761777
  0
SEQEND
  0
POLYLINE
  8
0
 62
7
  6
CONTINUOUS
 66
1
 70
0
  0
VERTEX
  8
0
 62
7
  6
CONTINUOUS
 10
147.8426605602
 20
176.5015247671
  0
VERTEX
  8
0
 62
7
  6
CONTINUOUS
 10
147.7746262118
 20
176.4201951882
  0
VERTEX
  8
0
 62
7
  6
CONTINUOUS
 10
147.689224149
 20
176.3481684784
  0
VERTEX
  8
0
 62
7
  6
CONTINUOUS
 10
147.5918301186
 20
176.2898392577
  0
VERTEX
  8
0
 62
7
  6
CONTINUOUS
 10
147.4856394562
 20
176.2471661969
  0
VERTEX
  8
0
 62
7
  6
CONTINUOUS
 10
147.3779373257
 20
176.2230732028
  0
VERTEX
  8
0
 62
7
  6
CONTINUOUS
 10
147.2722769117
 20
176.2183080675
  0
VERTEX
  8
0
 62
7
  6
CONTINUOUS
 10
147.1752436126
 20
176.2332703794
  0
SEQEND
  0
POLYLINE
  8
0
 62
7
  6
CONTINUOUS
 66
1
 70
0
  0
VERTEX
  8
0
 62
7
  6
CONTINUOUS
 10
148.1750599854
 20
209.248559944
  0
VERTEX
  8
0
 62
7
  6
CONTINUOUS
 10
147.793889086
 20
209.3183786013
  0
VERTEX
  8
0
 62
7
  6
CONTINUOUS
 10
147.3848178767
 20
209.3306179257
  0
VERTEX
  8
0
 62
7
  6
CONTINUOUS
 10
146.9590047537
 20
209.2849440602
  0
VERTEX
  8
0
 62
7
  6
CONTINUOUS
 10
146.528064789
 20
209.1826028687
  0
VERTEX
  8
0
 62
7
  6
CONTINUOUS
 10
146.1037529015
 20
209.0263859523
  0
VERTEX
  8
0
 62
7
  6
CONTINUOUS
 10
145.6976432134
 20
208.8205545012
  0
VERTEX
  8
0
 62
7
  6
CONTINUOUS
 10
145.3208133382
 20
208.5707230607
  0
VERTEX
  8
0
 62
7
  6
CONTINUOUS
 10
144.9835422127
 20
208.2837063814
  0
VERTEX
  8
0
 62
7
  6
CONTINUOUS
 10
144.695029714
 20
207.96733353
  0
VERTEX
  8
0
 62
7
  6
CONTINUOUS
 10
144.4631457109
 20
207.6302343332
  0
VERTEX
  8
0
 62
7
  6
CONTINUOUS
 10
144.2942153945
 20
207.2816039784
  0
VERTEX
  8
0
 62
7
  6
CONTINUOUS
 10
144.1928467437
 20
206.9309521927
  0
VERTEX
  8
0
 62
7
  6
CONTINUOUS
 10
144.1618048307
 20
206.5878438429
  0
VERTEX
  8
0
 62
7
  6
CONTINUOUS
 10
144.2019363983
 20
206.2616380304
  0
VERTEX
  8
0
 62
7
  6
CONTINUOUS
 10
144.3121467617
 20
205.9612327992
  0
VERTEX
  8
0
 62
7
  6
CONTINUOUS
 10
144.4894296696
 20
205.6948224211
  0
VERTEX
  8
0
 62
7
  6
CONTINUOUS
 10
144.7289493064
 20
205.4696738766
  0
VERTEX
  8
0
 62
7
  6
CONTINUOUS
 10
145.0241722007
 20
205.2919286312
  0
VERTEX
  8
0
 62
7
  6
CONTINUOUS
 10
145.3670454417
 20
205.1664351117
  0
SEQEND
  0
POLYLINE
  8
0
 62
9
  6
CONTINUOUS
 66
1
 70
0
  0
VERTEX
  8
0
 62
9
  6
CONTINUOUS
 10
156.1875847071
 20
212.1975864452
  0
VERTEX
  8
0
 62
9
  6
CONTINUOUS
 10
156.1310929596
 20
212.2854657635
  0
VERTEX
  8
0
 62
9
  6
CONTINUOUS
 10
156.0506934858
 20
212.3748438981
  0
VERTEX
  8
0
 62
9
  6
CONTINUOUS
 10
155.9518653771
 20
212.4596298767
  0
VERTEX
  8
0
 62
9
  6
CONTINUOUS
 10
155.8413436058
 20
212.5340456751
  0
VERTEX
  8
0
 62
9
  6
CONTINUOUS
 10
155.726660048
 20
212.5930199796
  0
VERTEX
  8
0
 62
9
  6
CONTINUOUS
 10
155.6156301985
 20
212.6325337887
  0
SEQEND
  0
LINE
  8
0
 62
7
  6
CONTINUOUS
 10
155.4627821596
 20
215.3632289739
 11
154.7969977663
 21
216.677760515
  0
LINE
  8
0
 62
9
  6
CONTINUOUS
 10
161.5281475878
 20
209.9623487122
 11
161.8121098616
 21
209.8857493908
  0
LINE
  8
0
 62
7
  6
CONTINUOUS
 10
154.2257426256
 20
212.3523301512
 11
146.8498350983
 21
214.3419941439
  0
LINE
  8
0
 62
9
  6
CONTINUOUS
 10
155.6156301985
 20
212.6325337887
 11
154.8010089646
 21
212.8522792954
  0
LINE
  8
0
 62
9
  6
CONTINUOUS
 10
145.0255541587
 20
215.4892253753
 11
145.8401753925
 21
215.2694798687
  0
POLYLINE
  8
0
 62
7
  6
CONTINUOUS
 66
1
 70
0
  0
VERTEX
  8
0
 62
7
  6
CONTINUOUS
 10
161.6880315832
 20
209.9950202357
  0
VERTEX
  8
0
 62
7
  6
CONTINUOUS
 10
161.7602378477
 20
209.9544854948
  0
VERTEX
  8
0
 62
7
  6
CONTINUOUS
 10
161.8121098616
 20
209.8857493908
  0
SEQEND
  0
POLYLINE
  8
0
 62
7
  6
CONTINUOUS
 66
1
 70
0
  0
VERTEX
  8
0
 62
7
  6
CONTINUOUS
 10
157.7889362584
 20
216.8630211476
  0
VERTEX
  8
0
 62
7
  6
CONTINUOUS
 10
157.2042200826
 20
217.784193377
  0
VERTEX
  8
0
 62
7
  6
CONTINUOUS
 10
156.5390420115
 20
218.5621401504
  0
VERTEX
  8
0
 62
7
  6
CONTINUOUS
 10
155.8049783783
 20
219.1876840193
  0
VERTEX
  8
0
 62
7
  6
CONTINUOUS
 10
155.0133573598
 20
219.6566094351
  0
VERTEX
  8
0
 62
7
  6
CONTINUOUS
 10
154.1729687684
 20
219.9680964411
  0
SEQEND
  0
POLYLINE
  8
0
 62
9
  6
CONTINUOUS
 66
1
 70
0
  0
VERTEX
  8
0
 62
9
  6
CONTINUOUS
 10
157.7484285646
 20
216.5080585933
  0
VERTEX
  8
0
 62
9
  6
CONTINUOUS
 10
157.2042262991
 20
217.3664930732
  0
VERTEX
  8
0
 62
9
  6
CONTINUOUS
 10
156.5793699058
 20
218.0972961708
  0
VERTEX
  8
0
 62
9
  6
CONTINUOUS
 10
155.8813482617
 20
218.686694765
  0
VERTEX
  8
0
 62
9
  6
CONTINUOUS
 10
155.1196674126
 20
219.1237709198
  0
VERTEX
  8
0
 62
9
  6
CONTINUOUS
 10
154.305425891
 20
219.4010818244
  0
VERTEX
  8
0
 62
9
  6
CONTINUOUS
 10
153.4497296316
 20
219.514948052
  0
VERTEX
  8
0
 62
9
  6
CONTINUOUS
 10
152.5628007015
 20
219.4643610772
  0
VERTEX
  8
0
 62
9
  6
CONTINUOUS
 10
151.6550485252
 20
219.2500393737
  0
VERTEX
  8
0
 62
9
  6
CONTINUOUS
 10
150.7370938735
 20
218.8743716664
  0
VERTEX
  8
0
 62
9
  6
CONTINUOUS
 10
149.8198006082
 20
218.3414760665
  0
VERTEX
  8
0
 62
9
  6
CONTINUOUS
 10
148.9156358693
 20
217.6584965586
  0
VERTEX
  8
0
 62
9
  6
CONTINUOUS
 10
148.0380464721
 20
216.8364805968
  0
VERTEX
  8
0
 62
9
  6
CONTINUOUS
 10
147.1997396243
 20
215.8896146941
  0
VERTEX
  8
0
 62
9
  6
CONTINUOUS
 10
146.4121299012
 20
214.8345325252
  0
SEQEND
  0
LINE
  8
0
 62
9
  6
CONTINUOUS
 10
157.8616214945
 20
216.3012369856
 11
157.7484285646
 21
216.5080585933
  0
LINE
  8
0
 62
7
  6
CONTINUOUS
 10
158.0360880684
 20
216.4114352164
 11
157.7889362584
 21
216.8630211476
  0
LINE
  8
0
 62
7
  6
CONTINUOUS
 10
165.7316311732
 20
202.5074481793
 11
161.8121098616
 21
209.8857493908
  0
LINE
  8
0
 62
7
  6
CONTINUOUS
 10
156.4527959076
 20
215.0961710289
 11
153.4487812435
 21
215.9065092536
  0
POLYLINE
  8
0
 62
7
  6
CONTINUOUS
 66
1
 70
0
  0
VERTEX
  8
0
 62
7
  6
CONTINUOUS
 10
154.7969977663
 20
216.677760515
  0
VERTEX
  8
0
 62
7
  6
CONTINUOUS
 10
156.0838071278
 20
216.4399314719
  0
VERTEX
  8
0
 62
7
  6
CONTINUOUS
 10
156.6899598867
 20
216.2896069561
  0
SEQEND
  0
LINE
  8
0
 62
7
  6
CONTINUOUS
 10
156.683166409
 20
216.2914471951
 11
155.2984044598
 21
216.6649891597
  0
POLYLINE
  8
0
 62
7
  6
CONTINUOUS
 66
1
 70
0
  0
VERTEX
  8
0
 62
7
  6
CONTINUOUS
 10
156.6899598867
 20
216.2896069561
  0
VERTEX
  8
0
 62
7
  6
CONTINUOUS
 10
157.2905880394
 20
216.1137337674
  0
VERTEX
  8
0
 62
7
  6
CONTINUOUS
 10
157.5190419014
 20
216.0303641081
  0
SEQEND
  0
POLYLINE
  8
0
 62
9
  6
CONTINUOUS
 66
1
 70
0
  0
VERTEX
  8
0
 62
9
  6
CONTINUOUS
 10
162.0992652967
 20
217.7060433728
  0
VERTEX
  8
0
 62
9
  6
CONTINUOUS
 10
162.9866275275
 20
217.5879651361
  0
VERTEX
  8
0
 62
9
  6
CONTINUOUS
 10
163.1337629371
 20
217.5509064967
  0
SEQEND
  0
POLYLINE
  8
0
 62
7
  6
CONTINUOUS
 66
1
 70
0
  0
VERTEX
  8
0
 62
7
  6
CONTINUOUS
 10
163.1338023405
 20
217.5508958678
  0
VERTEX
  8
0
 62
7
  6
CONTINUOUS
 10
162.3104072312
 20
217.6990771684
  0
VERTEX
  8
0
 62
7
  6
CONTINUOUS
 10
161.4540639637
 20
217.7073943333
  0
VERTEX
  8
0
 62
7
  6
CONTINUOUS
 10
160.5711220886
 20
217.5726925287
  0
VERTEX
  8
0
 62
7
  6
CONTINUOUS
 10
159.6709766019
 20
217.292871943
  0
VERTEX
  8
0
 62
7
  6
CONTINUOUS
 10
158.7653217928
 20
216.8688355322
  0
VERTEX
  8
0
 62
7
  6
CONTINUOUS
 10
157.8663129858
 20
216.3049464819
  0
VERTEX
  8
0
 62
7
  6
CONTINUOUS
 10
156.9853026814
 20
215.6083439958
  0
VERTEX
  8
0
 62
7
  6
CONTINUOUS
 10
156.1324154464
 20
214.788024317
  0
VERTEX
  8
0
 62
7
  6
CONTINUOUS
 10
155.3163897941
 20
213.8538896208
  0
VERTEX
  8
0
 62
7
  6
CONTINUOUS
 10
154.5450542035
 20
212.8165263656
  0
SEQEND
  0
POLYLINE
  8
0
 62
9
  6
CONTINUOUS
 66
1
 70
0
  0
VERTEX
  8
0
 62
9
  6
CONTINUOUS
 10
152.3238104907
 20
220.3429894528
  0
VERTEX
  8
0
 62
9
  6
CONTINUOUS
 10
153.2111727216
 20
220.2249112161
  0
VERTEX
  8
0
 62
9
  6
CONTINUOUS
 10
153.3583081312
 20
220.1878525767
  0
SEQEND
  0
POLYLINE
  8
0
 62
7
  6
CONTINUOUS
 66
1
 70
0
  0
VERTEX
  8
0
 62
7
  6
CONTINUOUS
 10
153.3583475346
 20
220.1878419478
  0
VERTEX
  8
0
 62
7
  6
CONTINUOUS
 10
152.5349524253
 20
220.3360232483
  0
VERTEX
  8
0
 62
7
  6
CONTINUOUS
 10
151.6786091578
 20
220.3443404132
  0
VERTEX
  8
0
 62
7
  6
CONTINUOUS
 10
150.7956672827
 20
220.2096386086
  0
VERTEX
  8
0
 62
7
  6
CONTINUOUS
 10
149.895521796
 20
219.929818023
  0
VERTEX
  8
0
 62
7
  6
CONTINUOUS
 10
148.9898669869
 20
219.5057816121
  0
VERTEX
  8
0
 62
7
  6
CONTINUOUS
 10
148.0908581798
 20
218.9418925619
  0
VERTEX
  8
0
 62
7
  6
CONTINUOUS
 10
147.2098478754
 20
218.2452900758
  0
VERTEX
  8
0
 62
7
  6
CONTINUOUS
 10
146.3569606405
 20
217.424970397
  0
VERTEX
  8
0
 62
7
  6
CONTINUOUS
 10
145.5409349881
 20
216.4908357008
  0
VERTEX
  8
0
 62
7
  6
CONTINUOUS
 10
144.7695993976
 20
215.4534724456
  0
SEQEND
  0
POLYLINE
  8
0
 62
9
  6
CONTINUOUS
 66
1
 70
0
  0
VERTEX
  8
0
 62
9
  6
CONTINUOUS
 10
163.9483841709
 20
217.3311609901
  0
VERTEX
  8
0
 62
9
  6
CONTINUOUS
 10
163.8012487614
 20
217.3682196294
  0
VERTEX
  8
0
 62
9
  6
CONTINUOUS
 10
162.9138865305
 20
217.4862978662
  0
VERTEX
  8
0
 62
9
  6
CONTINUOUS
 10
161.9941366372
 20
217.433842349
  0
VERTEX
  8
0
 62
9
  6
CONTINUOUS
 10
161.052792891
 20
217.2115979393
  0
VERTEX
  8
0
 62
9
  6
CONTINUOUS
 10
160.1008684372
 20
216.8220413706
  0
VERTEX
  8
0
 62
9
  6
CONTINUOUS
 10
159.1496283315
 20
216.2694425632
  0
VERTEX
  8
0
 62
9
  6
CONTINUOUS
 10
158.2120000147
 20
215.5612085308
  0
VERTEX
  8
0
 62
9
  6
CONTINUOUS
 10
157.301926885
 20
214.7087945171
  0
VERTEX
  8
0
 62
9
  6
CONTINUOUS
 10
156.432586301
 20
213.7269088933
  0
VERTEX
  8
0
 62
9
  6
CONTINUOUS
 10
155.6156301985
 20
212.6325337887
  0
SEQEND
  0
POLYLINE
  8
0
 62
9
  6
CONTINUOUS
 66
1
 70
0
  0
VERTEX
  8
0
 62
9
  6
CONTINUOUS
 10
154.172929365
 20
219.96810707
  0
VERTEX
  8
0
 62
9
  6
CONTINUOUS
 10
154.0257939554
 20
220.0051657094
  0
VERTEX
  8
0
 62
9
  6
CONTINUOUS
 10
153.1384317246
 20
220.1232439461
  0
VERTEX
  8
0
 62
9
  6
CONTINUOUS
 10
152.2186818313
 20
220.070788429
  0
VERTEX
  8
0
 62
9
  6
CONTINUOUS
 10
151.2773380851
 20
219.8485440193
  0
VERTEX
  8
0
 62
9
  6
CONTINUOUS
 10
150.3254136312
 20
219.4589874506
  0
VERTEX
  8
0
 62
9
  6
CONTINUOUS
 10
149.3741735255
 20
218.9063886431
  0
VERTEX
  8
0
 62
9
  6
CONTINUOUS
 10
148.4365452088
 20
218.1981546107
  0
VERTEX
  8
0
 62
9
  6
CONTINUOUS
 10
147.5264720791
 20
217.3457405971
  0
VERTEX
  8
0
 62
9
  6
CONTINUOUS
 10
146.6571314951
 20
216.3638549733
  0
VERTEX
  8
0
 62
9
  6
CONTINUOUS
 10
145.8401753925
 20
215.2694798687
  0
SEQEND
  0
LINE
  8
0
 62
9
  6
CONTINUOUS
 10
163.9484235744
 20
217.3311503611
 11
163.9483841709
 21
217.3311609901
  0
LINE
  8
0
 62
9
  6
CONTINUOUS
 10
163.1337629371
 20
217.5509064967
 11
163.1338023405
 21
217.5508958678
  0
LINE
  8
0
 62
7
  6
CONTINUOUS
 10
153.3583475346
 20
220.1878419478
 11
154.1729687684
 21
219.9680964411
  0
LINE
  8
0
 62
7
  6
CONTINUOUS
 10
163.1338023405
 20
217.5508958678
 11
163.9484235744
 21
217.3311503611
  0
LINE
  8
0
 62
9
  6
CONTINUOUS
 10
154.1729687684
 20
219.9680964411
 11
154.172929365
 21
219.96810707
  0
LINE
  8
0
 62
9
  6
CONTINUOUS
 10
153.3583081312
 20
220.1878525767
 11
153.3583475346
 21
220.1878419478
  0
POLYLINE
  8
0
 62
7
  6
CONTINUOUS
 66
1
 70
0
  0
VERTEX
  8
0
 62
7
  6
CONTINUOUS
 10
167.5643910643
 20
214.2260750677
  0
VERTEX
  8
0
 62
7
  6
CONTINUOUS
 10
166.9796748886
 20
215.147247297
  0
VERTEX
  8
0
 62
7
  6
CONTINUOUS
 10
166.3144968174
 20
215.9251940704
  0
VERTEX
  8
0
 62
7
  6
CONTINUOUS
 10
165.5804331843
 20
216.5507379393
  0
VERTEX
  8
0
 62
7
  6
CONTINUOUS
 10
164.7888121657
 20
217.0196633551
  0
VERTEX
  8
0
 62
7
  6
CONTINUOUS
 10
163.9484235744
 20
217.3311503611
  0
SEQEND
  0
POLYLINE
  8
0
 62
9
  6
CONTINUOUS
 66
1
 70
0
  0
VERTEX
  8
0
 62
9
  6
CONTINUOUS
 10
167.5238833705
 20
213.8711125133
  0
VERTEX
  8
0
 62
9
  6
CONTINUOUS
 10
166.979681105
 20
214.7295469933
  0
VERTEX
  8
0
 62
9
  6
CONTINUOUS
 10
166.3548247118
 20
215.4603500908
  0
VERTEX
  8
0
 62
9
  6
CONTINUOUS
 10
165.6568030676
 20
216.049748685
  0
VERTEX
  8
0
 62
9
  6
CONTINUOUS
 10
164.8951222185
 20
216.4868248398
  0
VERTEX
  8
0
 62
9
  6
CONTINUOUS
 10
164.0808806969
 20
216.7641357445
  0
VERTEX
  8
0
 62
9
  6
CONTINUOUS
 10
163.2251844375
 20
216.8780019721
  0
VERTEX
  8
0
 62
9
  6
CONTINUOUS
 10
162.3382555074
 20
216.8274149973
  0
VERTEX
  8
0
 62
9
  6
CONTINUOUS
 10
161.4305033311
 20
216.6130932937
  0
VERTEX
  8
0
 62
9
  6
CONTINUOUS
 10
160.5125486794
 20
216.2374255864
  0
VERTEX
  8
0
 62
9
  6
CONTINUOUS
 10
159.5952554141
 20
215.7045299865
  0
VERTEX
  8
0
 62
9
  6
CONTINUOUS
 10
158.6910906752
 20
215.0215504786
  0
VERTEX
  8
0
 62
9
  6
CONTINUOUS
 10
157.8135012781
 20
214.1995345169
  0
VERTEX
  8
0
 62
9
  6
CONTINUOUS
 10
156.9751944303
 20
213.2526686142
  0
VERTEX
  8
0
 62
9
  6
CONTINUOUS
 10
156.1875847071
 20
212.1975864452
  0
SEQEND
  0
LINE
  8
0
 62
9
  6
CONTINUOUS
 10
170.1933315365
 20
208.9936032771
 11
167.5238833705
 21
213.8711125133
  0
LINE
  8
0
 62
7
  6
CONTINUOUS
 10
170.2377487188
 20
209.34142257
 11
167.5643910643
 21
214.2260750677
  0
POLYLINE
  8
0
 62
7
  6
CONTINUOUS
 66
1
 70
0
  0
VERTEX
  8
0
 62
7
  6
CONTINUOUS
 10
170.2377830556
 20
209.3413827102
  0
VERTEX
  8
0
 62
7
  6
CONTINUOUS
 10
170.2432349335
 20
209.3308073875
  0
VERTEX
  8
0
 62
7
  6
CONTINUOUS
 10
170.2666655224
 20
209.2531687668
  0
VERTEX
  8
0
 62
7
  6
CONTINUOUS
 10
170.2658851344
 20
209.1687778466
  0
VERTEX
  8
0
 62
7
  6
CONTINUOUS
 10
170.2409715765
 20
209.0804342565
  0
VERTEX
  8
0
 62
7
  6
CONTINUOUS
 10
170.1933315365
 20
208.9936032771
  0
SEQEND
  0
ARC
  8
0
 62
7
  6
CONTINUOUS
 10
61.576419214
 20
196.7294134825
 40
22.462
 50
111.2799664684
 51
178.3720599623
  0
ARC
  8
0
 62
7
  6
CONTINUOUS
 10
61.576419214
 20
196.7294134825
 40
22.462
 50
1.6279400377
 51
68.7200335316
  0
ARC
  8
0
 62
9
  6
CONTINUOUS
 10
53.6372602677
 20
204.8974134825
 40
14.294
 50
90.0
 51
178.3720599623
  0
ARC
  8
0
 62
9
  6
CONTINUOUS
 10
69.5155781602
 20
204.8974134825
 40
14.294
 50
1.6279400377
 51
90.0
  0
ARC
  8
0
 62
9
  6
CONTINUOUS
 10
53.6372602677
 20
204.8974134825
 40
13.7835000258
 50
90.0
 51
178.3720599623
  0
ARC
  8
0
 62
9
  6
CONTINUOUS
 10
69.5155781602
 20
204.8974134825
 40
13.7835000258
 50
1.6279400377
 51
90.0
  0
ARC
  8
0
 62
7
  6
CONTINUOUS
 10
74.0414522612
 20
209.1856134825
 40
0.5105
 50
1.0
 51
90.0
  0
ARC
  8
0
 62
7
  6
CONTINUOUS
 10
49.1113861668
 20
209.1856134825
 40
0.5105
 50
90.0
 51
179.0
  0
CIRCLE
  8
0
 62
7
  6
CONTINUOUS
 10
79.290769214
 20
256.4204046157
 40
3.82875
  0
CIRCLE
  8
0
 62
7
  6
CONTINUOUS
 10
61.576419214
 20
256.4204046157
 40
2.7567
  0
CIRCLE
  8
0
 62
7
  6
CONTINUOUS
 10
61.576419214
 20
256.4204046157
 40
2.3483
  0
CIRCLE
  8
0
 62
7
  6
CONTINUOUS
 10
79.290769214
 20
256.4204046157
 40
2.09305
  0
CIRCLE
  8
0
 62
7
  6
CONTINUOUS
 10
43.862069214
 20
256.4204046157
 40
2.09305
  0
CIRCLE
  8
0
 62
7
  6
CONTINUOUS
 10
79.290769214
 20
152.3372025329
 40
3.82875
  0
CIRCLE
  8
0
 62
7
  6
CONTINUOUS
 10
61.576419214
 20
152.3372025329
 40
2.7567
  0
CIRCLE
  8
0
 62
7
  6
CONTINUOUS
 10
61.576419214
 20
152.3372025329
 40
2.3483
  0
CIRCLE
  8
0
 62
7
  6
CONTINUOUS
 10
79.290769214
 20
152.3372025329
 40
2.09305
  0
CIRCLE
  8
0
 62
7
  6
CONTINUOUS
 10
43.862069214
 20
152.3372025329
 40
2.09305
  0
ENDSEC
  0
EOF
